osu file format v9

[General]
AudioFilename: Suisai Candy.mp3
AudioLeadIn: 1000
PreviewTime: 68030
Countdown: 0
SampleSet: Soft
StackLeniency: 0.5
Mode: 0
LetterboxInBreaks: 0

[Editor]
Bookmarks: 41596,112086,132226,158240,190967,209428,222855,241317,242995,249708,255372
DistanceSpacing: 1
BeatDivisor: 4
GridSize: 4

[Metadata]
Title:Suisai Candy
Artist:marble
Creator:No_Gu
Version:Hard
Source:Mashiro Iro Symphony - The color of lovers -
Tags:Nymph ending Netsukawa Naryuga collab karenying

[Difficulty]
HPDrainRate:6
CircleSize:4
OverallDifficulty:6
ApproachRate:7
SliderMultiplier:1.6
SliderTickRate:1

[Events]
//Background and Video events
0,0,"H.jpg"
//Break Periods
2,1517,2095
2,4873,5451
2,8030,20137
2,98859,111186
2,191167,195102
2,239838,241675
//Storyboard Layer 0 (Background)
Sprite,Background,Centre,"SB\white.jpg",320,240 F,0,58,1317,0,1 F,0,1317,21037,1
Sprite,Background,Centre,"SB\Ring.png",320,253 M,0,1317,,320,253 F,0,1317,2995,1,0 S,0,1317,2995,0.3679997,0.5759996 C,0,1317,2995,166,219,242
Sprite,Background,Centre,"SB\Ring.png",320,253 M,0,4673,,320,253 F,0,4673,6351,1,0 S,0,4673,6351,0.3679997,0.5759996 C,0,4673,6351,189,137,255
Sprite,Background,Centre,"SB\1.png",516,436 F,0,7820,8030,0,1 S,0,8030,,0.7039999 F,0,8030,8240,1,0 F,0,8240,8449,0,1 F,0,8449,8659,1,0 F,0,8659,8869,0,1 F,0,8869,9079,1,0
Sprite,Background,Centre,"SB\2.png",516,436 F,0,11177,11386,0,1 S,0,11386,,0.7039999 F,0,11386,11596,1,0 F,0,11596,11806,0,1 F,0,11806,12016,1,0 F,0,12016,12226,0,1 F,0,12226,12435,1,0
Sprite,Background,Centre,"SB\3.png",516,436 F,0,14533,14743,0,1 S,0,14743,,0.7039999 F,0,14743,14953,1,0 F,0,14953,15163,0,1 F,0,15163,15372,1,0 F,0,15372,15582,0,1 F,0,15582,15792,1,0
Sprite,Background,Centre,"SB\4.png",516,436 F,0,17890,18100,0,1 S,0,18100,,0.7039999 F,0,18100,18310,1,0 F,0,18310,18519,0,1 F,0,18519,18729,1,0 F,0,18729,18939,0,1 F,0,18939,19149,1,0
Sprite,Background,Centre,"SB\BG1.jpg",320,240 F,0,21456,21561,0,1 M,0,21456,41177,400,240,244,240 M,0,41177,41596,244,240,241,240
Sprite,Background,Centre,"SB\airi.png",320,240 M,0,21456,,217,240 F,0,21456,21561,0,1 F,0,21561,41596,1
Sprite,Background,Centre,"SB\BG2.jpg",320,240 M,0,41596,61107,400,240,283,240 F,0,41596,68449,1 M,0,61107,67610,283,240,244,240
Sprite,Background,Centre,"SB\sakuno.png",555,239 M,0,41596,,448,239 F,0,41596,,1 F,0,67610,,1
Sprite,Background,Centre,"SB\BG3.jpg",320,240 F,0,112086,112191,0,1 M,0,112086,132226,400,240,240,239
Sprite,Background,Centre,"SB\miu.png",320,240 M,0,112086,,189,240 F,0,112086,112191,0,1 F,0,129154,132226,1
Sprite,Background,Centre,"SB\BG4.jpg",320,240 M,0,132226,158240,239,240,394,240 F,0,132226,158240,1
Sprite,Background,Centre,"SB\angelina.png",320,240 M,0,132226,,418,240 F,0,132226,158240,1
Sprite,Background,Centre,"SB\SB2.jpg",320,240 F,0,68449,,1 M,0,68449,81876,398,299,281,212 S,0,68449,81876,1,0.8976 R,0,81876,,0
Sprite,Background,Centre,"SB\SB1.jpg",320,240 M,0,81666,81876,658,657,327,241 F,0,81876,,1 S,0,81876,,1 S,0,81876,98659,1,0.8873603 R,0,81876,98659,0,0.08191986 F,0,98240,98659,1,0
Sprite,Background,Centre,"SB\SB3.jpg",320,240 F,0,159079,,1 M,0,159079,172505,382,202,292,262 S,0,159079,172505,1,0.92832 R,0,159079,172505,0,-0.06143982
Sprite,Background,Centre,"SB\SB4.jpg",320,240 M,0,172296,172505,-221,-110,281,228 M,0,172505,189289,281,228,331,232 S,0,172505,189289,1,0.83616 F,0,188869,189289,1,0
Sprite,Background,Centre,"SB\SB5.png",320,240 F,0,209428,,1 S,0,209428,222855,1,0.8156799 R,0,209428,222855,0.14336,3.576279E-09
Sprite,Background,Centre,"SB\cat.jpg",320,240 F,0,235442,239638,1
Animation,Background,Centre,"SB\neko\cat.jpg",320,240,11,105,LoopForever M,0,235547,,241,335 F,0,235547,239638,1
//Storyboard Layer 1 (Fail)
//Storyboard Layer 2 (Pass)
//Storyboard Layer 3 (Foreground)
Sprite,Foreground,Centre,"SB\Lyric\01.png",320,240 F,0,21247,21456,0,1 M,0,21247,33624,244,389,339,389 F,0,21456,32995,1,0.94271 F,0,32995,33624,0.94271,0
Sprite,Foreground,Centre,"SB\Lyric\02.png",320,240 F,0,27960,28170,0,1 M,0,27960,33624,371,435,280,435 F,0,28170,32995,1 F,0,32995,33624,1,0
Sprite,Foreground,Centre,"SB\Lyric\03.png",320,240 F,0,41386,41596,0,1 M,0,41386,53974,373,396,255,396 F,0,41596,53135,1 F,0,53135,53974,1,0
Sprite,Foreground,Centre,"SB\Lyric\04.png",320,240 F,0,48100,48310,0,1 M,0,48100,53974,316,439,350,439 F,0,48310,53135,1 F,0,53135,53974,1,0
Sprite,Foreground,Centre,"SB\Lyric\05.png",320,240 F,0,54393,54603,0,1 M,0,54393,60268,256,394,339,394 F,0,54603,59848,1 F,0,59848,60268,1,0 F,0,60268,,0
Sprite,Foreground,Centre,"SB\Lyric\06.png",320,240 F,0,57750,57960,0,1 M,0,57750,60268,328,440,280,440 F,0,57960,59848,1 F,0,59848,60268,1,0
Sprite,Foreground,Centre,"SB\Lyric\07.png",320,240 F,0,61107,61317,0,1 M,0,61107,67610,339,394,256,394 F,0,61317,66771,1 F,0,66771,67610,1,0
Sprite,Foreground,Centre,"SB\Lyric\08.png",320,240 F,0,62785,62995,0,1 M,0,62785,67610,280,440,328,440 F,0,62995,66771,1 F,0,66771,67610,1,0
Sprite,Foreground,Centre,"SB\Lyric\11.png",320,240 F,0,111876,112086,0,1 M,0,111876,124673,230,389,354,389 F,0,112086,123624,1 F,0,123624,124673,1,0
Sprite,Foreground,Centre,"SB\Lyric\12.png",320,240 F,0,118589,118799,0,1 M,0,118589,124673,371,435,310,435 F,0,118799,123624,1 F,0,123624,124673,1,0
Sprite,Foreground,Centre,"SB\Lyric\13.png",320,240 F,0,132016,132226,0,1 M,0,132016,144393,373,396,267,396 F,0,132226,143764,1 F,0,143764,144393,1,0
Sprite,Foreground,Centre,"SB\Lyric\14.png",320,240 F,0,138729,138939,0,1 M,0,138729,144393,316,439,350,439 F,0,138939,143764,1 F,0,143764,144393,1,0
Sprite,Foreground,Centre,"SB\Lyric\15.png",320,240 F,0,145023,145233,0,1 M,0,145023,151107,256,394,339,394 F,0,145233,150477,1 F,0,150477,151107,1,0
Sprite,Foreground,Centre,"SB\Lyric\16.png",320,240 F,0,148379,148589,0,1 M,0,148379,151107,328,440,296,440 F,0,148589,150477,1 F,0,150477,151107,1,0
Sprite,Foreground,Centre,"SB\Lyric\17.png",320,240 F,0,151736,151946,0,1 M,0,151736,158240,339,394,256,394 F,0,151946,157400,1 F,0,157400,158240,1,0
Sprite,Foreground,Centre,"SB\Lyric\18.png",320,240 F,0,153414,153624,0,1 M,0,153414,158240,280,440,328,440 F,0,153624,157400,1 F,0,157400,158240,1,0
Sprite,Foreground,Centre,"SB\white.jpg",320,240 F,0,132226,132330,0.4520001,0
Sprite,Foreground,Centre,"SB\white.jpg",320,240 F,0,21037,21351,1,0 F,0,21351,21456,0,0.58
Sprite,Foreground,Centre,"SB\face\a1.jpg",320,240 F,0,222855,224114,1
Sprite,Foreground,Centre,"SB\face\a2.jpg",320,240 F,0,224114,224219,1
Sprite,Foreground,Centre,"SB\face\a3.jpg",320,240 F,0,224219,224323,1
Sprite,Foreground,Centre,"SB\face\a4.jpg",320,240 F,0,224323,224428,1
Sprite,Foreground,Centre,"SB\face\a5.jpg",320,240 F,0,224428,225372,1
Sprite,Foreground,Centre,"SB\face\s1.jpg",320,240 F,0,225372,226631,1
Sprite,Foreground,Centre,"SB\face\s2.jpg",320,240 F,0,226631,226736,1
Sprite,Foreground,Centre,"SB\face\s3.jpg",320,240 F,0,226736,226841,1
Sprite,Foreground,Centre,"SB\face\s4.jpg",320,240 F,0,226841,226946,1
Sprite,Foreground,Centre,"SB\face\s5.jpg",320,240 F,0,226946,227051,1
Sprite,Foreground,Centre,"SB\face\s1.jpg",320,240 F,0,227051,227890,1
Sprite,Foreground,Centre,"SB\face\a11.jpg",320,240 F,0,227890,229149,1
Sprite,Foreground,Centre,"SB\face\a22.jpg",320,240 F,0,229149,229254,1
Sprite,Foreground,Centre,"SB\face\a33.jpg",320,240 F,0,229254,229358,1
Sprite,Foreground,Centre,"SB\face\a44.jpg",320,240 F,0,229358,229463,1
Sprite,Foreground,Centre,"SB\face\a55.jpg",320,240 F,0,229463,230407,1
Sprite,Foreground,Centre,"SB\face\sn1.jpg",320,240 F,0,230407,231666,1
Sprite,Foreground,Centre,"SB\face\sn2.jpg",320,240 F,0,231666,231771,1
Sprite,Foreground,Centre,"SB\face\sn3.jpg",320,240 F,0,231771,231876,1
Sprite,Foreground,Centre,"SB\face\sn4.jpg",320,240 F,0,231876,231981,1
Sprite,Foreground,Centre,"SB\face\sn5.jpg",320,240 F,0,231981,232086,1 F,0,232086,232925,1
Sprite,Foreground,Centre,"SB\face\m1.jpg",320,240 F,0,232925,234184,1
Sprite,Foreground,Centre,"SB\face\m2.jpg",320,240 F,0,234184,234289,1
Sprite,Foreground,Centre,"SB\face\m3.jpg",320,240 F,0,234289,234393,1
Sprite,Foreground,Centre,"SB\face\m4.jpg",320,240 F,0,234393,234498,1
Sprite,Foreground,Centre,"SB\face\m5.jpg",320,240 F,0,234498,234603,1 F,0,234603,235442,1
Sprite,Foreground,Centre,"SB\Lyric\K1.png",320,240 F,0,68030,68449,0,1 M,0,68030,81247,384,394,275,394 F,0,68449,81037,1 F,0,81037,81247,1,0
Sprite,Foreground,Centre,"SB\Lyric\K2.png",320,240 F,0,74533,74953,0,1 M,0,74533,81247,262,437,324,437 F,0,74953,81037,1 F,0,81037,81247,1,0
Sprite,Foreground,Centre,"SB\Lyric\K3.png",320,240 F,0,81247,81666,0,1 M,0,81247,92156,384,394,275,394 F,0,81666,91736,1 F,0,91736,92156,1,0
Sprite,Foreground,Centre,"SB\Lyric\K4.png",320,240 F,0,87960,88170,0,1 M,0,87960,92156,262,437,324,437 F,0,88170,91736,1 F,0,91736,92156,1,0
Sprite,Foreground,Centre,"SB\Lyric\K5.png",320,240 F,0,91946,92365,0,1 M,0,91946,98659,384,394,275,394 F,0,92365,98240,1 F,0,98240,98659,1,0
Sprite,Foreground,Centre,"SB\Lyric\K6.png",320,240 F,0,93205,93414,0,1 M,0,93205,98659,262,437,324,437 F,0,93414,98240,1 F,0,98240,98659,1,0
Sprite,Foreground,Centre,"SB\Lyric\K7.png",320,240 F,0,158659,159079,0,1 M,0,158659,172086,384,394,275,394 F,0,159079,171666,1 F,0,171666,172086,1,0 M,0,172086,,320,240
Sprite,Foreground,Centre,"SB\Lyric\K8.png",320,240 F,0,164953,165163,0,1 M,0,164953,172086,262,437,324,437 F,0,165163,171666,1 F,0,171666,172086,1,0
Sprite,Foreground,Centre,"SB\Lyric\K9.png",320,240 F,0,172086,172505,0,1 M,0,172086,182785,384,394,275,394 F,0,172505,182365,1 F,0,182365,182785,1,0
Sprite,Foreground,Centre,"SB\Lyric\K10.png",320,240 F,0,178589,178799,0,1 M,0,178589,182785,262,437,324,437 F,0,178799,182365,1 F,0,182365,182785,1,0
Sprite,Foreground,Centre,"SB\Lyric\K5.png",320,240 F,0,182785,182995,0,1 M,0,182785,189289,384,394,275,394 F,0,182995,188869,1 F,0,188869,189289,1,0
Sprite,Foreground,Centre,"SB\Lyric\K12.png",320,240 F,0,183624,183834,0,1 M,0,183624,189289,262,437,324,437 F,0,183834,188869,1 F,0,188869,189289,1,0
Sprite,Foreground,Centre,"SB\Lyric\K1.png",320,240 F,0,209428,,1 M,0,209428,215303,253,355,342,351 F,0,214883,215303,1,0
Sprite,Foreground,Centre,"SB\Lyric\K2.png",320,240 F,0,215303,215722,0,1 M,0,215303,222435,393,400,287,400 F,0,222016,222435,1,0
Sprite,Foreground,Centre,"SB\Lyric\K3.png",320,240 S,0,222435,,0.8 F,0,222435,222855,0.006720126,1 M,0,222435,228729,272,445,379,446 F,0,222855,228310,1,0.9760765 F,0,228310,228729,0.9760765,0
Sprite,Foreground,Centre,"SB\Lyric\K4.png",320,240 S,0,228939,,0.7920001 F,0,228939,229358,0,1 M,0,228939,232925,349,397,275,400 F,0,232505,232925,1,0.05279968
Sprite,Foreground,Centre,"SB\Lyric\K5.png",320,240 S,0,233135,,0.7679999 F,0,233135,233554,0,1 M,0,233135,235862,303,446,362,448 F,0,233554,235442,1 F,0,235442,235862,1,0
Sprite,Foreground,Centre,"SB\Lyric\K6.png",320,240 S,0,234393,,0.752 F,0,234393,234813,0,1 M,0,234393,239638,322,406,187,409 F,0,239219,239638,1,0
Sprite,Foreground,Centre,"SB\white.jpg",320,240 F,0,242575,242995,0,1 F,0,242995,256421,1 F,0,256421,257261,1,0
Sprite,Foreground,Centre,"SB\2\green4.jpg",320,240 M,0,242995,,229,249 F,0,244044,244254,0.9619048,0
Sprite,Foreground,Centre,"SB\2\green2.jpg",320,240 M,0,244044,,378,99 F,0,244044,244254,0,1 F,0,245303,245512,1,0
Sprite,Foreground,Centre,"SB\2\white.jpg",320,240 M,0,242995,,527,107 F,0,244044,244254,1,0
Sprite,Foreground,Centre,"SB\2\yellow.jpg",320,240 M,0,244044,,84,387 F,0,244044,244254,0.08863998,1 F,0,245303,245512,1,0.1039999
Sprite,Foreground,Centre,"SB\2\red.jpg",320,240 M,0,245303,,80,95 F,0,245303,245512,0,1 F,0,246561,246771,1,0
Sprite,Foreground,Centre,"SB\2\..orz.jpg",320,240 M,0,247820,,81,388 F,0,247820,248030,0.12448,1 F,0,248030,,1 F,0,248030,,1 F,0,248030,249079,1 F,0,249079,249289,1,0
Sprite,Foreground,Centre,"SB\2\orange2.jpg",320,240 M,0,244044,,527,245 F,0,244044,244254,0,1 F,0,245303,245512,1,0
Sprite,Foreground,Centre,"SB\2\purple.jpg",320,240 M,0,242995,,377,386 F,0,244044,244254,1,0.07327988
Sprite,Foreground,Centre,"SB\2\blue.jpg",320,240 M,0,245303,,528,385 F,0,245303,245512,0,1 F,0,245512,246561,1,0.9808612 F,0,246561,246771,0.9808612,0
Sprite,Foreground,Centre,"SB\2\green.jpg",320,240 M,0,245303,,379,246 F,0,245303,245512,0,1 F,0,245512,246561,1 F,0,246561,246771,1,0
Sprite,Foreground,Centre,"SB\2\purple.jpg",320,240 M,0,246561,,81,249 F,0,246561,246771,0,1 F,0,247820,248030,1,0
Sprite,Foreground,Centre,"SB\2\orange.jpg",320,240 M,0,246561,,229,385 F,0,246561,246771,0.12448,1 F,0,247820,248030,1,0
Sprite,Foreground,Centre,"SB\2\yellow2.jpg",320,240 M,0,246561,,526,94 F,0,246561,246771,0,1 F,0,247820,248030,1,0
Sprite,Foreground,Centre,"SB\2\orange2.jpg",320,240 M,0,249079,,378,384 F,0,249079,249289,0,1 F,0,249603,249708,1,0
Sprite,Foreground,Centre,"SB\2\green4.jpg",320,240 M,0,247820,,379,237 F,0,247820,248030,0,1 F,0,249079,249289,1,0 F,0,249289,249708,0,0.01904762
Sprite,Foreground,Centre,"SB\2\green.jpg",320,240 M,0,249079,,528,97 F,0,249079,249289,0,1 F,0,249289,249603,1 F,0,249603,249708,1,0
Sprite,Foreground,Centre,"SB\2\blue2.jpg",320,240 M,0,247820,,228,99 F,0,247820,248030,0,1 F,0,249079,249289,1,0
Sprite,Foreground,Centre,"SB\2\pink.jpg",320,240 M,0,249079,,80,241 P,0,249079,,V F,0,249079,249289,0,1 F,0,249289,249603,1 F,0,249603,249708,1,0
Animation,Foreground,Centre,"SB\neko\neko-.png",320,240,10,111.8,LoopForever M,0,242995,,376,377 F,0,242995,,1 C,0,244044,244254,255,255,255,223,173,255 C,0,246561,246771,223,173,255,172,248,188 C,0,247820,248030,172,248,188,248,227,172 C,0,249079,249289,172,248,188,255,255,255 F,0,249708,,0
Animation,Foreground,Centre,"SB\neko\neko-.png",320,240,10,111.8,LoopForever M,0,242995,,376,95 F,0,242995,,1 C,0,244044,244254,172,248,188,172,204,248 C,0,246561,246771,172,204,248,131,255,248 C,0,247820,248030,131,255,248,241,153,157 C,0,249079,249289,241,153,157,255,164,115 F,0,249708,,0
Animation,Foreground,Centre,"SB\neko\neko-.png",320,240,10,111.8,LoopForever M,0,242995,,527,95 F,0,242995,,1 C,0,244044,244254,255,115,141,154,221,133 C,0,246561,246771,154,221,133,255,255,255 C,0,247820,248030,255,255,255,238,242,134 C,0,249079,249289,238,242,134,213,134,242 F,0,249708,,0
Animation,Foreground,Centre,"SB\neko\neko-.png",320,240,10,111.8,LoopForever M,0,242995,,229,95 F,0,242995,,1 C,0,244044,244254,112,239,231,239,112,223 C,0,245303,245512,239,112,223,239,237,112 C,0,246561,246771,239,237,112,127,239,112 C,0,247820,248030,127,239,112,149,202,125 C,0,249079,249289,149,202,125,241,153,157 F,0,249708,,0
Animation,Foreground,Centre,"SB\neko\neko-.png",320,240,10,111.8,LoopForever M,0,242995,,527,377 F,0,242995,,1 C,0,244044,244254,172,248,188,172,204,248 C,0,245303,245512,172,204,248,239,237,112 C,0,246561,246771,239,237,112,238,128,138 C,0,247820,248030,238,128,138,255,164,115 C,0,249079,249289,255,164,115,241,153,157 F,0,249708,,0
Animation,Foreground,Centre,"SB\neko\neko-.png",320,240,10,111.8,LoopForever M,0,242995,,230,377 F,0,242995,,1 C,0,244044,244254,248,227,172,154,221,133 C,0,245303,245512,154,221,133,248,227,172 C,0,246561,246771,248,227,172,255,255,255 C,0,247820,248030,255,255,255,239,237,112 C,0,249079,249289,239,237,112,213,134,242 F,0,249708,,0
Animation,Foreground,Centre,"SB\neko\neko-.png",320,240,10,111.8,LoopForever M,0,242995,,527,236 F,0,242995,,1 C,0,244044,244254,248,227,172,239,237,112 C,0,245303,245512,239,237,112,239,112,223 C,0,246561,246771,239,237,112,248,227,172 C,0,247820,248030,248,227,172,154,221,133 C,0,249079,249289,154,221,133,127,239,112 F,0,249708,,0
Animation,Foreground,Centre,"SB\neko\neko-.png",320,240,10,111.8,LoopForever M,0,242995,,376,236 F,0,242995,,1 C,0,244044,244254,239,112,223,243,157,96 C,0,245303,245512,243,157,96,154,221,133 C,0,246561,246771,154,221,133,239,237,112 C,0,247820,248030,239,237,112,98,157,231 C,0,249079,249289,98,157,231,126,205,239 F,0,249708,,0
Animation,Foreground,Centre,"SB\neko\neko-.png",320,240,10,111.8,LoopForever M,0,242995,,79,236 F,0,242995,,1 C,0,244044,244254,98,157,231,243,157,96 C,0,245303,245512,243,157,96,154,221,133 C,0,246561,246771,154,221,133,239,237,112 C,0,247820,248030,239,237,112,98,157,231 C,0,249079,249289,98,157,231,126,205,239 F,0,249708,,0
Animation,Foreground,Centre,"SB\neko\neko-.png",320,240,10,111.8,LoopForever M,0,242995,,230,236 F,0,242995,,1 C,0,244044,244254,191,142,190,223,173,255 C,0,245303,245512,223,173,255,234,97,117 C,0,246561,246771,234,97,117,154,221,133 C,0,247820,248030,154,221,133,248,227,172 C,0,249079,249289,172,248,188,255,231,0 F,0,249708,,0
Animation,Foreground,Centre,"SB\neko\neko-.png",320,240,10,111.8,LoopForever M,0,242995,,79,95 F,0,243557,,0.99488 C,0,244044,244254,126,205,239,98,157,231 C,0,245303,245512,98,157,231,43,142,190 C,0,246561,246771,43,142,190,126,205,239 C,0,247820,248030,126,205,239,243,157,96 C,0,249079,249289,243,157,96,239,237,112 F,0,249708,,0
Animation,Foreground,Centre,"SB\neko\neko-.png",320,240,10,111.8,LoopForever M,0,242995,,79,377 F,0,242995,,1 C,0,244044,244254,242,154,125,235,98,59 C,0,245303,245512,235,98,59,239,112,223 C,0,246561,246771,239,237,112,248,227,172 C,0,247820,248030,248,227,172,255,255,255 C,0,249079,249289,255,255,255,127,239,112 F,0,249708,,0
Sprite,Foreground,Centre,"SB\2\orange.jpg",320,240 S,0,255163,,0.5391998 M,0,255163,256421,244,92,205,40 F,0,256002,256421,1,0
Sprite,Foreground,Centre,"SB\2\green4.jpg",320,240 S,0,255163,,0.2115195 M,0,255163,256421,407,363,444,411 F,0,256002,256421,1,0.09376007
Sprite,Foreground,Centre,"SB\2\blue.jpg",320,240 S,0,255163,,0.3856 M,0,255163,256421,205,371,160,419 F,0,256002,256421,1,0
Sprite,Foreground,Centre,"SB\2\red.jpg",320,240 S,0,255163,,0.41632 M,0,255163,256421,459,181,532,150 F,0,256002,256421,1,0
Sprite,Foreground,Centre,"SB\2\green4.jpg",320,240 S,0,254743,,1.70656 F,0,254743,255163,1
Sprite,Foreground,Centre,"SB\2\yellow2.jpg",320,240 F,0,253904,,1 S,0,253904,,1.70656 F,0,254743,255163,1,0
Sprite,Foreground,Centre,"SB\2\pink.jpg",320,240 F,0,253065,,1 S,0,253065,,1.70656 F,0,253904,254743,1,0
Sprite,Foreground,Centre,"SB\2\orange4.jpg",320,240 F,0,252226,,1 S,0,252226,,1.70656 F,0,253065,253904,1,0
Sprite,Foreground,Centre,"SB\2\green3.jpg",320,240 F,0,251386,,1 S,0,251386,,1.70656 F,0,252226,253065,1,0
Sprite,Foreground,Centre,"SB\2\blue2.jpg",320,240 F,0,250547,,1 S,0,250547,,1.70656 F,0,251386,252226,1,0
Sprite,Foreground,Centre,"SB\2\blue.jpg",320,240 F,0,249708,,1 S,0,249708,,1.70656 F,0,250547,251386,1,0
Sprite,Foreground,Centre,"SB\2\..orz.jpg",320,240 S,0,249708,,1.70656 F,0,249708,250547,1,0
Sprite,Foreground,Centre,"SB\2\b1.png",320,240 F,0,255163,255268,1
Animation,Foreground,Centre,"SB\neko\neko-.png",320,240,10,111.8,LoopForever S,0,249708,,1.53248 C,0,249708,,246,173,255 M,0,249708,255163,320,240
Sprite,Foreground,Centre,"SB\2\b2.png",320,240 F,0,255268,255372,1
Sprite,Foreground,Centre,"SB\2\star.png",320,240 M,0,255163,256002,456,98,490,75 R,0,255163,257261,0,-6.67648 F,0,256421,257261,1,0
Sprite,Foreground,Centre,"SB\2\star.png",320,240 S,0,255163,,0.82592 M,0,255163,256002,131,204,78,195 R,0,255163,257261,-2.58048,4.42368 F,0,256421,257261,1,0
Sprite,Foreground,Centre,"SB\2\star.png",320,240 S,0,255163,,0.6518402 M,0,255163,256002,480,359,519,371 R,0,255163,257261,-0.73728,6.7584 F,0,256421,257261,1,0.04255997
Sprite,Foreground,Centre,"SB\white.jpg",320,240 F,0,67191,67610,0,1 F,0,67610,68449,1 F,0,68449,68659,1,0
Sprite,Foreground,Centre,"SB\white.jpg",320,240 F,0,41386,41596,0,1 F,0,41596,41701,1,0 F,0,132016,132226,0,1 F,0,132226,,1 F,0,132226,132435,1,0 F,0,157820,158240,0,1 F,0,158240,159079,1 F,0,159079,159289,1,0 F,0,208170,208589,0,1 F,0,208589,209428,1 F,0,209428,209848,1,0 F,0,222435,222855,0,1 F,0,222855,223275,1,0
Sprite,Foreground,Centre,"SB\heart.png",320,240 S,0,7820,,1 F,0,7820,8030,0,1 C,0,7820,11386,30,0,255,7,118,255 C,0,11386,14743,7,118,255,101,213,206 C,0,14743,18100,101,213,206,78,236,141 C,0,18100,21037,78,236,141,171,236,78 F,0,21037,,0.9952381
Sprite,Foreground,Centre,"SB\heart2.png",320,240 M,0,7820,,60,302 F,0,7820,8030,0,1 R,0,7820,19778,-0.5939197,-12.61568 F,0,19358,19778,1,0
Sprite,Foreground,Centre,"SB\sweet.png",320,240 M,0,11177,,593,138 F,0,11177,11386,0,1 R,0,11177,19778,0,5.959681 F,0,19358,19778,1,0
Sprite,Foreground,Centre,"SB\sweet2.png",320,240 M,0,17890,,530,350 F,0,17890,18100,0,1 R,0,17890,19778,0,-2.949121 F,0,19358,19778,1,0
Sprite,Foreground,Centre,"SB\white.jpg",320,240 F,0,112086,112191,0.488,0
Sprite,Foreground,Centre,"SB\title.png",320,240 F,0,7820,10547,1 M,0,8030,,316,176 F,0,10547,11386,1,0
Sprite,Foreground,Centre,"SB\artist.png",320,240 M,0,10547,,309,179 F,0,10547,11386,0,1 F,0,13904,14743,0.9964243,0
Sprite,Foreground,Centre,"SB\Source.png",320,240 M,0,13904,,321,179 F,0,13904,14743,0,1 F,0,14743,17261,1,0.9937419 F,0,17261,18100,0.9937419,0
Sprite,Foreground,Centre,"SB\SB.png",320,240 M,0,17261,,317,195 F,0,17261,18100,0,1 F,0,18100,21037,1,0.9955733
Sprite,Foreground,Centre,"SB\2\star.png",320,240 S,0,19778,,1 M,0,19778,20512,115,-19,134,490
Sprite,Foreground,Centre,"SB\2\star.png",320,240 M,0,20198,21037,425,-25,449,326
Sprite,Foreground,Centre,"SB\2\star.png",320,240 M,0,20617,21037,72,-29,79,271
Sprite,Foreground,Centre,"SB\2\star.png",320,240 M,0,20722,21037,390,-34,389,147
Sprite,Foreground,Centre,"SB\2\star.png",320,240 M,0,20617,21037,504,-28,552,405
Sprite,Foreground,Centre,"SB\2\star.png",320,240 M,0,20722,21037,188,-30,191,128
Sprite,Foreground,Centre,"SB\2\star.png",320,240 F,0,20827,,1 M,0,20827,21037,117,-29,117,107
Sprite,Foreground,Centre,"SB\2\star.png",320,240 M,0,20932,21037,475,-27,482,75
Sprite,Foreground,Centre,"SB\2\star.png",320,240 M,0,20722,21037,543,-23,555,221
Sprite,Foreground,Centre,"SB\2\star.png",320,240 M,0,20827,21037,291,-27,305,267
Sprite,Foreground,Centre,"H.jpg",320,240 S,0,239219,,0.625 F,0,239219,239638,0,1
//Storyboard Sound Samples
//Background Colour Transformations
3,100,163,162,255

[TimingPoints]
1317,419.58041958042,4,2,1,70,1,0
2995,-100,4,2,1,5,0,0
4673,-100,4,2,1,70,0,0
6351,-100,4,2,1,5,0,0
21037,-100,4,1,1,30,0,0
21456,-100,4,2,1,60,0,0
33205,-100,4,2,1,20,0,0
33624,-100,4,2,1,40,0,0
34044,-100,4,2,1,60,0,0
34463,-100,4,2,1,80,0,0
34883,-100,4,2,2,70,0,0
35093,-100,4,2,1,70,0,0
35303,-100,4,2,2,70,0,0
35512,-100,4,2,1,70,0,0
35722,-100,4,2,2,70,0,0
36351,-100,4,2,1,70,0,0
36561,-100,4,2,2,70,0,0
36771,-100,4,2,1,70,0,0
36981,-100,4,2,2,70,0,0
37191,-100,4,2,1,70,0,0
37820,-100,4,2,2,70,0,0
38449,-100,4,2,1,70,0,0
38659,-100,4,2,2,70,0,0
38869,-100,4,2,1,70,0,0
39079,-100,4,2,2,70,0,0
39708,-100,4,2,1,70,0,0
39918,-100,4,2,2,70,0,0
40128,-100,4,2,1,70,0,0
40337,-100,4,2,2,70,0,0
40547,-100,4,2,1,70,0,0
41177,-100,4,2,2,70,0,0
41386,-100,4,1,1,30,0,0
41596,-100,4,2,1,70,0,0
68449,-100,4,2,1,70,0,1
81771,-100,4,2,1,70,0,0
81876,-100,4,2,1,70,0,1
98240,-100,4,2,2,70,0,1
98659,-100,4,2,2,70,0,0
112086,-100,4,2,1,70,0,0
125512,-100,4,2,2,70,0,0
128030,-100,4,2,1,70,0,0
128554,-100,4,2,2,70,0,0
131386,-100,4,2,1,70,0,0
157820,-100,4,2,2,70,0,0
159079,-100,4,2,1,70,0,1
172400,-100,4,2,1,70,0,0
172505,-100,4,2,1,70,0,1
189289,-100,4,2,1,70,0,0
208170,-100,4,2,2,70,0,0
208379,-100,4,2,1,70,0,0
208589,-100,4,2,2,70,0,0
209428,-100,4,2,1,70,0,1
222750,-100,4,2,1,70,0,0
222855,-100,4,2,1,70,0,1
239219,-100,4,2,2,70,0,1
239638,-100,4,2,1,70,0,0
251386,-100,4,2,2,70,0,0
251806,-100,4,2,1,70,0,0
255163,-100,4,2,2,5,0,0
255372,-100,4,1,1,5,0,0

[Colours]
Combo1 : 128,0,255
Combo2 : 98,255,98
Combo3 : 49,207,253
Combo4 : 255,98,255

[HitObjects]
256,192,1317,5,0
256,192,2995,5,0
256,192,3834,1,0
256,192,4673,5,0
256,192,6351,5,0
256,192,7191,1,0
120,124,21037,5,4
120,124,21456,6,0,B|200:140|280:124,1,160,4|2
356,96,22086,1,0
356,96,22505,1,0
340,176,22715,2,0,B|324:256|340:336,1,160,2|0
264,360,23344,2,0,B|232:340|184:348,1,80,0|2
64,244,23974,1,0
4,192,24184,1,0
64,140,24393,1,2
204,60,24813,6,0,B|276:52|312:104|312:104|352:64,1,160,0|2
368,152,25442,2,0,B|394:125|394:125|430:177|502:169,1,160,0|0
476,92,26072,1,2
476,92,26491,2,0,B|432:164|452:256,1,160,0|2
332,224,27121,2,0,B|376:152|356:60,1,160,0|0
288,28,27750,1,2
280,108,27960,1,0
212,152,28170,6,0,B|160:152|132:168|132:168|104:152|56:152,1,160,0|2
52,256,28799,2,0,B|104:256|132:240|132:240|160:256|208:256,1,160,0|2
207,255,29638,1,0
207,255,30058,1,2
207,255,30477,1,2
207,255,30897,1,0
264,312,31107,1,2
284,236,31317,6,0,B|444:204,1,160,0|0
460,128,31946,2,0,B|300:160,2,160,2|0|2
320,48,33205,6,0,B|280:40|240:48,1,80,2|0
380,116,33624,2,0,B|388:156|380:196,1,80,2|0
232,260,34044,2,0,B|272:268|312:260,1,80,2|0
172,192,34463,2,0,B|164:152|172:112,1,80,2|0
144,272,34883,6,0,B|128:316|80:324,1,80,12|0
72,244,35303,2,0,B|56:80,1,160,8|8
212,48,36142,1,8
324,12,36351,1,0
304,132,36561,2,0,B|344:204|320:288,1,160,8|8
244,312,37191,2,0,B|224:296|200:300,2,40,2|0|2
304,364,37610,1,2
380,344,37820,2,0,B|424:364|472:352,1,80,10|0
432,280,38240,6,0,B|472:116,1,160,8|8
452,48,38869,1,0
392,100,39079,1,8
392,100,39498,2,0,B|352:116|308:100,1,80,10|0
256,160,39918,2,0,B|216:144|172:160,1,80,10|0
216,228,40337,1,8
136,228,40547,2,0,B|96:252,1,40,2|0
96,288,40757,2,0,B|56:280|16:288,1,80,2|0
168,340,41177,2,0,B|207:332|247:340,1,80,8|0
268,344,41491,1,0
288,348,41596,6,0,B|372:324|392:236,1,160,4|8
464,272,42226,2,0,B|377:252|353:168,1,160,0|0
336,92,42855,1,8
356,16,43065,1,0
268,152,43275,2,0,B|184:120|112:156,1,160,0|8
52,204,43904,1,0
124,236,44114,2,0,B|152:268|144:320,2,80,0|0|8
52,204,44743,2,0,B|32:160,1,40
48,128,44953,6,0,B|136:112|168:24,1,160,4|8
288,132,45582,2,0,B|208:164|189:249,1,160
208,328,46212,1,8
280,364,46421,1,0
280,364,46841,2,0,B|320:360|352:324,1,80,0|8
427,347,47261,2,0,B|340:340|308:256,1,160
280,140,47890,1,8
192,224,48100,1,0
88,100,48310,6,0,B|136:92|176:112|176:112|252:56,1,160,4|8
304,32,48939,2,0,B|324:80|292:128|292:128|328:128|360:164,1,160
292,208,49568,2,0,B|260:296,1,80,8|0
320,344,49988,2,0,B|352:264,1,80
420,232,50407,2,0,B|464:204|464:204|468:164|492:136,1,120,8|0
500,124,50827,1,0
452,60,51037,2,0,B|460:36|480:20,2,40,0|0|8
412,128,51456,1,0
264,192,51666,6,0,B|280:208|280:228,2,40,4|0|0
200,240,52086,2,0,B|152:252|132:284|132:284|100:264|32:280,1,160,8|0
12,208,52715,1,0
56,140,52925,2,0,B|88:52,1,80,8|4
156,32,53344,2,0,B|200:104|312:96,1,160,0|8
352,40,53974,2,0,B|372:56|372:80,1,40
376,92,54184,2,0,B|376:140|420:164,2,80,0|0|8
456,88,54813,1,0
368,224,55023,6,0,B|200:244,1,160,4|8
132,148,55652,1,0
208,168,55862,2,0,B|376:148,1,160,0|8
416,84,56491,2,0,B|484:84|500:176|432:196,1,160
388,348,57121,2,0,B|320:348|304:256|372:236,1,160,8|0
332,124,57750,5,0
448,152,57960,1,8
336,36,58170,1,0
316,40,58275,1,0
296,44,58379,2,0,B|208:64|176:152,1,160,4|8
200,220,59009,1,0
156,284,59219,6,0,B|184:204|272:184,1,160,0|8
328,240,59848,2,0,B|412:260|488:240,1,160
508,164,60477,2,0,B|504:84,1,80,8|0
436,184,60897,2,0,B|420:92,1,80
368,212,61317,2,0,B|340:132,1,80,8|0
276,92,61736,6,0,B|200:140|104:112,1,160,4|8
60,68,62365,2,0,B|60:48|40:32,1,40
20,152,62785,1,0
8,232,62995,1,8
84,204,63205,1,0
84,204,63624,1,0
144,256,63834,1,8
160,176,64044,1,0
228,132,64254,2,0,B|316:160|384:116,1,160,0|8
384,276,64883,6,0,B|318:233|230:261,1,160,4|0
208,336,65512,2,0,B|156:324|148:272,1,80,8|0
72,284,65932,2,0,B|72:232|116:212|116:212|92:120,1,160,0|8
140,76,66561,1,0
208,116,66771,1,8
328,120,66981,1,0
208,116,67191,1,8
348,192,67400,2,0,B|372:228,2,40,0|0|8
348,192,68449,6,0,B|264:200,1,80,4|0
112,156,68869,2,0,B|196:148,1,80,8|0
248,40,69289,1,0
324,132,69498,2,0,B|348:136|368:120,1,40
380,112,69708,2,0,B|416:96|460:104,1,80,8|0
424,176,70128,1,0
440,296,70337,1,0
332,244,70547,1,8
280,184,70757,2,0,B|260:204|256:224,3,40,8|8|0|0
248,256,71177,2,0,B|224:292|180:300,1,80,0|8
176,220,71596,6,0,B|188:136|156:60,1,160,2|0
272,28,72226,2,0,B|260:112|292:188,1,160,8|0
300,264,72855,2,0,B|348:260|368:212,1,80,0|8
364,140,73275,2,0,B|384:48,1,80
448,208,73694,2,0,B|444:128,1,80,0|8
512,276,74114,2,0,B|468:288|452:328,1,80
352,256,74533,1,0
336,376,74743,1,8
336,376,75163,6,0,B|292:364|272:332|272:332|232:356|176:340,1,160,2|8
220,268,75792,2,0,B|176:256|141:278|141:278|121:246|77:234,1,160,0|0
64,316,76421,2,0,B|88:156,1,160,8|0
148,104,77051,1,0
168,100,77156,1,0
188,96,77261,2,0,B|228:88|268:96,2,80,8|0|0
228,164,77890,1,0
332,284,78100,1,8
416,380,78310,6,0,B|396:360|368:348|368:348|416:316|400:256,1,160
464,208,78939,2,0,B|480:120,1,80,8|0
396,44,79358,1,0
356,156,79568,2,0,B|320:180,1,40
304,188,79778,2,0,B|260:180|221:197,1,80,8|0
236,276,80198,2,0,B|164:280|140:216|140:216|128:240|108:248,1,160,0|8
120,324,80827,2,0,B|107:328|95:352|95:352|71:288|0:292,1,160,0|0
28,136,81456,1,8
28,136,81876,6,0,B|112:152|188:104,1,160,4|8
196,188,82505,2,0,B|236:176|256:132|256:132|276:176|312:188,1,160
330,107,83135,2,0,B|400:152|484:136,1,160,8|0
508,212,83764,1,0
460,276,83974,2,0,B|384:308|384:308|344:296|304:308,1,160,8|0
248,256,84603,2,0,B|264:240|288:236,2,40,0|0|8
236,336,85023,6,0,B|152:336|68:324,1,160,2|0
28,260,85652,2,0,B|44:180|28:100,1,160,8|0
56,24,86282,1,0
104,88,86491,1,8
256,136,86701,2,0,B|288:200|228:224|256:292,1,160
324,256,87330,2,0,B|348:180,1,80,8|0
192,176,87750,2,0,B|168:252,1,80,0|0
104,308,88170,1,8
68,192,88379,1,0
112,80,88589,6,0,B|276:52,1,160,4|8
316,116,89219,2,0,B|152:144,1,160
136,220,89848,1,8
92,288,90058,2,0,B|148:324|208:272|208:272|216:232,1,160
256,168,90687,1,8
297,238,90897,2,0,B|304:272|304:272|364:324|420:288,1,160
376,220,91526,2,0,B|388:128,1,80,8|4
386,140,92365,5,8
386,140,92785,2,0,B|296:148,1,80
244,96,93205,1,8
228,176,93414,2,0,B|172:232|80:220,1,160,4|0
224,292,94044,2,0,B|280:236|372:248,1,160,8|0
448,268,94673,1,0
512,316,94883,1,8
500,196,95093,6,0,B|472:28,1,160,4|2
396,20,95722,1,8
332,68,95932,2,0,B|292:148|196:140,1,160
128,112,96561,1,8
132,192,96771,2,0,B|104:224|48:224|48:224|56:264|28:308,1,160,4|0
100,340,97400,2,0,B|264:308,1,160,8|0
257,309,98240,2,2,B|296:312,4,40,2|2|2|2|4
256,192,112086,6,0,B|336:208|416:192,1,160,4|8
272,120,112715,2,0,B|192:104|112:120,1,160,0|0
96,200,113344,2,0,B|52:192|36:152,1,80,8|0
164,252,113764,2,0,B|252:264|272:356,1,160,0|8
360,272,114393,2,0,B|272:260|252:168,1,160,0|0
228,92,115023,2,0,B|184:104|172:148,1,80,8|0
92,124,115442,6,0,B|114:41|203:17,1,160,4|8
228,92,116072,2,0,B|251:178|334:201,1,160,0|0
376,268,116701,2,0,B|416:240|408:188,1,80,8|0
292,308,117121,2,0,B|264:268|212:276,1,80,0|0
232,356,117540,2,0,B|212:184,1,160,8|0
204,120,118170,1,0
184,124,118275,1,0
168,136,118379,2,0,B|128:164|140:212,1,80,8|0
60,216,118799,6,0,B|8:176|8:176|56:152|56:96,1,160,4|8
136,84,119428,2,0,B|176:32|176:32|200:80|256:80,1,160,0|0
320,40,120058,1,8
324,120,120268,2,0,B|344:160|320:208,1,80
404,204,120687,2,0,B|405:248|363:282,1,80,0|8
440,316,121107,2,0,B|422:357|370:369,1,80
308,332,121526,1,0
228,244,121736,1,8
188,356,121946,1,0
188,356,122365,5,0
124,304,122575,2,0,B|80:268|20:272|20:272|20:204,1,160,8|0
176,188,123414,2,0,B|176:138|176:138|236:142|280:106,1,160,8|0
336,52,124044,1,0
352,132,124254,2,0,B|356:224,1,80,8|0
420,112,124673,2,0,B|436:208,1,80
484,84,125093,2,0,B|512:176,1,80,8|0
492,240,125512,6,0,B|460:320|360:304,1,160,12|8
200,300,126351,2,0,B|232:220|332:236,1,160,10|8
252,96,127191,2,0,B|220:176|120:160,1,160,8|10
76,272,128030,2,0,B|72:320|92:352,2,80,2|0|8
220,208,128869,6,0,B|248:156|332:144|332:144|360:164,1,160,12|8
256,284,129708,2,0,B|228:336|144:348|144:348|116:328,1,160,10|8
276,380,130547,2,0,B|304:328|388:316|388:316|416:336,1,160,8|10
472,184,131386,1,2
404,84,131596,1,0
396,204,131806,1,8
472,112,132016,1,0
356,140,132226,6,0,B|192:156,1,160,4|8
156,244,132855,2,0,B|320:228,1,160,0|0
396,236,133484,2,0,B|436:252|456:292,1,80,8|0
376,316,133904,2,0,B|332:332|312:364|312:364|280:344|228:352,1,160,0|8
172,248,134533,1,0
116,356,134743,2,0,B|72:364|36:348,2,80,0|0|8
88,280,135372,1,0
168,292,135582,6,0,B|336:284,1,160,4|8
328,204,136212,2,0,B|160:212,1,160
104,164,136841,1,8
104,164,137261,2,0,B|144:88|232:80,1,160,0|8
284,140,137890,2,0,B|291:227|367:267,1,160
440,232,138519,1,8
432,312,138729,1,0
424,328,138834,1,0
416,348,138939,6,0,B|376:376|320:372,1,80,4|0
276,324,139358,2,0,B|192:312|116:324,1,160,8|0
56,272,139988,2,0,B|92:248|132:248,1,80,0|8
184,188,140407,2,0,B|236:184|256:216|256:216|264:176|316:160,1,160
332,240,141037,2,0,B|416:248,1,80,8|0
492,260,141456,1,0
492,260,141876,2,0,B|480:176,1,80,8|0
424,124,142296,6,0,B|332:136|260:104,1,160,4|8
200,64,142925,1,0
148,216,143344,1,0
104,284,143554,2,0,B|144:300|192:288,1,80,8|4
182,290,144184,2,0,B|224:280|264:296,1,80,0|8
328,336,144603,1,0
392,288,144813,2,0,B|404:272|428:264,3,40,0|0|0|0
444,228,145233,2,0,B|472:188|464:144,1,80,8|0
376,156,145652,6,0,B|208:128,1,160,4|8
180,200,146282,2,0,B|348:228,1,160
388,288,146911,2,0,B|432:284|464:304|464:304|484:352|524:360,1,160,8|0
380,368,147540,2,0,B|336:372|304:352|304:352,1,80,0|8
244,300,147960,2,0,B|80:300,1,160
36,236,148589,1,8
36,236,149009,6,0,B|104:188|96:96,1,160,0|8
84,16,149638,1,0
160,48,149848,2,0,B|208:116|300:108,1,160,0|8
356,52,150477,2,0,B|424:68|416:156|356:164,1,160
280,184,151107,2,0,B|236:228|236:268,1,80,8|0
288,312,151526,2,0,B|248:232|160:220,1,160,0|8
84,212,152156,1,0
128,144,152365,6,0,B|208:104|220:16,1,160,4|8
240,16,152890,2,0,B|268:20|280:40,1,40,0|2
332,92,153205,2,0,B|308:176|352:256,1,160,0|8
360,328,153834,1,0
360,328,154254,2,0,B|316:324|276:340,1,80,0|8
208,304,154673,2,0,B|216:208|144:160,1,160
76,128,155303,1,8
176,64,155512,6,0,B|216:56|256:72|256:72|292:48|344:44,1,160,4|0
324,124,156142,2,0,B|360:200,1,80,8|0
204,144,156561,2,0,B|168:220,1,80
280,332,156981,1,8
280,332,157400,1,8
280,332,157820,2,2,B|324:340,4,40
280,332,159079,6,0,B|364:336|432:292,1,160,4|8
456,216,159708,2,0,B|451:131|495:63,1,160,0|0
376,72,160337,2,0,B|356:112|312:116,1,80,8|0
278,43,160757,2,0,B|334:107|302:195,1,160,0|8
232,232,161386,2,0,B|260:276|312:272,1,80
376,256,161806,1,0
232,328,162016,2,0,B|192:324|152:348,1,80,8|0
84,312,162435,6,0,B|104:220|56:152,1,160,4|8
164,100,163065,2,0,B|144:192|192:260,1,160,0|0
248,308,163694,2,0,B|288:316|328:308,1,80,8|0
400,276,164114,1,0
464,176,164323,1,0
364,112,164533,1,8
288,204,164743,2,0,B|240:204|212:176|212:176|176:188|136:184,1,160
164,108,165372,1,8
84,116,165582,1,0
84,276,165792,6,0,B|172:268|240:304,1,160,0|8
308,264,166421,1,0
308,344,166631,2,0,B|352:348|376:308,2,80,0|0|8
420,228,167261,2,0,B|412:144|448:68,1,160
284,76,167890,2,0,B|292:160|256:236,1,160,8|0
180,216,168519,1,0
204,292,168729,1,8
116,160,168939,6,0,B|112:220|12:228|0:172,1,160,0|0
132,84,169568,2,0,B|136:24|236:16|248:72,1,160,8|0
204,176,170198,2,0,B|196:136,2,40,0|0|8
320,208,170617,1,0
232,292,170827,2,0,B|168:324|168:324|124:312|80:324,1,160,2|8
16,276,171456,1,2
16,276,171876,1,4
52,204,172086,1,8
52,204,172505,6,0,B|132:200|204:152,1,160,4|8
232,80,173135,2,0,B|276:96|284:148,1,80
348,236,173554,2,0,B|364:192|416:184,1,80,0|8
424,264,173974,2,0,B|408:344|408:344|364:332|324:344,1,160
252,328,174603,2,0,B|208:320|188:284,1,80,8|0
260,248,175023,2,0,B|240:88,1,160,0|8
128,48,175652,1,0
140,168,175862,6,0,B|92:176|52:164|52:164|60:204|36:240,1,160,4|8
200,220,176491,2,0,B|248:212|288:224|288:224|280:184|304:148,1,160,0|0
364,204,177121,2,0,B|444:204,1,80,8|0
496,264,177540,2,0,B|512:332|428:364|392:312,1,160,0|8
320,292,178170,1,0
320,292,178589,1,0
284,220,178799,2,0,B|244:240|240:284,1,80,8|0
160,296,179219,6,0,B|124:220|36:208,1,160,4|8
108,112,179848,2,0,B|144:188|232:200,1,160,0|0
304,164,180477,1,8
384,300,180687,2,0,B|424:288|440:248,1,80,2|0
452,128,181107,2,0,B|412:140|396:180,1,80,2|8
400,316,181526,2,0,B|440:304|456:264,1,80,2|0
440,112,181946,2,0,B|400:124|384:164,1,80,2|8
240,236,182365,6,0,B|176:176|84:184,1,160,4|0
32,128,182995,1,8
32,128,183414,2,0,B|28:176|0:216,1,80
24,324,183834,1,8
120,252,184044,2,0,B|208:236|268:164,1,160,4|0
308,116,184673,1,8
308,116,185093,2,0,B|344:104|396:108,1,80
456,148,185512,1,8
388,188,185722,6,0,B|332:244|324:332,1,160,4|2
228,256,186351,1,8
204,372,186561,2,0,B|140:324|40:324,1,160
16,252,187191,1,8
64,188,187400,2,0,B|112:124|112:24,1,160
188,8,188030,5,8
196,24,188449,1,0
204,40,188869,5,8
220,120,189079,2,0,B|228:164|204:200,1,80,8|4
256,192,189393,12,0,190967
256,132,196002,6,0,B|336:120|416:132,2,160,4|8|0
188,172,197051,1,0
256,212,197261,2,0,B|228:292|136:304,1,160,8|0
52,168,198100,2,0,B|84:96|84:96|124:84|152:52,1,160,8|0
232,40,198729,2,0,B|268:64|272:108,1,80,0|8
271,106,199358,6,0,B|232:184|256:264,2,160,0|8|0
328,48,200407,1,0
348,124,200617,2,0,B|384:140|432:136|432:136|504:180,1,160,8|0
496,256,201247,1,0
424,288,201456,1,8
348,268,201666,1,0
348,268,202086,2,0,B|268:292,1,80,0|8
271,290,202715,6,0,B|192:280|108:292,2,160,4|8|0
356,156,203764,1,0
300,212,203974,2,0,B|220:222|136:210,2,160,8|0|8
364,64,205233,2,0,B|408:64|444:40,2,80,0|0|8
364,64,206072,6,0,B|224:148,1,160,4|8
160,292,206911,2,0,B|300:208,1,160,0|8
428,304,207750,2,0,B|464:280|456:224,1,80,2|0
376,244,208170,1,8
304,148,208379,1,8
252,256,208589,1,2
252,256,209428,6,0,B|172:280|92:256,1,160,4|8
236,336,210058,2,0,B|316:312|396:336,1,160
472,332,210687,2,0,B|464:288|428:264,1,80,8|0
356,236,211107,2,0,B|268:204|252:116,1,160,0|8
296,56,211736,2,0,B|264:144|176:160,1,160
152,84,212365,2,0,B|116:104|104:148,1,80,8|0
132,220,212785,6,0,B|104:300|16:332,1,160,4|8
184,320,213414,2,0,B|212:240|300:208,1,160
372,200,214044,1,8
280,68,214254,2,0,B|244:88|204:96,1,80,2|0
348,168,214673,2,0,B|306:166|268:152,1,80,2|8
360,288,215093,2,0,B|325:265|299:234,1,80,2|0
148,180,215512,2,0,B|104:176|64:192,1,80,0|8
116,256,215932,1,0
120,276,216037,1,0
124,296,216142,6,0,B|168:332|220:312|220:312|248:260,1,160,4|8
292,328,216771,2,0,B|319:276|319:276|371:256|415:292,1,160
480,336,217400,1,8
488,256,217610,2,0,B|444:184|456:96,1,160
396,48,218240,1,8
396,48,218659,1,0
316,48,218869,2,0,B|324:88|356:116,1,80,0|8
352,196,219289,6,0,B|264:184|192:220,1,160
116,200,219918,2,0,B|128:156|108:120,1,80,8|0
40,164,220337,2,0,B|16:240,2,80,0|0|8
36,84,220967,1,0
192,56,221177,2,0,B|272:40|352:52,1,160,2|8
424,84,221806,1,0
424,84,222226,1,4
484,136,222435,2,0,B|452:160|408:160,1,80,8|0
340,200,222855,6,0,B|244:192|184:256,1,160,4|8
152,132,223484,2,0,B|248:140|308:76,1,160
368,124,224114,2,0,B|356:164|372:208,1,80,8|0
436,252,224533,2,0,B|448:292|432:336,2,80,0|0|8
280,292,225163,2,0,B|192:296|192:296|156:272|112:280,1,160
132,360,225792,2,0,B|52:368,1,80,8|0
92,212,226212,6,0,B|144:176|136:108|136:108|156:92|184:92,1,160,4|8
256,180,226841,1,0
338,92,227051,2,0,B|356:92|376:108|376:108|368:176|420:212,1,160,0|8
492,248,227680,2,0,B|464:284|424:292,1,80,2|0
384,360,228100,2,0,B|348:332|340:292,1,80,2|8
272,256,228519,2,0,B|300:220|340:212,1,80,2|0
388,152,228939,2,0,B|412:116|408:76,1,80,0|8
328,92,229358,1,0
188,168,229568,6,0,B|20:184,1,160,4|8
72,252,230198,2,0,B|240:236,1,160,0|0
276,304,230827,2,0,B|312:280|316:232,1,80,8|0
348,80,231247,2,0,B|360:160|420:224,1,160,0|8
264,184,231876,2,0,B|252:104|192:40,1,160,0|0
120,72,232505,2,0,B|120:116|84:152,1,80,8|4
90,144,233135,6,0,B|128:168|136:216,1,80,0|8
56,216,233554,2,0,B|216:208,1,160
248,284,234184,2,0,B|288:268|296:220,1,80,8|4
295,223,234813,2,0,B|332:208|376:216,1,80,0|8
432,272,235233,1,0
440,292,235337,1,0
448,312,235442,2,0,B|464:352|508:364,1,80
352,312,235862,2,0,B|336:272|292:260,1,80,8|4
294,260,236491,6,0,B|240:256|224:216,1,80,0|8
275,158,236911,2,0,B|243:238|155:254,1,160
76,272,237540,2,0,B|67:231|91:195,1,80,8|4
91,195,238170,2,0,B|104:152|80:112,1,80,0|12
16,76,238589,2,0,B|68:136|168:120,1,160
236,88,239219,2,0,B|256:84|280:88,4,40,2|2|2|2|4
236,88,242575,5,8
236,88,242995,6,0,B|312:112|396:88,2,160,4|8|0
224,248,244254,2,0,B|148:224|64:248,2,160,8|0|8
384,264,245512,2,0,B|404:304|392:352,2,80,0|0|8
292,132,246351,5,0
216,108,246561,1,0
140,132,246771,2,0,B|112:216|16:224,1,160,8|0
180,236,247610,1,8
256,260,247820,1,0
332,236,248030,2,0,B|360:152|456:144,1,160,0|8
332,36,248869,2,0,B|304:68|264:80,2,80,0|0|8
184,100,249498,1,0
176,116,249603,1,0
168,132,249708,6,0,B|120:212|24:184,1,160,4|8
16,108,250337,1,0
28,268,250547,2,0,B|44:308|80:328,1,80
148,288,250967,2,0,B|228:288,1,80,8|0
296,332,251386,2,0,B|331:312|347:272,1,80
416,312,251806,2,0,B|336:288|300:204,1,160,8|0
284,128,252435,1,0
308,52,252645,1,8
308,52,253065,6,0,B|224:40|148:52,1,160,0|8
36,168,253904,2,0,B|120:180|196:168,1,160,0|8
312,276,254743,2,0,B|236:287|152:275,1,160,0|0
