osu file format v9

[General]
AudioFilename: Suisai Candy.mp3
AudioLeadIn: 1000
PreviewTime: 68030
Countdown: 0
SampleSet: Soft
StackLeniency: 0.5
Mode: 0
LetterboxInBreaks: 0

[Editor]
DistanceSpacing: 1
BeatDivisor: 4
GridSize: 4

[Metadata]
Title:Suisai Candy
Artist:marble
Creator:No_Gu
Version:Easy
Source:Mashiro Iro Symphony - The color of lovers -
Tags:Nymph ending Netsukawa Naryuga collab karenying

[Difficulty]
HPDrainRate:2
CircleSize:3
OverallDifficulty:2
ApproachRate:3
SliderMultiplier:0.96
SliderTickRate:1

[Events]
//Background and Video events
0,0,"E.jpg"
//Break Periods
2,8030,19597
2,100537,110646
2,191167,207988
2,241517,248268
//Storyboard Layer 0 (Background)
Sprite,Background,Centre,"SB\white.jpg",320,240 F,0,58,1317,0,1 F,0,1317,21037,1
Sprite,Background,Centre,"SB\Ring.png",320,253 M,0,1317,,320,253 F,0,1317,2995,1,0 S,0,1317,2995,0.3679997,0.5759996 C,0,1317,2995,166,219,242
Sprite,Background,Centre,"SB\Ring.png",320,253 M,0,4673,,320,253 F,0,4673,6351,1,0 S,0,4673,6351,0.3679997,0.5759996 C,0,4673,6351,189,137,255
Sprite,Background,Centre,"SB\1.png",516,436 F,0,7820,8030,0,1 S,0,8030,,0.7039999 F,0,8030,8240,1,0 F,0,8240,8449,0,1 F,0,8449,8659,1,0 F,0,8659,8869,0,1 F,0,8869,9079,1,0
Sprite,Background,Centre,"SB\2.png",516,436 F,0,11177,11386,0,1 S,0,11386,,0.7039999 F,0,11386,11596,1,0 F,0,11596,11806,0,1 F,0,11806,12016,1,0 F,0,12016,12226,0,1 F,0,12226,12435,1,0
Sprite,Background,Centre,"SB\3.png",516,436 F,0,14533,14743,0,1 S,0,14743,,0.7039999 F,0,14743,14953,1,0 F,0,14953,15163,0,1 F,0,15163,15372,1,0 F,0,15372,15582,0,1 F,0,15582,15792,1,0
Sprite,Background,Centre,"SB\4.png",516,436 F,0,17890,18100,0,1 S,0,18100,,0.7039999 F,0,18100,18310,1,0 F,0,18310,18519,0,1 F,0,18519,18729,1,0 F,0,18729,18939,0,1 F,0,18939,19149,1,0
Sprite,Background,Centre,"SB\BG1.jpg",320,240 F,0,21456,21561,0,1 M,0,21456,41177,400,240,244,240 M,0,41177,41596,244,240,241,240
Sprite,Background,Centre,"SB\airi.png",320,240 M,0,21456,,217,240 F,0,21456,21561,0,1 F,0,21561,41596,1
Sprite,Background,Centre,"SB\BG2.jpg",320,240 M,0,41596,61107,400,240,283,240 F,0,41596,68449,1 M,0,61107,67610,283,240,244,240
Sprite,Background,Centre,"SB\sakuno.png",555,239 M,0,41596,,448,239 F,0,41596,,1 F,0,67610,,1
Sprite,Background,Centre,"SB\BG3.jpg",320,240 F,0,112086,112191,0,1 M,0,112086,132226,400,240,240,239
Sprite,Background,Centre,"SB\miu.png",320,240 M,0,112086,,189,240 F,0,112086,112191,0,1 F,0,129154,132226,1
Sprite,Background,Centre,"SB\BG4.jpg",320,240 M,0,132226,158240,239,240,394,240 F,0,132226,158240,1
Sprite,Background,Centre,"SB\angelina.png",320,240 M,0,132226,,418,240 F,0,132226,158240,1
Sprite,Background,Centre,"SB\SB2.jpg",320,240 F,0,68449,,1 M,0,68449,81876,398,299,281,212 S,0,68449,81876,1,0.8976 R,0,81876,,0
Sprite,Background,Centre,"SB\SB1.jpg",320,240 M,0,81666,81876,658,657,327,241 F,0,81876,,1 S,0,81876,,1 S,0,81876,98659,1,0.8873603 R,0,81876,98659,0,0.08191986 F,0,98240,98659,1,0
Sprite,Background,Centre,"SB\SB3.jpg",320,240 F,0,159079,,1 M,0,159079,172505,382,202,292,262 S,0,159079,172505,1,0.92832 R,0,159079,172505,0,-0.06143982
Sprite,Background,Centre,"SB\SB4.jpg",320,240 M,0,172296,172505,-221,-110,281,228 M,0,172505,189289,281,228,331,232 S,0,172505,189289,1,0.83616 F,0,188869,189289,1,0
Sprite,Background,Centre,"SB\SB5.png",320,240 F,0,209428,,1 S,0,209428,222855,1,0.8156799 R,0,209428,222855,0.14336,3.576279E-09
Sprite,Background,Centre,"SB\cat.jpg",320,240 F,0,235442,239638,1
Animation,Background,Centre,"SB\neko\cat.jpg",320,240,11,105,LoopForever M,0,235547,,241,335 F,0,235547,239638,1
//Storyboard Layer 1 (Fail)
//Storyboard Layer 2 (Pass)
//Storyboard Layer 3 (Foreground)
Sprite,Foreground,Centre,"SB\Lyric\01.png",320,240 F,0,21247,21456,0,1 M,0,21247,33624,244,389,339,389 F,0,21456,32995,1,0.94271 F,0,32995,33624,0.94271,0
Sprite,Foreground,Centre,"SB\Lyric\02.png",320,240 F,0,27960,28170,0,1 M,0,27960,33624,371,435,280,435 F,0,28170,32995,1 F,0,32995,33624,1,0
Sprite,Foreground,Centre,"SB\Lyric\03.png",320,240 F,0,41386,41596,0,1 M,0,41386,53974,373,396,255,396 F,0,41596,53135,1 F,0,53135,53974,1,0
Sprite,Foreground,Centre,"SB\Lyric\04.png",320,240 F,0,48100,48310,0,1 M,0,48100,53974,316,439,350,439 F,0,48310,53135,1 F,0,53135,53974,1,0
Sprite,Foreground,Centre,"SB\Lyric\05.png",320,240 F,0,54393,54603,0,1 M,0,54393,60268,256,394,339,394 F,0,54603,59848,1 F,0,59848,60268,1,0 F,0,60268,,0
Sprite,Foreground,Centre,"SB\Lyric\06.png",320,240 F,0,57750,57960,0,1 M,0,57750,60268,328,440,280,440 F,0,57960,59848,1 F,0,59848,60268,1,0
Sprite,Foreground,Centre,"SB\Lyric\07.png",320,240 F,0,61107,61317,0,1 M,0,61107,67610,339,394,256,394 F,0,61317,66771,1 F,0,66771,67610,1,0
Sprite,Foreground,Centre,"SB\Lyric\08.png",320,240 F,0,62785,62995,0,1 M,0,62785,67610,280,440,328,440 F,0,62995,66771,1 F,0,66771,67610,1,0
Sprite,Foreground,Centre,"SB\Lyric\11.png",320,240 F,0,111876,112086,0,1 M,0,111876,124673,230,389,354,389 F,0,112086,123624,1 F,0,123624,124673,1,0
Sprite,Foreground,Centre,"SB\Lyric\12.png",320,240 F,0,118589,118799,0,1 M,0,118589,124673,371,435,310,435 F,0,118799,123624,1 F,0,123624,124673,1,0
Sprite,Foreground,Centre,"SB\Lyric\13.png",320,240 F,0,132016,132226,0,1 M,0,132016,144393,373,396,267,396 F,0,132226,143764,1 F,0,143764,144393,1,0
Sprite,Foreground,Centre,"SB\Lyric\14.png",320,240 F,0,138729,138939,0,1 M,0,138729,144393,316,439,350,439 F,0,138939,143764,1 F,0,143764,144393,1,0
Sprite,Foreground,Centre,"SB\Lyric\15.png",320,240 F,0,145023,145233,0,1 M,0,145023,151107,256,394,339,394 F,0,145233,150477,1 F,0,150477,151107,1,0
Sprite,Foreground,Centre,"SB\Lyric\16.png",320,240 F,0,148379,148589,0,1 M,0,148379,151107,328,440,296,440 F,0,148589,150477,1 F,0,150477,151107,1,0
Sprite,Foreground,Centre,"SB\Lyric\17.png",320,240 F,0,151736,151946,0,1 M,0,151736,158240,339,394,256,394 F,0,151946,157400,1 F,0,157400,158240,1,0
Sprite,Foreground,Centre,"SB\Lyric\18.png",320,240 F,0,153414,153624,0,1 M,0,153414,158240,280,440,328,440 F,0,153624,157400,1 F,0,157400,158240,1,0
Sprite,Foreground,Centre,"SB\white.jpg",320,240 F,0,132226,132330,0.4520001,0
Sprite,Foreground,Centre,"SB\white.jpg",320,240 F,0,21037,21351,1,0 F,0,21351,21456,0,0.58
Sprite,Foreground,Centre,"SB\face\a1.jpg",320,240 F,0,222855,224114,1
Sprite,Foreground,Centre,"SB\face\a2.jpg",320,240 F,0,224114,224219,1
Sprite,Foreground,Centre,"SB\face\a3.jpg",320,240 F,0,224219,224323,1
Sprite,Foreground,Centre,"SB\face\a4.jpg",320,240 F,0,224323,224428,1
Sprite,Foreground,Centre,"SB\face\a5.jpg",320,240 F,0,224428,225372,1
Sprite,Foreground,Centre,"SB\face\s1.jpg",320,240 F,0,225372,226631,1
Sprite,Foreground,Centre,"SB\face\s2.jpg",320,240 F,0,226631,226736,1
Sprite,Foreground,Centre,"SB\face\s3.jpg",320,240 F,0,226736,226841,1
Sprite,Foreground,Centre,"SB\face\s4.jpg",320,240 F,0,226841,226946,1
Sprite,Foreground,Centre,"SB\face\s5.jpg",320,240 F,0,226946,227051,1
Sprite,Foreground,Centre,"SB\face\s1.jpg",320,240 F,0,227051,227890,1
Sprite,Foreground,Centre,"SB\face\a11.jpg",320,240 F,0,227890,229149,1
Sprite,Foreground,Centre,"SB\face\a22.jpg",320,240 F,0,229149,229254,1
Sprite,Foreground,Centre,"SB\face\a33.jpg",320,240 F,0,229254,229358,1
Sprite,Foreground,Centre,"SB\face\a44.jpg",320,240 F,0,229358,229463,1
Sprite,Foreground,Centre,"SB\face\a55.jpg",320,240 F,0,229463,230407,1
Sprite,Foreground,Centre,"SB\face\sn1.jpg",320,240 F,0,230407,231666,1
Sprite,Foreground,Centre,"SB\face\sn2.jpg",320,240 F,0,231666,231771,1
Sprite,Foreground,Centre,"SB\face\sn3.jpg",320,240 F,0,231771,231876,1
Sprite,Foreground,Centre,"SB\face\sn4.jpg",320,240 F,0,231876,231981,1
Sprite,Foreground,Centre,"SB\face\sn5.jpg",320,240 F,0,231981,232086,1 F,0,232086,232925,1
Sprite,Foreground,Centre,"SB\face\m1.jpg",320,240 F,0,232925,234184,1
Sprite,Foreground,Centre,"SB\face\m2.jpg",320,240 F,0,234184,234289,1
Sprite,Foreground,Centre,"SB\face\m3.jpg",320,240 F,0,234289,234393,1
Sprite,Foreground,Centre,"SB\face\m4.jpg",320,240 F,0,234393,234498,1
Sprite,Foreground,Centre,"SB\face\m5.jpg",320,240 F,0,234498,234603,1 F,0,234603,235442,1
Sprite,Foreground,Centre,"SB\Lyric\K1.png",320,240 F,0,68030,68449,0,1 M,0,68030,81247,384,394,275,394 F,0,68449,81037,1 F,0,81037,81247,1,0
Sprite,Foreground,Centre,"SB\Lyric\K2.png",320,240 F,0,74533,74953,0,1 M,0,74533,81247,262,437,324,437 F,0,74953,81037,1 F,0,81037,81247,1,0
Sprite,Foreground,Centre,"SB\Lyric\K3.png",320,240 F,0,81247,81666,0,1 M,0,81247,92156,384,394,275,394 F,0,81666,91736,1 F,0,91736,92156,1,0
Sprite,Foreground,Centre,"SB\Lyric\K4.png",320,240 F,0,87960,88170,0,1 M,0,87960,92156,262,437,324,437 F,0,88170,91736,1 F,0,91736,92156,1,0
Sprite,Foreground,Centre,"SB\Lyric\K5.png",320,240 F,0,91946,92365,0,1 M,0,91946,98659,384,394,275,394 F,0,92365,98240,1 F,0,98240,98659,1,0
Sprite,Foreground,Centre,"SB\Lyric\K6.png",320,240 F,0,93205,93414,0,1 M,0,93205,98659,262,437,324,437 F,0,93414,98240,1 F,0,98240,98659,1,0
Sprite,Foreground,Centre,"SB\Lyric\K7.png",320,240 F,0,158659,159079,0,1 M,0,158659,172086,384,394,275,394 F,0,159079,171666,1 F,0,171666,172086,1,0 M,0,172086,,320,240
Sprite,Foreground,Centre,"SB\Lyric\K8.png",320,240 F,0,164953,165163,0,1 M,0,164953,172086,262,437,324,437 F,0,165163,171666,1 F,0,171666,172086,1,0
Sprite,Foreground,Centre,"SB\Lyric\K9.png",320,240 F,0,172086,172505,0,1 M,0,172086,182785,384,394,275,394 F,0,172505,182365,1 F,0,182365,182785,1,0
Sprite,Foreground,Centre,"SB\Lyric\K10.png",320,240 F,0,178589,178799,0,1 M,0,178589,182785,262,437,324,437 F,0,178799,182365,1 F,0,182365,182785,1,0
Sprite,Foreground,Centre,"SB\Lyric\K5.png",320,240 F,0,182785,182995,0,1 M,0,182785,189289,384,394,275,394 F,0,182995,188869,1 F,0,188869,189289,1,0
Sprite,Foreground,Centre,"SB\Lyric\K12.png",320,240 F,0,183624,183834,0,1 M,0,183624,189289,262,437,324,437 F,0,183834,188869,1 F,0,188869,189289,1,0
Sprite,Foreground,Centre,"SB\Lyric\K1.png",320,240 F,0,209428,,1 M,0,209428,215303,253,355,342,351 F,0,214883,215303,1,0
Sprite,Foreground,Centre,"SB\Lyric\K2.png",320,240 F,0,215303,215722,0,1 M,0,215303,222435,393,400,287,400 F,0,222016,222435,1,0
Sprite,Foreground,Centre,"SB\Lyric\K3.png",320,240 S,0,222435,,0.8 F,0,222435,222855,0.006720126,1 M,0,222435,228729,272,445,379,446 F,0,222855,228310,1,0.9760765 F,0,228310,228729,0.9760765,0
Sprite,Foreground,Centre,"SB\Lyric\K4.png",320,240 S,0,228939,,0.7920001 F,0,228939,229358,0,1 M,0,228939,232925,349,397,275,400 F,0,232505,232925,1,0.05279968
Sprite,Foreground,Centre,"SB\Lyric\K5.png",320,240 S,0,233135,,0.7679999 F,0,233135,233554,0,1 M,0,233135,235862,303,446,362,448 F,0,233554,235442,1 F,0,235442,235862,1,0
Sprite,Foreground,Centre,"SB\Lyric\K6.png",320,240 S,0,234393,,0.752 F,0,234393,234813,0,1 M,0,234393,239638,322,406,187,409 F,0,239219,239638,1,0
Sprite,Foreground,Centre,"SB\white.jpg",320,240 F,0,242575,242995,0,1 F,0,242995,256421,1 F,0,256421,257261,1,0
Sprite,Foreground,Centre,"SB\2\green4.jpg",320,240 M,0,242995,,229,249 F,0,244044,244254,0.9619048,0
Sprite,Foreground,Centre,"SB\2\green2.jpg",320,240 M,0,244044,,378,99 F,0,244044,244254,0,1 F,0,245303,245512,1,0
Sprite,Foreground,Centre,"SB\2\white.jpg",320,240 M,0,242995,,527,107 F,0,244044,244254,1,0
Sprite,Foreground,Centre,"SB\2\yellow.jpg",320,240 M,0,244044,,84,387 F,0,244044,244254,0.08863998,1 F,0,245303,245512,1,0.1039999
Sprite,Foreground,Centre,"SB\2\red.jpg",320,240 M,0,245303,,80,95 F,0,245303,245512,0,1 F,0,246561,246771,1,0
Sprite,Foreground,Centre,"SB\2\..orz.jpg",320,240 M,0,247820,,81,388 F,0,247820,248030,0.12448,1 F,0,248030,,1 F,0,248030,,1 F,0,248030,249079,1 F,0,249079,249289,1,0
Sprite,Foreground,Centre,"SB\2\orange2.jpg",320,240 M,0,244044,,527,245 F,0,244044,244254,0,1 F,0,245303,245512,1,0
Sprite,Foreground,Centre,"SB\2\purple.jpg",320,240 M,0,242995,,377,386 F,0,244044,244254,1,0.07327988
Sprite,Foreground,Centre,"SB\2\blue.jpg",320,240 M,0,245303,,528,385 F,0,245303,245512,0,1 F,0,245512,246561,1,0.9808612 F,0,246561,246771,0.9808612,0
Sprite,Foreground,Centre,"SB\2\green.jpg",320,240 M,0,245303,,379,246 F,0,245303,245512,0,1 F,0,245512,246561,1 F,0,246561,246771,1,0
Sprite,Foreground,Centre,"SB\2\purple.jpg",320,240 M,0,246561,,81,249 F,0,246561,246771,0,1 F,0,247820,248030,1,0
Sprite,Foreground,Centre,"SB\2\orange.jpg",320,240 M,0,246561,,229,385 F,0,246561,246771,0.12448,1 F,0,247820,248030,1,0
Sprite,Foreground,Centre,"SB\2\yellow2.jpg",320,240 M,0,246561,,526,94 F,0,246561,246771,0,1 F,0,247820,248030,1,0
Sprite,Foreground,Centre,"SB\2\orange2.jpg",320,240 M,0,249079,,378,384 F,0,249079,249289,0,1 F,0,249603,249708,1,0
Sprite,Foreground,Centre,"SB\2\green4.jpg",320,240 M,0,247820,,379,237 F,0,247820,248030,0,1 F,0,249079,249289,1,0 F,0,249289,249708,0,0.01904762
Sprite,Foreground,Centre,"SB\2\green.jpg",320,240 M,0,249079,,528,97 F,0,249079,249289,0,1 F,0,249289,249603,1 F,0,249603,249708,1,0
Sprite,Foreground,Centre,"SB\2\blue2.jpg",320,240 M,0,247820,,228,99 F,0,247820,248030,0,1 F,0,249079,249289,1,0
Sprite,Foreground,Centre,"SB\2\pink.jpg",320,240 M,0,249079,,80,241 P,0,249079,,V F,0,249079,249289,0,1 F,0,249289,249603,1 F,0,249603,249708,1,0
Animation,Foreground,Centre,"SB\neko\neko-.png",320,240,10,111.8,LoopForever M,0,242995,,376,377 F,0,242995,,1 C,0,244044,244254,255,255,255,223,173,255 C,0,246561,246771,223,173,255,172,248,188 C,0,247820,248030,172,248,188,248,227,172 C,0,249079,249289,172,248,188,255,255,255 F,0,249708,,0
Animation,Foreground,Centre,"SB\neko\neko-.png",320,240,10,111.8,LoopForever M,0,242995,,376,95 F,0,242995,,1 C,0,244044,244254,172,248,188,172,204,248 C,0,246561,246771,172,204,248,131,255,248 C,0,247820,248030,131,255,248,241,153,157 C,0,249079,249289,241,153,157,255,164,115 F,0,249708,,0
Animation,Foreground,Centre,"SB\neko\neko-.png",320,240,10,111.8,LoopForever M,0,242995,,527,95 F,0,242995,,1 C,0,244044,244254,255,115,141,154,221,133 C,0,246561,246771,154,221,133,255,255,255 C,0,247820,248030,255,255,255,238,242,134 C,0,249079,249289,238,242,134,213,134,242 F,0,249708,,0
Animation,Foreground,Centre,"SB\neko\neko-.png",320,240,10,111.8,LoopForever M,0,242995,,229,95 F,0,242995,,1 C,0,244044,244254,112,239,231,239,112,223 C,0,245303,245512,239,112,223,239,237,112 C,0,246561,246771,239,237,112,127,239,112 C,0,247820,248030,127,239,112,149,202,125 C,0,249079,249289,149,202,125,241,153,157 F,0,249708,,0
Animation,Foreground,Centre,"SB\neko\neko-.png",320,240,10,111.8,LoopForever M,0,242995,,527,377 F,0,242995,,1 C,0,244044,244254,172,248,188,172,204,248 C,0,245303,245512,172,204,248,239,237,112 C,0,246561,246771,239,237,112,238,128,138 C,0,247820,248030,238,128,138,255,164,115 C,0,249079,249289,255,164,115,241,153,157 F,0,249708,,0
Animation,Foreground,Centre,"SB\neko\neko-.png",320,240,10,111.8,LoopForever M,0,242995,,230,377 F,0,242995,,1 C,0,244044,244254,248,227,172,154,221,133 C,0,245303,245512,154,221,133,248,227,172 C,0,246561,246771,248,227,172,255,255,255 C,0,247820,248030,255,255,255,239,237,112 C,0,249079,249289,239,237,112,213,134,242 F,0,249708,,0
Animation,Foreground,Centre,"SB\neko\neko-.png",320,240,10,111.8,LoopForever M,0,242995,,527,236 F,0,242995,,1 C,0,244044,244254,248,227,172,239,237,112 C,0,245303,245512,239,237,112,239,112,223 C,0,246561,246771,239,237,112,248,227,172 C,0,247820,248030,248,227,172,154,221,133 C,0,249079,249289,154,221,133,127,239,112 F,0,249708,,0
Animation,Foreground,Centre,"SB\neko\neko-.png",320,240,10,111.8,LoopForever M,0,242995,,376,236 F,0,242995,,1 C,0,244044,244254,239,112,223,243,157,96 C,0,245303,245512,243,157,96,154,221,133 C,0,246561,246771,154,221,133,239,237,112 C,0,247820,248030,239,237,112,98,157,231 C,0,249079,249289,98,157,231,126,205,239 F,0,249708,,0
Animation,Foreground,Centre,"SB\neko\neko-.png",320,240,10,111.8,LoopForever M,0,242995,,79,236 F,0,242995,,1 C,0,244044,244254,98,157,231,243,157,96 C,0,245303,245512,243,157,96,154,221,133 C,0,246561,246771,154,221,133,239,237,112 C,0,247820,248030,239,237,112,98,157,231 C,0,249079,249289,98,157,231,126,205,239 F,0,249708,,0
Animation,Foreground,Centre,"SB\neko\neko-.png",320,240,10,111.8,LoopForever M,0,242995,,230,236 F,0,242995,,1 C,0,244044,244254,191,142,190,223,173,255 C,0,245303,245512,223,173,255,234,97,117 C,0,246561,246771,234,97,117,154,221,133 C,0,247820,248030,154,221,133,248,227,172 C,0,249079,249289,172,248,188,255,231,0 F,0,249708,,0
Animation,Foreground,Centre,"SB\neko\neko-.png",320,240,10,111.8,LoopForever M,0,242995,,79,95 F,0,243557,,0.99488 C,0,244044,244254,126,205,239,98,157,231 C,0,245303,245512,98,157,231,43,142,190 C,0,246561,246771,43,142,190,126,205,239 C,0,247820,248030,126,205,239,243,157,96 C,0,249079,249289,243,157,96,239,237,112 F,0,249708,,0
Animation,Foreground,Centre,"SB\neko\neko-.png",320,240,10,111.8,LoopForever M,0,242995,,79,377 F,0,242995,,1 C,0,244044,244254,242,154,125,235,98,59 C,0,245303,245512,235,98,59,239,112,223 C,0,246561,246771,239,237,112,248,227,172 C,0,247820,248030,248,227,172,255,255,255 C,0,249079,249289,255,255,255,127,239,112 F,0,249708,,0
Sprite,Foreground,Centre,"SB\2\orange.jpg",320,240 S,0,255163,,0.5391998 M,0,255163,256421,244,92,205,40 F,0,256002,256421,1,0
Sprite,Foreground,Centre,"SB\2\green4.jpg",320,240 S,0,255163,,0.2115195 M,0,255163,256421,407,363,444,411 F,0,256002,256421,1,0.09376007
Sprite,Foreground,Centre,"SB\2\blue.jpg",320,240 S,0,255163,,0.3856 M,0,255163,256421,205,371,160,419 F,0,256002,256421,1,0
Sprite,Foreground,Centre,"SB\2\red.jpg",320,240 S,0,255163,,0.41632 M,0,255163,256421,459,181,532,150 F,0,256002,256421,1,0
Sprite,Foreground,Centre,"SB\2\green4.jpg",320,240 S,0,254743,,1.70656 F,0,254743,255163,1
Sprite,Foreground,Centre,"SB\2\yellow2.jpg",320,240 F,0,253904,,1 S,0,253904,,1.70656 F,0,254743,255163,1,0
Sprite,Foreground,Centre,"SB\2\pink.jpg",320,240 F,0,253065,,1 S,0,253065,,1.70656 F,0,253904,254743,1,0
Sprite,Foreground,Centre,"SB\2\orange4.jpg",320,240 F,0,252226,,1 S,0,252226,,1.70656 F,0,253065,253904,1,0
Sprite,Foreground,Centre,"SB\2\green3.jpg",320,240 F,0,251386,,1 S,0,251386,,1.70656 F,0,252226,253065,1,0
Sprite,Foreground,Centre,"SB\2\blue2.jpg",320,240 F,0,250547,,1 S,0,250547,,1.70656 F,0,251386,252226,1,0
Sprite,Foreground,Centre,"SB\2\blue.jpg",320,240 F,0,249708,,1 S,0,249708,,1.70656 F,0,250547,251386,1,0
Sprite,Foreground,Centre,"SB\2\..orz.jpg",320,240 S,0,249708,,1.70656 F,0,249708,250547,1,0
Sprite,Foreground,Centre,"SB\2\b1.png",320,240 F,0,255163,255268,1
Animation,Foreground,Centre,"SB\neko\neko-.png",320,240,10,111.8,LoopForever S,0,249708,,1.53248 C,0,249708,,246,173,255 M,0,249708,255163,320,240
Sprite,Foreground,Centre,"SB\2\b2.png",320,240 F,0,255268,255372,1
Sprite,Foreground,Centre,"SB\2\star.png",320,240 M,0,255163,256002,456,98,490,75 R,0,255163,257261,0,-6.67648 F,0,256421,257261,1,0
Sprite,Foreground,Centre,"SB\2\star.png",320,240 S,0,255163,,0.82592 M,0,255163,256002,131,204,78,195 R,0,255163,257261,-2.58048,4.42368 F,0,256421,257261,1,0
Sprite,Foreground,Centre,"SB\2\star.png",320,240 S,0,255163,,0.6518402 M,0,255163,256002,480,359,519,371 R,0,255163,257261,-0.73728,6.7584 F,0,256421,257261,1,0.04255997
Sprite,Foreground,Centre,"SB\white.jpg",320,240 F,0,67191,67610,0,1 F,0,67610,68449,1 F,0,68449,68659,1,0
Sprite,Foreground,Centre,"SB\white.jpg",320,240 F,0,41386,41596,0,1 F,0,41596,41701,1,0 F,0,132016,132226,0,1 F,0,132226,,1 F,0,132226,132435,1,0 F,0,157820,158240,0,1 F,0,158240,159079,1 F,0,159079,159289,1,0 F,0,208170,208589,0,1 F,0,208589,209428,1 F,0,209428,209848,1,0 F,0,222435,222855,0,1 F,0,222855,223275,1,0
Sprite,Foreground,Centre,"SB\heart.png",320,240 S,0,7820,,1 F,0,7820,8030,0,1 C,0,7820,11386,30,0,255,7,118,255 C,0,11386,14743,7,118,255,101,213,206 C,0,14743,18100,101,213,206,78,236,141 C,0,18100,21037,78,236,141,171,236,78 F,0,21037,,0.9952381
Sprite,Foreground,Centre,"SB\heart2.png",320,240 M,0,7820,,60,302 F,0,7820,8030,0,1 R,0,7820,19778,-0.5939197,-12.61568 F,0,19358,19778,1,0
Sprite,Foreground,Centre,"SB\sweet.png",320,240 M,0,11177,,593,138 F,0,11177,11386,0,1 R,0,11177,19778,0,5.959681 F,0,19358,19778,1,0
Sprite,Foreground,Centre,"SB\sweet2.png",320,240 M,0,17890,,530,350 F,0,17890,18100,0,1 R,0,17890,19778,0,-2.949121 F,0,19358,19778,1,0
Sprite,Foreground,Centre,"SB\white.jpg",320,240 F,0,112086,112191,0.488,0
Sprite,Foreground,Centre,"SB\title.png",320,240 F,0,7820,10547,1 M,0,8030,,316,176 F,0,10547,11386,1,0
Sprite,Foreground,Centre,"SB\artist.png",320,240 M,0,10547,,309,179 F,0,10547,11386,0,1 F,0,13904,14743,0.9964243,0
Sprite,Foreground,Centre,"SB\Source.png",320,240 M,0,13904,,321,179 F,0,13904,14743,0,1 F,0,14743,17261,1,0.9937419 F,0,17261,18100,0.9937419,0
Sprite,Foreground,Centre,"SB\SB.png",320,240 M,0,17261,,317,195 F,0,17261,18100,0,1 F,0,18100,21037,1,0.9955733
Sprite,Foreground,Centre,"SB\2\star.png",320,240 S,0,19778,,1 M,0,19778,20512,115,-19,134,490
Sprite,Foreground,Centre,"SB\2\star.png",320,240 M,0,20198,21037,425,-25,449,326
Sprite,Foreground,Centre,"SB\2\star.png",320,240 M,0,20617,21037,72,-29,79,271
Sprite,Foreground,Centre,"SB\2\star.png",320,240 M,0,20722,21037,390,-34,389,147
Sprite,Foreground,Centre,"SB\2\star.png",320,240 M,0,20617,21037,504,-28,552,405
Sprite,Foreground,Centre,"SB\2\star.png",320,240 M,0,20722,21037,188,-30,191,128
Sprite,Foreground,Centre,"SB\2\star.png",320,240 F,0,20827,,1 M,0,20827,21037,117,-29,117,107
Sprite,Foreground,Centre,"SB\2\star.png",320,240 M,0,20932,21037,475,-27,482,75
Sprite,Foreground,Centre,"SB\2\star.png",320,240 M,0,20722,21037,543,-23,555,221
Sprite,Foreground,Centre,"SB\2\star.png",320,240 M,0,20827,21037,291,-27,305,267
Sprite,Foreground,Centre,"E.jpg",320,240 S,0,239219,,0.625 F,0,239219,239638,0,1
//Storyboard Sound Samples
//Background Colour Transformations
3,100,163,162,255

[TimingPoints]
1317,419.58041958042,4,2,1,70,1,0
2995,-100,4,2,1,5,0,0
4673,-100,4,2,1,70,0,0
6351,-100,4,2,1,5,0,0
21037,-100,4,1,1,30,0,0
21456,-100,4,2,1,60,0,0
33205,-100,4,2,1,20,0,0
33624,-100,4,2,1,40,0,0
34044,-100,4,2,1,60,0,0
34463,-100,4,2,1,80,0,0
34883,-100,4,2,2,70,0,0
41386,-100,4,1,1,30,0,0
41596,-100,4,2,1,70,0,0
66771,-100,4,2,1,45,0,0
67610,-100,4,2,1,70,0,0
68449,-100,4,2,1,70,0,1
81771,-100,4,2,1,70,0,0
81876,-100,4,2,1,70,0,1
98659,-100,4,2,2,70,0,0
99918,-100,4,2,2,5,0,0
112086,-100,4,2,1,70,0,0
125512,-100,4,2,2,70,0,0
132226,-100,4,2,1,70,0,0
158240,-100,4,2,2,70,0,0
159079,-100,4,2,1,70,0,1
172400,-100,4,2,1,70,0,0
172505,-100,4,2,1,70,0,1
189289,-100,4,2,1,70,0,0
190967,-100,4,2,1,5,0,0
209428,-100,4,2,1,70,0,1
222750,-100,4,2,1,70,0,0
222855,-100,4,2,1,70,0,1
239638,-100,4,2,1,70,0,0
241317,-100,4,2,1,5,0,0
249708,-100,4,2,2,70,0,0
255163,-100,4,2,2,5,0,0

[Colours]
Combo1 : 128,0,255
Combo2 : 98,255,98
Combo3 : 49,207,253
Combo4 : 255,98,255

[HitObjects]
256,192,1317,5,0
256,192,2995,5,0
256,192,3834,1,0
256,192,4673,5,0
256,192,6351,5,0
256,192,7191,1,0
108,96,21037,5,4
200,124,21456,6,0,B|248:132|296:124,2,96,4|2|0
120,180,22715,2,0,B|40:200|60:320|144:304,1,192,2|2
200,376,23974,1,0
256,300,24393,1,2
312,376,24813,5,0
374,305,25233,2,0,B|452:320|472:200|392:180,1,192,2|2
356,92,26491,2,0,B|304:112|300:164,1,96,0|2
256,248,27330,1,0
208,164,27750,1,2
152,88,28170,6,0,B|108:120|112:176,1,96,0|2
168,248,29009,1,0
168,344,29428,2,0,B|224:344|256:312|256:312|288:344|344:344,1,192,2|2
344,248,30687,1,0
256,208,31107,1,2
168,248,31526,5,0
76,216,31946,2,0,B|100:152|172:152|172:152|180:108|220:96,1,192,2|2
256,184,33205,1,0
300,99,33624,2,0,B|332:108|340:152|340:152|412:152|436:216,1,192,2|2
384,296,34883,6,0,B|332:304|312:352,2,96,12|10|10
324,220,36142,2,0,B|272:212|252:164,2,96,8|10|10
60,340,38240,6,0,B|52:288|4:268,2,96,8|10|10
136,280,39499,2,0,B|144:228|192:208,2,96,8|10|10
352,88,41596,5,4
444,64,42016,2,0,B|520:104|468:208|392:168,2,192,8|8|8
352,88,44114,1,0
256,104,44533,1,8
160,88,44953,5,2
117,169,45372,2,0,B|44:208|-8:104|68:64,2,192,8|8|8
212,172,47470,2,0,B|200:276,1,96,0|8
256,348,48310,5,4
311,267,48729,2,0,B|300:172,1,96,8|0
325,79,49568,2,0,B|309:3|197:3|189:78,2,192,8|8|8
380,156,51666,6,0,B|400:232|484:248,1,144,0|2
432,332,52715,1,2
336,324,53135,2,0,B|284:260|196:300|196:300|156:208|40:216,1,336,4|8
4,128,55023,6,0,B|56:120|76:72,1,96,4|8
164,28,55862,1,0
208,112,56282,2,0,B|236:112|256:104|256:104|276:112|304:112,1,96,8|0
348,28,57121,1,8
435,71,57540,2,0,B|456:120|508:128,1,96,0|8
436,192,58379,5,2
424,288,58799,2,0,B|344:288|308:192|360:140,1,192,8|8
256,132,60058,1,0
160,149,60477,2,0,B|204:192|168:288|88:288,1,192,8|8
80,192,61736,6,0,B|32:96,1,96,4|8
224,68,62995,1,8
368,192,63834,1,8
224,320,64673,1,8
140,276,65093,6,0,B|168:232|220:228,1,96,0|8
168,144,65932,2,0,B|140:188|88:192,1,96,0|8
92,96,66771,2,0,B|141:41|214:68|214:68|270:25,1,192,2|8
404,160,68449,6,0,B|388:212|332:216,1,96,4|8
320,120,69289,1,0
256,48,69708,1,8
192,120,70128,1,0
178,215,70547,2,0,B|124:212|108:160,2,96,8|0|8
256,160,71806,5,4
264,256,72226,2,0,B|332:248|376:296|376:296|404:272|448:276,1,192,8|8
500,200,73484,2,0,B|488:152|500:104,1,96,0|8
432,36,74323,2,0,B|384:44|336:36,1,96,0|8
240,48,75163,5,4
300,124,75582,2,0,B|252:152|240:196|240:196|192:176|144:196,1,192,8|8
188,280,76841,2,0,B|140:300|84:284,1,96,0|8
48,200,77680,2,0,B|56:144|12:112,1,96,0|8
56,28,78519,5,2
132,88,78939,2,0,B|180:72|228:88|228:88|272:100|324:88,1,192,8|8
408,132,80198,1,0
328,184,80617,2,0,B|280:200|232:184|232:184|188:172|136:184,1,192,8|8
184,268,81876,6,0,B|236:280|248:336,1,96,4|8
340,356,82715,1,0
436,336,83135,2,0,B|447:283|499:271,1,96,8|0
480,176,83974,2,0,B|416:224|344:128|412:72,1,192,8|8
324,28,85233,5,4
256,96,85652,1,8
188,28,86072,1,0
104,75,86491,2,0,B|168:128|96:224|32:176,1,192,8|8
13,271,87750,2,0,B|64:283|76:336,1,96,0|8
160,292,88589,6,0,B|208:284|256:292,1,96,4|8
324,228,89428,1,0
384,152,89848,2,0,B|320:116|260:152|260:152|248:124|212:108,1,192,8|8
172,196,91107,2,0,B|176:248|148:288,1,96,0|8
208,360,91946,5,0
256,276,92365,1,8
304,360,92785,1,0
363,287,93205,2,0,B|336:248|340:196,1,96,8|0
436,216,94044,2,0,B|440:156|472:100|472:100|432:104|392:92,1,192,8|8
256,220,95722,5,8
109,94,96561,2,0,B|80:104|40:100|40:100|72:156|76:216,1,192,8|8
256,288,98240,1,8
256,192,98659,12,0,100337
256,192,112086,5,4
188,124,112505,2,0,B|200:52|312:52|324:128,2,192,8|8|8
164,216,114603,2,0,B|144:268|92:280,1,96,0|8
76,184,115442,6,0,B|76:80,1,96,2|8
156,32,116282,1,0
232,92,116701,2,0,B|320:136|428:104,1,192,8|8
480,184,117960,2,0,B|432:216|432:268,1,96,0|8
348,312,118799,5,2
348,216,119219,2,0,B|300:236|252:220|252:220|208:204|156:228,1,192,8|8
80,176,120477,1,0
156,116,120897,2,0,B|203:93|247:109|247:109|295:125|343:105,1,192,8|8
384,20,122156,6,0,B|436:40|436:104,1,96,2|8
328,252,123414,2,0,B|264:272|200:260|200:260|188:288|152:296,1,192,8|8
116,208,124673,2,0,B|96:100,1,96,0|8
168,48,125512,6,0,B|216:44|264:48,2,96,12|10|10
96,112,126771,2,0,B|48:116|0:112,2,96,8|10|10
332,276,128869,6,0,B|284:280|236:276,2,96,8|10|10
404,212,130128,2,0,B|452:208|500:212,2,96,8|10|10
128,128,132226,5,4
224,140,132645,2,0,B|216:196|164:216,1,96,8|0
128,128,133484,2,0,B|136:72|188:52,1,96,8|0
280,60,134323,2,0,B|472:60,1,192,8|8
512,148,135582,6,0,B|460:164|448:216,1,96,2|8
372,268,136421,2,0,B|356:216|304:204,1,96,0|8
280,296,137261,1,0
216,224,137680,2,0,B|136:176|136:176|84:196|28:168,1,192,8|8
92,92,138939,6,0,B|144:80|160:24,1,96,4|8
256,196,140198,1,8
353,29,141037,1,8
444,56,141456,2,0,B|432:108|376:124,1,96,0|8
288,100,142296,5,2
208,156,142715,2,0,B|148:204|60:196|60:196|32:160,1,192,8|8
256,192,143764,12,8,145233
256,192,146072,6,0,B|352:204|448:192,2,192,8|8|8
228,100,148170,2,0,B|172:112|160:164,1,96,0|8
176,256,149009,5,2
84,284,149428,2,0,B|100:352|172:356|172:356|224:352|252:376,1,192,8|8
312,304,150687,1,0
404,284,151107,2,0,B|388:216|316:212|316:212|264:216|236:192,1,192,8|8
220,108,152365,6,0,B|168:116|148:172,1,96,4|8
168,260,153205,1,0
76,232,153624,2,0,B|28:192|28:192|44:112|0:60,1,192,8|8
100,44,154883,2,0,B|148:52|196:44,1,96,0|8
256,120,155722,5,2
316,44,156142,2,0,B|364:52|412:44,1,96,8|0
505,68,156981,2,0,B|468:112|484:192|484:192|436:232,1,192,8|8
348,276,158240,1,2
348,276,159079,6,0,B|320:176,1,96,4|8
256,112,159918,1,0
189,183,160337,2,0,B|164:276,1,96,8|0
96,344,161177,2,0,B|56:308|72:252|72:252|32:280|-16:272,1,192,8|8
8,180,162435,6,0,B|20:76,1,96,4|8
100,32,163275,1,0
184,80,163694,2,0,B|208:124|256:144|256:144|304:124|328:80,1,192,8|8
412,32,164953,1,0
492,84,165372,1,8
504,180,165792,6,0,B|476:224|416:216,1,96,4|8
364,140,166631,1,0
352,44,167051,2,0,B|288:44|256:32|256:32|224:44|156:44,1,192,8|8
148,140,168310,1,0
90,216,168729,1,8
188,232,169149,6,0,B|212:332,1,96,0|8
348,192,170407,1,8
188,88,171247,1,8
132,12,171666,2,0,B|84:44|92:100,1,96,0|8
144,176,172505,6,0,B|132:292,1,96,4|8
196,344,173344,1,0
256,268,173764,2,0,B|292:208|216:152|256:80,2,192,8|8|8
316,344,175862,5,4
377,271,176282,2,0,B|368:176,1,96,8|0
352,80,177121,2,0,B|304:88|256:72|256:72|208:88|156:80,1,192,8|8
84,136,178379,2,0,B|100:184|72:228,1,96,0|8
144,292,179219,6,0,B|188:272|240:280,2,96,4|8|0
204,368,180477,2,0,B|300:368|300:368|320:320|380:304,1,192,8|8
460,276,181736,2,0,B|504:248|508:188,1,96,0|8
316,192,182995,5,8
124,192,183834,1,8
276,312,184673,1,8
220,128,185512,1,8
156,308,186351,2,0,B|108:324|60:312,1,96,8|0
12,228,187191,1,8
64,148,187610,6,0,B|110:136|158:152,1,96,0|4
256,320,188869,1,8
256,224,189289,1,4
256,192,189393,12,0,190967
120,136,209428,6,0,B|168:128|216:136,1,96,4|8
256,224,210268,1,0
296,135,210687,2,0,B|344:128|392:136,1,96,8|0
468,196,211526,2,0,B|404:224|392:292|392:292|320:304,1,192,8|8
256,368,212785,5,4
183,302,213205,2,0,B|120:292|120:292|108:224|44:196,1,192,8|8
8,108,214463,2,0,B|60:96|80:44,1,96,0|8
256,124,215722,1,8
340,76,216142,6,0,B|360:128|340:172,1,96,4|8
344,264,216981,1,0
256,304,217400,1,8
168,264,217820,1,0
170,169,218240,2,0,B|152:128|172:76,1,96,8|0
256,32,219079,1,8
344,72,219498,6,0,B|392:80|440:72,1,96,0|8
292,196,220757,1,8
439,311,221596,2,0,B|392:304|344:312,1,96,8|0
248,324,222435,1,8
176,260,222855,6,0,B|136:232|80:240,1,96,4|8
84,144,223694,2,0,B|136:152|176:124,1,96,0|8
244,192,224533,2,0,B|276:184|308:200|340:192,2,96,0|8|0
176,260,225792,1,8
268,284,226212,5,4
304,372,226631,2,0,B|360:344|356:280|356:280|392:304|444:288,1,192,8|8
412,196,227890,1,0
500,156,228310,2,0,B|472:100|408:104|408:104|432:68|416:16,1,192,8|8
324,48,229568,6,0,B|228:48,1,96,4|8
176,128,230407,2,0,B|272:128,1,96,0|8
452,192,231666,1,8
312,324,232505,1,8
276,136,233344,6,0,B|204:204|96:172,1,192,8|8
272,248,235023,2,0,B|344:180|452:212,1,192,8|8
476,303,236282,6,0,B|452:348|399:356,1,96,0|8
304,336,237121,2,0,B|256:328|208:336,1,96,0|8
112,356,237960,2,0,B|60:348|35:303,1,96,0|12
132,136,239219,2,0,B|184:128|212:84,1,96,8|4
256,192,239743,12,0,241317
124,64,249708,6,0,B|160:96|160:96|184:92|208:96,2,96,12|10|10
108,160,250967,2,0,B|72:128|72:128|48:132|24:128,2,96,8|10|10
364,288,253065,6,0,B|328:256|328:256|304:260|280:256,2,96,12|10|10
380,192,254324,2,0,B|416:224|416:224|440:220|464:224,2,96,8|10|10
