osu file format v6

[General]
AudioFilename: a.mp3
AudioLeadIn: 0
PreviewTime: -1
Countdown: 1
SampleSet: Normal
StackLeniency: 0.7
Mode: 0
LetterboxInBreaks: 1

[Editor]
DistanceSpacing: 0.800000011920929
BeatDivisor: 4
GridSize: 8

[Metadata]
Title:Taka no Tsume countdown ED (TV size)
Artist:manzo
Creator:kms9464
Version:Normal
Source:
Tags:

[Difficulty]
HPDrainRate:5
CircleSize:5
OverallDifficulty:5
SliderMultiplier:1.4
SliderTickRate:2

[Events]
//Background and Video events
Video,0,"beatmap video.wmv"
0,0,"秘密結社 鷹の爪 カウントダウン 01.avi_000006840.jpg"
//Break Periods
//Storyboard Layer 0 (Background)
//Storyboard Layer 1 (Fail)
//Storyboard Layer 2 (Pass)
//Storyboard Layer 3 (Foreground)
//Storyboard Sound Samples
//Background Colour Transformations
3,100,163,162,255

[TimingPoints]
4770,419.58041958042,4,1,0,50,1,0
41750,454.545454545455,4,1,0,50,1,0
57210,416.666666666667,4,1,0,50,1,0

[HitObjects]
224,288,4770,2,0,B|160:288|160:192|160:192|160:96|256:96|256:96|352:96|352:192|352:192|352:288|264:296,2,560
256,96,8546,1,0
168,272,9385,1,0
344,272,10224,1,0
208,192,10958,1,0
208,192,11168,1,0
208,192,11483,2,0,B|224:144|256:144|256:144|288:144|304:192,7,140
224,160,14839,5,0
288,160,15259,1,0
288,224,15679,1,0
224,224,16098,1,0
160,192,16518,2,0,B|264:88|264:88|360:192|360:192|264:296|264:296|144:184,1,560
120,88,18616,5,2
120,160,18895,1,2
400,96,19455,5,2
400,160,19735,1,2
400,224,20294,5,2
400,288,20574,1,2
120,280,21133,5,2
120,280,21553,2,0,B|120:80|304:80|304:80|456:80|456:272,2,560
256,272,25329,5,0
208,216,25749,1,0
128,136,26168,1,2
376,136,26588,1,0
296,216,27007,1,0
256,272,27637,1,2
256,272,27846,1,4
32,192,28266,5,0
32,192,28686,2,2,B|328:192,1,280
480,192,29944,5,0
480,192,30364,2,2,B|184:192,1,280
0,344,31623,6,0,B|0:-16|240:0|240:0|528:0|520:368,1,980
48,312,34979,6,8,B|256:112,1,280
248,32,36028,1,2
248,32,36238,1,2
448,320,36658,6,8,B|240:112,1,280
248,32,37707,1,2
248,32,37916,1,2
256,208,38231,12,2,39595
256,192,40014,5,0
256,192,40224,1,0
256,192,40434,1,0
256,192,40644,1,0
256,192,40853,1,4
144,104,41863,5,0
144,256,42772,1,0
360,104,43681,1,0
360,256,44590,1,0
24,352,45443,2,0,B|488:16,1,560
257,192,48170,1,0
96,96,49022,5,0
99,226,49704,1,0
100,292,49932,1,0
400,296,50840,1,0
400,160,51522,1,0
400,96,51749,1,0
152,112,52659,5,0
152,112,52886,1,0
360,296,53568,1,0
360,296,53795,1,0
312,344,54628,1,0
248,344,54855,1,0
184,344,55083,1,0
120,344,55310,1,0
120,344,55537,2,0,B|408:0,1,420
152,96,57939,1,2
352,96,58355,1,2
256,160,58772,5,0
224,216,58980,1,0
288,216,59189,1,0
256,272,59397,1,0
256,160,59605,1,0
224,104,59814,1,0
288,104,60022,1,0
256,48,60230,1,0
256,136,60647,1,2
224,192,60855,1,2
288,192,61064,1,2
256,248,61272,2,2,B|344:216|344:216|416:248,1,140
352,160,62105,5,2
352,224,62313,1,8
288,224,62521,1,2
288,160,62730,1,8
224,160,62938,1,2
160,160,63146,1,8
224,224,63355,1,2
160,224,63563,1,8
160,288,63772,2,10,B|320:288,3,140
80,128,65439,5,2
136,96,65647,1,2
136,160,65856,1,2
192,128,66064,1,2
256,128,66272,2,6,B|408:128,1,140
392,256,67209,5,8
336,224,67418,1,8
336,288,67626,1,8
280,256,67834,1,8
224,256,68043,2,12,B|80:256,1,140
112,192,70126,6,4,B|424:192,2,280
192,112,72210,5,2
160,168,72418,1,2
192,224,72626,1,2
224,168,72835,1,0
288,168,73043,5,8
320,224,73251,1,8
352,168,73460,1,8
320,112,73668,1,0
256,112,73876,5,0
256,224,74085,1,10
192,280,74293,1,10
192,280,74501,1,0
192,280,74710,2,4,B|280:280|280:280|352:280,1,140
256,208,75543,12,0,77314
224,160,78980,5,0
288,160,79397,1,0
288,224,79814,1,0
224,224,80230,1,0
256,88,80855,1,2
336,192,81064,1,8
256,296,81272,1,2
176,192,81480,1,8
256,192,81689,1,10
256,192,81897,1,10
256,192,82314,2,4,B|256:104|352:104|352:104|440:104|440:208,3,280
256,208,85647,12,14,87314
