osu file format v9

[General]
AudioFilename: Genshiken - Creditless Opening.mp3
AudioLeadIn: 0
PreviewTime: 53512
Countdown: 0
SampleSet: Normal
StackLeniency: 0.8
Mode: 0
LetterboxInBreaks: 0

[Editor]
Bookmarks: 38862,46848
DistanceSpacing: 0.8
BeatDivisor: 2
GridSize: 4

[Metadata]
Title:My-Pace Daiou (TV Size)
Artist:manzo
Creator:Andruchon
Version:Normal
Source:Genshiken
Tags:Gendai Shikaku Bunka Kenkyukai opening OzzyOzrock

[Difficulty]
HPDrainRate:5
CircleSize:4
OverallDifficulty:4
ApproachRate:5
SliderMultiplier:1.00000000596046
SliderTickRate:1

[Events]
//Background and Video events
Video,0,"Genshiken - Creditless Opening.avi"
0,0,"1244453106401.jpg"
//Break Periods
//Storyboard Layer 0 (Background)
//Storyboard Layer 1 (Fail)
//Storyboard Layer 2 (Pass)
//Storyboard Layer 3 (Foreground)
//Storyboard Sound Samples
//Background Colour Transformations
3,100,163,162,255

[TimingPoints]
6846,333.333333333333,4,1,0,60,1,0
8179,-100,4,1,0,55,0,0
12179,-100,4,1,0,55,0,0
13512,-100,4,1,0,60,0,0
16179,-100,4,1,0,65,0,0
18845,-100,4,1,0,60,0,0
52179,-100,4,1,0,5,0,0
52180,-100,4,1,0,60,0,0
53512,-100,4,1,0,60,0,1
74179,-100,4,1,0,60,0,0
77845,-100,4,1,0,45,0,0
82845,-100,4,1,0,50,0,0
85512,-100,4,1,0,60,0,0

[Colours]
Combo1 : 255,255,0
Combo2 : 5,240,5
Combo3 : 5,5,240
Combo4 : 240,5,5

[HitObjects]
64,120,8179,2,0,B|160:56,1,100.000000596046,0|8
192,128,8846,2,0,B|96:192,1,100.000000596046,0|8
160,244,9512,1,4
228,204,9846,1,8
296,164,10179,1,0
372,184,10512,6,0,B|444:280,2,100.000000596046,8|4|8
340,112,11512,1,0
308,40,11846,2,0,B|260:72|264:136,1,100.000000596046,8|4
260,168,13512,5,0
248,88,13846,1,8
192,28,14179,1,4
124,68,14512,1,2
48,40,14846,2,2,B|32:136|152:208,1,200.000001192092,2|4
224,208,15845,1,8
224,288,16179,6,8,B|344:288,1,100.000000596046,8|4
400,312,16845,2,10,B|432:256|384:208,1,100.000000596046,8|4
340,160,17512,2,2,B|444:96,2,100.000000596046,8|4|8
180,172,18845,6,8,B|156:112|216:88,2,100.000000596046,8|0|8
100,172,19845,1,8
100,252,20179,1,4
180,252,20512,1,0
260,252,20845,2,8,B|324:220|276:156,1,100.000000596046,8|8
252,96,21512,5,0
172,108,21845,2,0,B|64:80,2,100.000000596046,8|0|8
220,172,22845,1,4
92,264,23512,6,0,B|156:328|292:288,1,200.000001192092,8|4
360,280,24512,1,8
424,232,24845,1,8
444,156,25179,1,8
384,104,25512,1,8
368,184,25845,2,0,B|312:224|268:164,2,100.000000596046,8|4|8
444,156,26845,5,8
384,104,27179,1,8
304,100,27512,1,8
280,176,27846,1,4
208,200,28179,38,0,B|180:104,1,100.000000596046,8|4
160,28,28845,2,0,B|40:36,1,100.000000596046,8|4
80,116,29512,5,2
120,188,29845,1,0
48,220,30179,1,8
104,276,30512,1,0
24,292,30845,2,2,B|64:340,2,50.000000298023
104,276,31512,5,0
152,340,31845,1,8
208,284,32179,1,4
248,220,32512,2,8,B|308:236,2,50.000000298023
284,152,33179,1,0
284,152,33512,2,0,B|172:124,1,100.000000596046,4|0
128,76,34179,6,0,B|152:24|220:32,2,100.000000596046,4|8|4
80,140,35179,2,0,B|40:200|108:224,1,100.000000596046,8|0
162,269,35845,1,4
244,260,36179,2,0,B|292:312|328:244,1,100.000000596046,8|0
300,172,36845,2,0,B|364:172,2,50.000000298023,8|8|8
249,110,37512,6,8,B|165:114|121:198|161:306|281:286,1,300.000001788138,4|0
348,277,38845,5,10
428,272,39179,2,2,B|488:184,1,100.000000596046,4|2
404,188,39845,1,10
324,184,40179,6,0,B|212:184,1,100.000000596046,8|4
144,184,40845,1,4
144,104,41179,1,8
224,104,41512,2,8,B|284:104,4,50.000000298023
252,180,42512,5,12
188,228,42845,5,8
236,292,43179,1,8
296,240,43512,2,4,B|376:168,1,100.000000596046,8|8
432,124,44179,1,4
360,88,44512,1,8
288,120,44845,1,4
256,192,45179,5,12
200,136,45512,6,0,B|140:96|216:64,2,100.000000596046,8|0|8
348,192,46845,2,0,B|419:161|359:121,2,100.000000596046,8|0|8
340,352,48179,5,2
260,336,48512,1,8
188,304,48845,1,2
120,260,49179,1,8
60,208,49512,2,0,B|20:172|32:96,3,100.000000596046,2|8|2|8
256,192,50845,12,0,52179
160,104,52512,5,8
240,104,52845,1,8
320,104,53179,1,8
296,184,53512,6,0,B|252:224|208:184,2,100.000000596046,4|8|4
376,184,54512,1,8
456,184,54845,2,4,B|512:184,2,50.000000298023,0|8|0
376,184,55512,2,4,B|376:128,2,50.000000298023,0|8|0
296,184,56179,5,8
216,184,56512,1,4
216,104,56845,1,8
296,104,57179,1,4
376,104,57512,2,0,B|492:104,2,100.000000596046
368,184,58512,5,12
288,184,58845,6,0,B|224:168|224:112,1,100.000000596046,8|0
220,36,59512,2,0,B|144:36|156:112,1,100.000000596046,8|4
172,172,60178,2,0,B|68:172,2,100.000000596046,8|4|8
172,172,61178,1,4
248,140,61512,6,0,B|268:84|332:68,1,100.000000596046,8|0
376,124,62178,2,0,B|376:184|300:204,1,100.000000596046,8|0
240,188,62845,1,8
232,268,63178,2,0,B|272:328|316:260,1,100.000000596046,0|8
388,244,63845,5,12
388,164,64178,5,2
336,104,64511,1,4
280,164,64845,1,2
232,104,65178,1,8
180,164,65511,1,2
128,104,65845,1,8
84,36,66178,2,2,B|184:36,1,100.000000596046,8|6
264,40,66845,5,8
344,40,67178,1,4
320,116,67512,1,2
240,116,67845,1,4
160,120,68178,2,4,B|160:56,4,50.000000298023
104,176,69178,5,12
152,240,69512,5,8
216,192,69845,1,4
264,256,70178,1,0
344,260,70512,2,0,B|432:204,1,100.000000596046
360,168,71178,2,4,B|460:108,2,100.000000596046,4|4|4
280,168,72178,6,8,B|216:168,2,50.000000298023,8|8|8
360,168,72845,2,0,B|424:168,2,50.000000298023,8|0|8
320,240,73512,2,12,B|320:296,4,50.000000298023,12|12|12|12|12
256,80,76012,5,0
256,80,76178,2,8,B|256:192,2,100.000000596046,8|8|8
336,84,77179,2,0,B|444:176,1,100.000000596046,0|4
400,228,77845,5,8
368,300,78179,1,8
324,232,78512,2,0,B|272:272|208:216,1,100.000000596046,8|4
180,296,79179,1,8
144,224,79512,1,8
76,180,79845,6,0,B|76:284,2,100.000000596046,8|4|8
116,108,80845,1,0
72,40,81179,2,0,B|120:8|180:44,1,100.000000596046,8|4
248,40,81845,1,8
248,40,82179,1,8
248,40,82512,1,8
292,108,82845,6,4,B|348:108|408:48,2,100.000000596046,12|8|12
304,188,83845,1,8
248,248,84179,1,0
300,308,84512,1,8
236,356,84845,1,4
84,304,85512,6,0,B|96:192|224:136,1,200.000001192092,0|4
316,128,86679,1,0
316,128,86845,2,0,B|240:52,2,100.000000596046
276,196,87845,2,0,B|232:248,1,50.000000298023,8|8
