osu file format v9

[General]
AudioFilename: Genshiken - Creditless Opening.mp3
AudioLeadIn: 0
PreviewTime: 53512
Countdown: 0
SampleSet: Normal
StackLeniency: 0.8
Mode: 0
LetterboxInBreaks: 0

[Editor]
Bookmarks: 38862
DistanceSpacing: 1
BeatDivisor: 2
GridSize: 4

[Metadata]
Title:My-Pace Daiou (TV Size)
Artist:manzo
Creator:Andruchon
Version:Easy
Source:Genshiken
Tags:Gendai Shikaku Bunka Kenkyukai opening OzzyOzrock

[Difficulty]
HPDrainRate:2
CircleSize:3
OverallDifficulty:2
ApproachRate:3
SliderMultiplier:0.70000000596046
SliderTickRate:1

[Events]
//Background and Video events
Video,0,"Genshiken - Creditless Opening.avi"
0,0,"1244453106401.jpg"
//Break Periods
//Storyboard Layer 0 (Background)
//Storyboard Layer 1 (Fail)
//Storyboard Layer 2 (Pass)
//Storyboard Layer 3 (Foreground)
//Storyboard Sound Samples
//Background Colour Transformations
3,100,163,162,255

[TimingPoints]
6846,333.333333333333,4,1,0,60,1,0
8179,-100,4,1,0,55,0,0
13512,-100,4,1,0,60,0,0
16179,-100,4,1,0,65,0,0
18845,-100,4,1,0,60,0,0
52179,-100,4,1,0,5,0,0
52180,-100,4,1,0,60,0,0
53512,-100,4,1,0,60,0,1
74179,-100,4,1,0,60,0,0
77842,-100,4,1,0,45,0,0
82845,-100,4,1,0,50,0,0
85512,-100,4,1,0,60,0,0

[Colours]
Combo1 : 255,255,0
Combo2 : 5,240,5
Combo3 : 5,5,240
Combo4 : 240,5,5

[HitObjects]
80,48,8180,2,0,B|224:48,1,140.000001192092,4|0
324,140,9512,2,0,B|180:140,1,140.000001192092,4|0
80,236,10846,2,0,B|224:236,1,140.000001192092,0|4
356,276,12179,1,4
312,144,12845,1,8
400,40,13512,6,8,B|452:80|464:160,1,140.000001192092,4|4
464,304,14846,1,4
464,160,15512,1,12
324,144,16179,6,0,B|256:162,1,70.000000596046,0|8
284,228,16845,1,0
216,248,17179,1,8
218,319,17512,2,0,B|144:320,1,70.000000596046,0|8
80,320,18179,1,4
104,184,18845,5,8
168,64,19512,1,0
312,64,20179,1,8
392,180,20846,2,0,B|416:212|408:252,1,70.000000596046,8|0
336,244,21512,5,0
268,228,21845,1,8
220,280,22179,2,0,B|140:324|88:261,1,140.000001192092,0|4
92,124,23512,6,0,B|112:52|204:28,2,140.000001192092,8|4|8
132,180,25179,1,8
72,220,25512,2,0,B|61:262|95:296,1,70.000000596046,8|4
120,348,26179,2,0,B|160:360|192:344,1,70.000000596046
252,312,26846,5,8
288,252,27179,1,8
248,192,27512,2,0,B|210:252,1,70.000000596046,0|8
136,256,28179,2,8,B|112:184,1,70.000000596046,8|4
184,168,28845,2,8,B|232:112,1,70.000000596046,8|4
272,64,29512,5,8
320,112,29845,1,8
368,164,30179,1,8
320,216,30512,2,0,B|264:272,2,70.000000596046,8|4|8
368,164,31512,6,0,B|384:124|468:124|484:176,1,140.000001192092,8|0
484,244,32512,1,8
484,316,32846,1,4
432,364,33179,2,0,B|352:364,1,70.000000596046,0|8
236,300,34179,5,8
304,296,34512,1,8
376,296,34846,2,0,B|412:208,3,70.000000596046,8|4|8|4
472,212,36179,1,0
436,152,36512,1,8
468,88,36845,2,0,B|424:24,1,70.000000596046,0|8
376,80,37512,2,0,B|368:200|292:200|292:64,1,210.000001788138
224,64,38845,6,0,B|184:136,1,70.000000596046,8|4
224,184,39512,2,0,B|192:256,1,70.000000596046,8|4
128,256,40179,6,0,B|64:212,1,70.000000596046,8|0
56,144,40845,1,0
56,72,41179,2,0,B|136:72,3,70.000000596046,8|4|8|4
268,72,42845,5,8
388,144,43512,1,8
280,232,44179,2,4,B|360:232,2,70.000000596046
144,264,45512,6,2,B|112:200|184:168,2,105.000000894069,10|6|10
128,336,46845,2,2,B|64:336|64:240,2,105.000000894069,10|6|10
200,308,48179,5,8
156,176,48846,1,4
296,176,49512,1,8
344,308,50179,1,4
256,192,50845,12,0,52179
156,128,53512,6,0,B|131:204|197:259,1,140.000001192092,8|4
232,312,54512,1,8
296,280,54845,1,8
256,224,55179,5,4
320,192,55512,1,0
384,160,55846,1,8
348,100,56179,6,0,B|284:140,1,70.000000596046,4|8
224,152,56845,2,0,B|184:168|176:120,1,70.000000596046,4|8
224,72,57512,2,0,B|292:28,2,70.000000596046,4|8|4
88,48,58845,6,0,B|40:112|96:176,1,140.000001192092,0|8
64,312,60178,2,8,B|120:352|200:328,1,140.000001192092,8|4
232,268,61178,1,8
272,328,61512,6,2,B|320:352|320:296,1,70.000000596046
328,232,62179,2,2,B|276:181,2,70.000000596046
384,276,63179,1,0
448,244,63512,1,0
440,104,64179,6,8,B|434:31|334:43,1,140.000001192092,0|8
280,88,65178,1,8
224,44,65512,2,8,B|120:28|112:112,1,140.000001192092,8|4
64,232,66845,6,0,B|48:288|88:304,1,70.000000596046,4|8
144,288,67512,2,0,B|216:272,1,70.000000596046,8|4
280,256,68178,1,12
280,256,68512,1,12
280,256,68845,1,12
416,256,69512,6,0,B|488:192|408:112,1,140.000001192092,4|8
360,152,70512,2,0,B|320:64,1,70.000000596046,8|8
272,120,71178,1,8
216,72,71512,1,8
160,32,71845,1,4
100,68,72178,6,0,B|52:160|144:188,1,140.000001192092,8|4
200,200,73178,1,8
196,128,73512,2,4,B|292:128,2,70.000000596046
48,112,76012,6,0,B|48:32|168:32,1,140.000001192092,4|8
264,32,77178,2,4,B|340:32,1,70.000000596046
364,96,77845,6,0,B|420:164,1,70.000000596046,8|8
380,212,78512,1,8
428,264,78845,2,0,B|348:328|304:216,1,140.000001192092,4|8
312,168,79845,5,8
312,96,80179,2,0,B|312:32|224:32|224:96,1,140.000001192092,4|0
220,160,81179,1,8
220,228,81512,1,8
448,76,82845,6,0,B|376:44|304:76,1,140.000001192092,8|4
276,132,83845,1,8
240,72,84179,2,0,B|168:44|88:80,1,140.000001192092,8|8
136,212,85512,6,4,B|204:252|296:204,1,140.000001192092,4|12
408,248,86845,2,0,B|480:204|436:116,1,140.000001192092
404,68,87845,2,4,B|340:68,1,35.000000298023,8|4
