osu file format v14

[General]
AudioFilename: manack - In the Town of Incessant Rain.mp3
AudioLeadIn: 1000
PreviewTime: 48574
Countdown: 0
SampleSet: Soft
StackLeniency: 0.7
Mode: 0
LetterboxInBreaks: 1
EpilepsyWarning: 1
WidescreenStoryboard: 0

[Editor]
DistanceSpacing: 1.2
BeatDivisor: 8
GridSize: 4
TimelineZoom: 1.2

[Metadata]
Title:Furitsudzuku Ame no Machi de
TitleUnicode:降り続く雨の街で
Artist:manack
ArtistUnicode:manack
Creator:naoe dami
Version:Hard
Source:Little Busters!
Tags:OST BGM visual novel background music instrumental anime In the Town of Incessant Rain kamikita komari riki rin
BeatmapID:464212
BeatmapSetID:195665

[Difficulty]
HPDrainRate:6
CircleSize:5
OverallDifficulty:6
ApproachRate:7
SliderMultiplier:1.4
SliderTickRate:2

[Events]
//Background and Video events
0,0,"BG.jpg",0,0
//Break Periods
2,100996,102674
//Storyboard Layer 0 (Background)
//Storyboard Layer 1 (Fail)
//Storyboard Layer 2 (Pass)
//Storyboard Layer 3 (Foreground)
//Storyboard Sound Samples

[TimingPoints]
241,555.555555555556,4,2,1,20,1,0
3565,-125,4,2,1,20,0,0
6907,-100,4,2,1,20,0,0
10241,-125,4,2,1,20,0,0
13574,-100,4,2,1,20,0,0
25241,-133.333333333333,4,2,1,20,0,0
28574,-100,4,2,1,20,0,0
31768,-125,4,2,1,20,0,0
35102,-100,4,2,1,20,0,0
45764,-125,4,2,1,20,0,0
48574,-100,4,2,1,30,0,0
49129,-100,4,2,1,40,0,1
95796,-100,4,2,1,30,0,0
99546,-125,4,2,1,30,0,0
103574,-100,4,2,1,20,0,0
106907,-125,4,2,1,20,0,0
110241,-100,4,2,1,20,0,0
113574,-125,4,2,1,20,0,0
116907,-100,4,2,1,20,0,0
128574,-125,4,2,1,20,0,0
131907,-100,4,2,1,20,0,0
135241,-125,4,2,1,20,0,0
138574,-100,4,2,1,20,0,0

[Colours]
Combo1 : 249,179,115
Combo2 : 187,250,254
Combo3 : 235,175,231
Combo4 : 170,177,230

[HitObjects]
400,64,241,6,0,B|352:144|264:112,1,140,0|2,0:0|0:0,0:0:0:0:
264,48,1074,1,0,0:0:0:0:
284,120,1352,2,0,P|236:120|212:136,2,70,2|0|2,0:0|0:0|0:0,0:0:0:0:
168,272,2463,2,0,P|237:270|296:234,1,140,0|2,0:0|0:0,0:0:0:0:
272,328,3574,2,0,B|376:304|456:208|320:88|240:160|224:200|224:200,1,336
32,88,6907,5,0,0:0:0:0:
80,288,7463,1,2,0:0:0:0:
112,176,7741,1,0,0:0:0:0:
152,288,8018,1,2,0:0:0:0:
56,224,8296,1,0,0:0:0:0:
168,224,8574,1,2,0:0:0:0:
328,296,9129,2,0,P|400:280|448:224,1,140,2|0,0:0|0:0,0:0:0:0:
464,136,10241,6,0,B|504:40|336:40|392:192|216:192,1,336,6|0,0:0|0:0,0:0:0:0:
248,40,13574,5,0,0:0:0:0:
424,160,14129,1,2,0:0:0:0:
296,256,14407,1,0,0:0:0:0:
328,128,14685,1,2,0:0:0:0:
392,288,14963,2,0,P|360:336|336:352,1,70,0|2,0:0|0:0,0:0:0:0:
88,304,15796,6,0,P|64:248|64:216,1,70
64,112,16352,1,2,0:0:0:0:
256,192,16907,1,0,0:0:0:0:
448,136,17463,1,0,0:0:0:0:
256,48,18018,1,2,0:0:0:0:
416,264,19129,6,0,P|384:296|336:304,1,70,2|0,0:0|0:0,0:0:0:0:
336,200,19685,1,6,0:0:0:0:
400,56,21907,6,0,P|376:88|328:104,1,70
192,112,22463,2,0,P|216:80|264:64,1,70,2|0,0:0|0:0,0:0:0:0:
264,183,23018,2,0,P|241:210|209:223,1,70,2|0,0:0|0:0,0:0:0:0:
112,272,23574,1,2,0:0:0:0:
192,344,24129,2,0,P|120:384|48:352,1,140,0|2,0:0|0:0,0:0:0:0:
112,272,25241,6,0,B|176:104|232:80|320:120|312:200,1,315.000012016297,6|0,0:0|0:0,0:0:0:0:
288,48,28574,5,0,0:0:0:0:
376,208,29129,1,2,0:0:0:0:
304,312,29407,1,0,0:0:0:0:
168,312,29685,1,2,0:0:0:0:
240,208,29963,1,0,0:0:0:0:
184,96,30241,1,2,0:0:0:0:
304,312,30796,2,0,P|373:311|432:275,1,140
352,96,31907,6,0,B|432:200|376:304|240:248|240:136,1,336,6|2,0:0|0:0,0:0:0:0:
480,296,35241,5,0,0:0:0:0:
408,208,35796,2,0,P|376:192|352:160,1,70,2|0,0:0|0:0,0:0:0:0:
468,88,36352,2,0,P|436:112|420:152,1,70,2|0,0:0|0:0,0:0:0:0:
304,80,36907,1,2,0:0:0:0:
192,80,37463,2,0,P|120:96|72:152,1,140,0|2,0:0|0:0,0:0:0:0:
200,232,38574,2,0,P|240:248|264:280,1,70,0|2,0:0|0:0,0:0:0:0:
192,320,39129,5,0,0:0:0:0:
408,328,39685,2,0,P|448:288|448:248,1,70
424,192,40241,1,2,0:0:0:0:
344,72,40796,2,0,P|272:32|192:40,1,140,2|0,0:0|0:0,0:0:0:0:
120,176,41907,2,0,P|171:222|240:231,1,140,0|2,0:0|0:0,0:0:0:0:
152,64,43574,6,0,P|104:80|72:104,2,70,2|0|2,0:0|0:0|0:0,0:0:0:0:
72,256,45241,1,0,0:0:0:0:
184,352,45518,1,0,0:0:0:0:
312,256,45796,2,0,B|392:240|392:240|368:208|368:208|392:184|392:184|368:160|368:160|392:136|392:136|368:112|368:112|440:64,1,336
248,72,48574,5,0,0:0:0:0:
80,64,49129,2,0,P|96:96|88:128,1,70,4|0,0:0|0:0,0:0:0:0:
16,232,49685,2,0,P|0:200|8:168,1,70
104,208,50241,2,0,P|136:192|184:184,1,70
256,264,50796,2,0,P|176:280|96:312,1,140,0|2,0:0|0:0,0:0:0:0:
256,360,51907,2,0,P|304:368|352:368,1,70,2|2,0:0|0:0,0:0:0:0:
408,336,52463,1,2,0:0:0:0:
432,240,53018,2,0,P|376:184|352:120,1,140,2|2,0:0|0:0,0:0:0:0:
256,64,54129,1,2,0:0:0:0:
168,128,54407,2,0,P|136:160|96:176,2,70,0|0|0,0:0|0:0|0:0,0:0:0:0:
248,200,55241,5,2,0:0:0:0:
176,296,55518,1,0,0:0:0:0:
248,200,55796,1,4,0:0:0:0:
368,200,56352,2,0,P|366:165|351:135,1,70,0|2,0:0|0:0,0:0:0:0:
232,136,56907,2,0,P|235:170|251:202,1,70,0|2,0:0|0:0,0:0:0:0:
264,304,57463,2,0,P|296:288|344:280,1,70
440,264,58018,2,0,P|432:230|416:199,1,70,0|2,0:0|0:0,0:0:0:0:
368,112,58574,5,0,0:0:0:0:
248,120,59129,2,0,L|281:181,1,70,0|2,0:0|0:0,0:0:0:0:
152,112,59685,2,0,L|119:51,1,70,0|2,0:0|0:0,0:0:0:0:
64,112,60241,1,0,0:0:0:0:
96,200,60518,1,2,0:0:0:0:
128,280,60796,2,0,L|200:280,1,70,0|2,0:0|0:0,0:0:0:0:
272,360,61352,2,0,L|200:360,1,70,2|0,0:0|0:0,0:0:0:0:
128,280,61907,1,2,0:0:0:0:
80,200,62184,1,0,0:0:0:0:
160,128,62463,5,0,0:0:0:0:
248,64,62741,2,0,P|280:96|312:104,1,70,0|2,0:0|0:0,0:0:0:0:
442,115,63296,2,0,P|437:149|416:176,1,70,0|2,0:0|0:0,0:0:0:0:
392,272,63852,2,0,P|416:304|432:352,1,70
320,352,64407,1,0,0:0:0:0:
240,288,64685,1,2,0:0:0:0:
304,216,64963,2,0,P|328:176|328:144,1,70,0|2,0:0|0:0,0:0:0:0:
252,160,65518,1,0,0:0:0:0:
395,72,65796,2,0,P|328:56|256:76,1,140,2|0,0:0|0:0,0:0:0:0:
176,176,67463,5,2,0:0:0:0:
56,80,67741,1,0,0:0:0:0:
96,176,68019,1,2,0:0:0:0:
136,80,68296,1,0,0:0:0:0:
16,176,68574,1,0,0:0:0:0:
56,272,68852,1,2,0:0:0:0:
136,272,69129,2,0,P|160:296|177:327,2,70,2|0|2,0:0|0:0|0:0,0:0:0:0:
176,177,69963,2,0,P|207:160|232:136,1,70,2|0,0:0|0:0,0:0:0:0:
191,38,70518,2,0,P|160:55|136:80,1,70,2|0,0:0|0:0,0:0:0:0:
96,176,71074,1,2,0:0:0:0:
136,272,71352,6,0,P|155:300|186:317,1,70,2|0,0:0|0:0,0:0:0:0:
288,320,71907,1,0,0:0:0:0:
384,320,72185,2,0,P|412:300|429:269,1,70,2|0,0:0|0:0,0:0:0:0:
456,184,72741,1,0,0:0:0:0:
409,90,73018,2,0,P|378:75|344:72,1,70,2|0,0:0|0:0,0:0:0:0:
237,69,73574,2,0,P|220:100|192:120,1,70,2|0,0:0|0:0,0:0:0:0:
104,168,74129,1,0,0:0:0:0:
144,256,74407,1,0,0:0:0:0:
232,216,74685,1,0,0:0:0:0:
328,168,74963,2,0,P|358:184|378:213,2,70,2|0|0,0:0|0:0|0:0,0:0:0:0:
296,88,75796,6,0,P|280:56|280:8,1,70,6|0,0:0|0:0,0:0:0:0:
328,168,76352,2,0,P|336:200|336:240,1,70
206,327,76907,2,0,P|240:319|272:304,1,70
200,224,77463,2,0,P|134:247|65:259,1,140,0|2,0:0|0:0,0:0:0:0:
56,176,78296,1,0,0:0:0:0:
112,112,78574,6,0,P|64:96|16:104,1,70,0|2,0:0|0:0,0:0:0:0:
192,56,79129,1,0,0:0:0:0:
312,184,79685,2,0,P|296:120|304:48,1,140
208,168,80796,1,0,0:0:0:0:
320,256,81352,1,0,0:0:0:0:
216,352,81907,1,2,0:0:0:0:
80,280,82463,5,0,0:0:0:0:
144,136,83018,2,0,P|146:171|161:201,1,70
264,248,83574,2,0,P|261:214|245:182,1,70
304,72,84129,2,0,P|272:88|224:96,1,70
344,152,84685,2,0,P|378:144|409:128,1,70,2|0,0:0|0:0,0:0:0:0:
448,224,85241,1,0,0:0:0:0:
448,320,85518,1,0,0:0:0:0:
352,352,85796,2,0,L|312:288,1,70
192,264,86352,6,0,L|232:336,1,70,2|0,0:0|0:0,0:0:0:0:
104,304,86907,2,0,L|64:240,1,70
144,144,87463,2,0,L|72:144,1,70,2|0,0:0|0:0,0:0:0:0:
144,64,88018,2,0,L|216:64,1,70
294,144,88574,2,0,L|224:144,1,70,2|0,0:0|0:0,0:0:0:0:
280,248,89129,5,0,0:0:0:0:
160,280,89407,2,0,P|192:312|224:320,1,70
80,224,89963,2,0,P|56:256|48:296,1,70
88,144,90518,2,0,P|64:112|48:64,1,70
160,64,91074,2,0,P|216:80|248:72,1,70,0|2,0:0|0:0,0:0:0:0:
216,152,91629,2,0,P|192:192|192:224,1,70,0|2,0:0|0:0,0:0:0:0:
376,208,92463,6,0,P|352:136|376:64,1,140,0|2,0:0|0:0,0:0:0:0:
472,136,93574,2,0,P|488:176|488:216,1,70,2|0,0:0|0:0,0:0:0:0:
448,280,94129,1,2,0:0:0:0:
360,328,94407,2,0,P|320:344|280:344,1,70,2|0,0:0|0:0,0:0:0:0:
200,344,94963,1,2,0:0:0:0:
112,352,95241,2,0,P|88:280|112:208,1,140,2|2,0:0|0:0,0:0:0:0:
240,264,96352,6,0,L|256:192,1,70
328,256,96907,2,0,L|368:328,1,70,2|0,0:0|0:0,0:0:0:0:
432,264,97463,2,0,L|448:192,1,70
432,120,98018,2,0,L|376:72,1,70,2|0,0:0|0:0,0:0:0:0:
264,80,98574,2,0,L|328:136,1,70,0|0,0:0|0:0,0:0:0:0:
196,126,99129,2,0,L|144:80,1,70,0|0,0:0|0:0,0:0:0:0:
80,136,99685,2,0,B|96:184|96:184|88:216|88:216|120:208|120:208|112:240|112:240|152:312,1,224
104,280,103574,5,0,0:0:0:0:
256,280,104129,1,0,0:0:0:0:
344,336,104407,1,0,0:0:0:0:
344,224,104685,1,2,0:0:0:0:
440,280,104963,1,0,0:0:0:0:
440,168,105241,1,2,0:0:0:0:
367,26,105796,2,0,P|298:27|240:64,1,140
96,40,106907,2,0,B|112:120|112:120|192:104|256:160|256:160|328:88,1,336,6|0,0:0|0:0,0:0:0:0:
480,296,110241,5,0,0:0:0:0:
432,96,110796,1,2,0:0:0:0:
400,208,111074,1,0,0:0:0:0:
364,96,111352,1,2,0:0:0:0:
456,160,111629,1,0,0:0:0:0:
344,160,111907,1,2,0:0:0:0:
184,88,112463,2,0,P|112:104|64:160,1,140
320,88,113574,2,0,B|328:272|408:216|448:136|384:80|272:192,1,336,6|0,0:0|0:0,0:0:0:0:
264,344,116907,5,0,0:0:0:0:
88,224,117463,1,2,0:0:0:0:
216,128,117741,1,0,0:0:0:0:
128,128,118018,1,2,0:0:0:0:
264,224,118296,2,0,P|296:176|320:160,1,70,0|2,0:0|0:0,0:0:0:0:
496,88,119129,6,0,P|520:144|520:176,1,70
448,248,119685,1,2,0:0:0:0:
256,192,120241,1,0,0:0:0:0:
64,248,120796,1,0,0:0:0:0:
256,336,121352,1,0,0:0:0:0:
112,120,122463,6,0,P|152:88|184:88,1,70,2|0,0:0|0:0,0:0:0:0:
184,184,123018,1,6,0:0:0:0:
112,328,125241,6,0,P|136:296|184:280,1,70
320,272,125796,2,0,P|296:304|248:320,1,70,2|0,0:0|0:0,0:0:0:0:
248,200,126352,2,0,P|272:168|320:152,1,70,2|0,0:0|0:0,0:0:0:0:
136,176,126907,1,2,0:0:0:0:
264,56,127463,2,0,P|336:16|408:24,1,140
432,168,128574,6,0,B|439:88|351:48|295:72|231:240,1,336,6|0,0:0|0:0,0:0:0:0:
224,336,131907,5,0,0:0:0:0:
136,176,132463,1,2,0:0:0:0:
208,72,132741,1,0,0:0:0:0:
344,72,133018,1,2,0:0:0:0:
408,176,133296,1,0,0:0:0:0:
272,176,133574,1,2,0:0:0:0:
432,296,134129,2,0,P|363:297|304:333,1,140
200,184,135241,6,0,B|208:240|120:280|64:256|0:64,1,336,4|2,0:0|0:0,0:0:0:0:
96,48,138574,5,0,0:0:0:0:
232,161,139129,2,0,P|200:144|176:112,1,70,2|0,0:0|0:0,0:0:0:0:
234,29,139685,2,0,P|265:45|288:72,1,70,2|0,0:0|0:0,0:0:0:0:
400,88,140241,1,0,0:0:0:0:
336,232,140796,2,0,P|408:216|456:160,1,140
451,291,141907,2,0,P|419:306|392:328,1,70
256,280,142463,5,2,0:0:0:0:
104,336,143018,2,0,P|118:304|137:274,1,70
80,192,143574,1,2,0:0:0:0:
200,200,144129,2,0,P|272:240|352:232,1,140
416,136,145241,2,0,P|348:128|288:88,1,140,0|2,0:0|0:0,0:0:0:0:
112,48,146907,5,0,0:0:0:0:
8,168,147463,1,0,0:0:0:0:
80,296,148574,2,0,P|120:328|152:336,1,70
256,192,149129,12,4,152602,0:0:0:0:
