osu file format v13

[General]
AudioFilename: manack - In the Town of Incessant Rain.mp3
AudioLeadIn: 1000
PreviewTime: 48574
Countdown: 0
SampleSet: Soft
StackLeniency: 0.7
Mode: 0
LetterboxInBreaks: 1
EpilepsyWarning: 1
WidescreenStoryboard: 0

[Editor]
DistanceSpacing: 0.9
BeatDivisor: 4
GridSize: 4
TimelineZoom: 1.5

[Metadata]
Title:Furitsudzuku Ame no Machi de
TitleUnicode:降り続く雨の街で
Artist:manack
ArtistUnicode:manack
Creator:naoe dami
Version:Easy
Source:Little Busters!
Tags:OST BGM visual novel background music instrumental anime In the Town of Incessant Rain kamikita komari riki rin
BeatmapID:493809
BeatmapSetID:195665

[Difficulty]
HPDrainRate:2
CircleSize:3
OverallDifficulty:2
ApproachRate:3
SliderMultiplier:1.2
SliderTickRate:1

[Events]
//Background and Video events
0,0,"BG.jpg",0,0
//Break Periods
2,10440,12134
2,100996,102134
//Storyboard Layer 0 (Background)
//Storyboard Layer 1 (Fail)
//Storyboard Layer 2 (Pass)
//Storyboard Layer 3 (Foreground)
//Storyboard Sound Samples

[TimingPoints]
241,555.555555555556,4,2,1,20,1,0
48574,-100,4,2,1,30,0,0
49129,-100,4,2,1,40,0,1
95796,-100,4,2,1,30,0,0
110241,-100,4,2,1,20,0,0

[Colours]
Combo1 : 252,210,173
Combo2 : 187,250,254
Combo3 : 235,175,231
Combo4 : 170,177,230

[HitObjects]
40,240,241,5,2,0:0:0:0:
120,312,796,2,0,P|168:352|248:376,2,120,2|0|2,0:0|0:0|0:0,0:0:0:0:
168,216,2462,2,0,P|216:152|264:120,1,120,0|2,0:0|0:0,0:0:0:0:
344,88,3574,2,0,B|400:104|464:88|464:88|472:152|512:200,1,240
432,192,6906,5,2,0:0:0:0:
344,252,7463,1,2,0:0:0:0:
320,144,8018,2,0,P|256:176|224:240,1,120,0|2,0:0|0:0,0:0:0:0:
160,296,9129,2,0,P|112:261|89:207,2,120,2|0|6,0:0|0:0|0:0,0:0:0:0:
144,144,13574,6,0,B|208:192|208:192|260:192,1,120
336,256,14685,2,0,P|352:192|320:120,1,120,0|2,0:0|0:0,0:0:0:0:
388,48,15796,6,0,P|324:32|252:64,2,120,0|2|0,0:0|0:0|0:0,0:0:0:0:
480,112,17463,1,0,0:0:0:0:
400,192,18018,5,4,0:0:0:0:
184,192,19129,2,0,B|113:145|104:104,1,120,2|6,0:0|0:0,0:0:0:0:
160,320,21907,6,0,B|216:312|224:264|272:240,1,120
336,176,23018,2,0,P|368:152|384:136,2,60,2|0|2,0:0|0:0|0:0,0:0:0:0:
264,96,24129,2,0,P|216:88|152:128,1,120,0|2,0:0|0:0,0:0:0:0:
96,56,25241,2,0,B|40:104|56:192|120:240|176:216|224:184|224:184|296:192,1,360
56,104,28574,5,0,0:0:0:0:
56,208,29129,2,0,P|72:240|72:328,2,120,2|0|2,0:0|0:0|0:0,0:0:0:0:
160,168,30796,2,0,P|221:151|296:176,1,120,2|0,0:0|0:0,0:0:0:0:
352,88,31907,2,0,B|416:176|352:224|336:288|232:256|232:256|168:304,1,360,0|0,0:0|0:0,0:0:0:0:
80,176,35241,6,0,P|40:240|48:296,1,120
136,336,36352,2,0,P|166:352|200:352,2,60,2|0|2,0:0|0:0|0:0,0:0:0:0:
188,240,37463,2,0,P|220:184|292:160,1,120,0|2,0:0|0:0,0:0:0:0:
352,176,38574,1,0,0:0:0:0:
280,256,39129,1,2,0:0:0:0:
160,264,39685,6,0,P|107:237|79:185,1,120,0|2,0:0|0:0,0:0:0:0:
40,88,40796,1,2,0:0:0:0:
144,104,41352,1,2,0:0:0:0:
248,128,41907,2,0,P|264:192|320:232,1,120
451,226,43574,6,0,P|494:186|496:128,1,120,2|2,0:0|0:0,0:0:0:0:
408,56,45241,2,0,L|336:56,1,60
296,72,45796,2,0,B|232:112|232:112|176:136|176:208|232:216|280:192|280:192|384:224,1,360
320,328,48574,6,0,P|368:352|440:328,1,120,0|6,0:0|0:0,0:0:0:0:
392,248,49685,2,0,P|421:230|424:144,1,120,0|0,0:0|0:0,0:0:0:0:
304,80,50796,2,0,P|248:40|184:48,1,120,2|0,0:0|0:0,0:0:0:0:
104,96,51907,2,0,B|48:160|136:216|176:232|136:336,2,240,2|0|0,0:0|0:0|0:0,0:0:0:0:
312,40,55241,6,0,P|368:72|400:136,2,120,2|4|0,0:0|0:0|0:0,0:0:0:0:
208,72,56907,2,0,P|239:122|291:150,1,120,0|2,0:0|0:0,0:0:0:0:
384,208,58018,2,0,P|432:272|424:336,1,120,2|0,0:0|0:0,0:0:0:0:
328,288,59129,2,0,B|264:336|152:296,2,180,2|0|2,0:0|0:0|0:0,0:0:0:0:
48,160,62463,6,0,P|64:112|128:64,2,120,2|0|2,0:0|0:0|0:0,0:0:0:0:
128,232,64129,2,0,P|184:256|264:248,1,120,0|2,0:0|0:0,0:0:0:0:
352,240,65241,2,0,P|371:174|352:112,2,120,2|2|2,0:0|0:0|0:0,0:0:0:0:
152,312,67463,1,0,0:0:0:0:
88,224,68018,2,0,P|48:160|80:112,1,120,2|0,0:0|0:0,0:0:0:0:
152,64,69129,2,0,P|207:31|275:32,1,120,2|2,0:0|0:0,0:0:0:0:
472,280,71352,6,0,P|416:320|352:320,2,120,2|0|2,0:0|0:0|0:0,0:0:0:0:
256,192,73018,12,2,75241,0:0:0:0:
376,144,75796,6,0,P|328:168|248:152,1,120,6|0,0:0|0:0,0:0:0:0:
228,80,76907,2,0,P|201:102|164:184,1,120,0|2,0:0|0:0,0:0:0:0:
152,280,78018,1,2,0:0:0:0:
200,368,78574,2,0,B|268:312|264:220|164:180,1,240,0|0,0:0|0:0,0:0:0:0:
56,168,80241,2,0,P|96:96|152:80,1,120,2|0,0:0|0:0,0:0:0:0:
392,64,81907,6,0,P|432:112|448:168,1,120,2|0,0:0|0:0,0:0:0:0:
424,272,83018,2,0,P|365:263|320:225,3,120,0|2|0|2,0:0|0:0|0:0|0:0,0:0:0:0:
272,128,85241,1,0,0:0:0:0:
168,104,85796,2,0,B|80:104|80:104|104:128|104:128|80:152|80:152|104:176|104:176|80:200|80:200|104:224|104:224|80:240|80:240|128:296,1,360
400,176,89129,6,0,P|432:232|400:296,2,120,2|0|2,0:0|0:0|0:0,0:0:0:0:
312,240,90796,1,0,0:0:0:0:
216,288,91352,2,0,P|145:299|96:256,1,120,2|0,0:0|0:0,0:0:0:0:
56,176,92463,2,0,P|72:112|136:80,1,120,0|2,0:0|0:0,0:0:0:0:
224,64,93574,1,2,0:0:0:0:
328,88,94129,1,2,0:0:0:0:
472,248,95241,2,0,P|464:320|400:336,1,120,2|6,0:0|0:0,0:0:0:0:
256,192,96352,12,4,100796,0:0:0:0:
456,192,103574,5,0,0:0:0:0:
376,264,104129,2,0,P|320:304|248:304,1,120,2|0,0:0|0:0,0:0:0:0:
168,280,105241,1,2,0:0:0:0:
112,184,105796,2,0,P|112:128|160:88,1,120,0|2,0:0|0:0,0:0:0:0:
264,72,106907,2,0,B|416:32|456:168|264:192|296:304,1,360
72,160,110241,6,0,P|96:216|160:264,1,120,0|2,0:0|0:0,0:0:0:0:
248,280,111352,2,0,L|248:360,2,60,0|0|2,0:0|0:0|0:0,0:0:0:0:
372,254,112463,2,0,P|416:214|440:160,1,120,0|2,0:0|0:0,0:0:0:0:
360,72,113574,2,0,B|328:200|256:248|176:200|152:64,1,360,6|0,0:0|0:0,0:0:0:0:
264,128,116907,5,0,0:0:0:0:
200,216,117463,2,0,L|288:312,2,120,2|0|2,0:0|0:0|0:0,0:0:0:0:
100,256,119129,2,0,P|67:195|108:144,1,120,0|2,0:0|0:0,0:0:0:0:
168,80,120241,1,0,0:0:0:0:
268,40,120796,2,0,P|301:101|276:148,1,120,0|6,0:0|0:0,0:0:0:0:
136,300,122463,2,0,B|180:352|264:332,1,120,2|6,0:0|0:0,0:0:0:0:
88,304,125241,6,0,P|80:240|104:192,2,120,0|2|0,0:0|0:0|0:0,0:0:0:0:
184,256,126907,1,2,0:0:0:0:
264,328,127463,2,0,P|297:280|288:216,1,120,0|2,0:0|0:0,0:0:0:0:
232,128,128574,2,0,B|128:24|64:152|64:152|136:288,1,360
128,32,131907,5,0,0:0:0:0:
160,136,132463,2,0,P|152:184|216:224,1,120,0|2,0:0|0:0,0:0:0:0:
312,248,133574,2,0,P|376:240|384:184,1,120,2|0,0:0|0:0,0:0:0:0:
416,88,134685,1,0,0:0:0:0:
484,172,135241,2,0,B|496:284|440:344|352:380|236:316,1,360
32,240,138574,5,0,0:0:0:0:
120,304,139129,2,0,P|144:328|240:344,2,120,2|0|2,0:0|0:0|0:0,0:0:0:0:
144,200,140796,2,0,P|168:152|232:120,1,120,0|2,0:0|0:0,0:0:0:0:
328,80,141907,1,0,0:0:0:0:
392,168,142463,6,0,P|368:216|304:248,1,120,2|0,0:0|0:0,0:0:0:0:
208,264,143574,1,2,0:0:0:0:
104,246,144129,2,0,P|52:220|24:168,1,120,2|0,0:0|0:0,0:0:0:0:
24,64,145241,5,0,0:0:0:0:
128,64,145796,2,0,P|208:128|272:248,1,240,0|2,0:0|0:0,0:0:0:0:
328,344,147463,2,0,P|416:264|384:136,1,240,2|0,0:0|0:0,0:0:0:0:
256,192,149129,12,6,152532,0:0:0:0:
