osu file format v14

[General]
AudioFilename: .mp3
AudioLeadIn: 0
PreviewTime: 54065
Countdown: 0
SampleSet: Normal
StackLeniency: 0.7
Mode: 1
LetterboxInBreaks: 0
WidescreenStoryboard: 1

[Editor]
DistanceSpacing: 0.9
BeatDivisor: 4
GridSize: 32
TimelineZoom: 0.5999999

[Metadata]
Title:Jousou Dystopia
TitleUnicode:情操ディストピア
Artist:mami
ArtistUnicode:mami
Creator:OzzyOzrock
Version:Kantan
Source:pop'n music 20 fantasia
Tags:tenko ayakashi rock gitadora reflec beat groovin'!! sunny park PON wac
BeatmapID:1516199
BeatmapSetID:694059

[Difficulty]
HPDrainRate:8
CircleSize:5
OverallDifficulty:4
ApproachRate:6
SliderMultiplier:1.4
SliderTickRate:1

[Events]
//Background and Video events
0,0,"2.jpg",0,0
//Break Periods
//Storyboard Layer 0 (Background)
//Storyboard Layer 1 (Fail)
//Storyboard Layer 2 (Pass)
//Storyboard Layer 3 (Foreground)
//Storyboard Sound Samples

[TimingPoints]
447,263.157894736842,4,1,0,100,1,0
54131,-100,4,1,0,100,0,1
70973,-100,4,1,0,100,0,0
96236,-100,4,1,0,100,0,1
104394,-100,4,1,0,100,0,0

[HitObjects]
416,288,974,5,8,0:0:0:0:
416,288,1236,1,8,0:0:0:0:
128,256,1500,1,0,0:0:0:0:
416,288,5184,1,8,0:0:0:0:
416,288,5447,1,8,0:0:0:0:
64,320,5710,1,0,0:0:0:0:
64,320,5973,1,0,0:0:0:0:
416,288,6236,1,8,0:0:0:0:
128,320,6763,1,0,0:0:0:0:
416,288,7289,1,8,0:0:0:0:
160,352,7816,1,0,0:0:0:0:
96,288,8079,1,0,0:0:0:0:
384,288,8341,1,8,0:0:0:0:
192,288,8868,1,0,0:0:0:0:
192,160,9920,1,0,0:0:0:0:
416,288,10446,1,8,0:0:0:0:
160,320,10973,1,0,0:0:0:0:
160,288,11368,1,0,0:0:0:0:
384,288,11762,1,8,0:0:0:0:
64,256,12025,1,0,0:0:0:0:
160,288,12552,1,0,0:0:0:0:
352,288,13078,1,8,0:0:0:0:
320,256,13473,1,8,0:0:0:0:
384,256,13868,1,8,0:0:0:0:
192,256,14131,1,0,0:0:0:0:
384,256,14657,1,8,0:0:0:0:
160,288,15183,1,0,0:0:0:0:
192,288,15578,1,0,0:0:0:0:
384,288,15973,1,8,0:0:0:0:
192,288,16236,1,0,0:0:0:0:
352,320,16762,1,8,0:0:0:0:
128,320,17289,1,0,0:0:0:0:
160,320,18341,1,0,0:0:0:0:
352,288,19394,1,8,0:0:0:0:
320,288,20446,1,8,0:0:0:0:
320,288,20973,1,8,0:0:0:0:
384,320,21499,1,8,0:0:0:0:
320,288,22552,1,8,0:0:0:0:
384,320,23078,1,8,0:0:0:0:
352,256,23604,1,8,0:0:0:0:
352,288,24657,1,8,0:0:0:0:
320,288,25183,1,8,0:0:0:0:
384,288,25710,1,8,0:0:0:0:
128,288,26762,1,0,0:0:0:0:
128,288,27815,1,0,0:0:0:0:
160,320,28341,1,0,0:0:0:0:
128,320,28868,1,0,0:0:0:0:
160,320,29131,1,0,0:0:0:0:
160,320,29394,1,0,0:0:0:0:
320,288,29920,1,8,0:0:0:0:
384,256,30446,1,8,0:0:0:0:
352,256,30973,1,8,0:0:0:0:
352,256,31236,1,8,0:0:0:0:
352,288,31499,1,8,0:0:0:0:
160,288,32025,1,0,0:0:0:0:
128,320,32552,1,0,0:0:0:0:
192,320,33078,1,0,0:0:0:0:
169,313,33341,1,0,0:0:0:0:
192,320,33604,1,0,0:0:0:0:
363,296,34131,1,8,0:0:0:0:
128,320,34657,1,0,0:0:0:0:
128,320,34920,1,0,0:0:0:0:
352,256,36236,1,8,0:0:0:0:
160,256,36762,1,0,0:0:0:0:
352,256,37157,1,8,0:0:0:0:
96,288,37815,1,0,0:0:0:0:
160,256,38341,1,0,0:0:0:0:
320,256,38868,1,8,0:0:0:0:
160,288,39262,1,0,0:0:0:0:
356,291,39920,1,8,0:0:0:0:
160,288,40446,1,0,0:0:0:0:
352,224,41499,1,8,0:0:0:0:
192,96,42552,1,0,0:0:0:0:
192,128,43078,1,0,0:0:0:0:
64,288,43604,1,0,0:0:0:0:
384,288,43999,1,8,0:0:0:0:
192,320,44657,1,0,0:0:0:0:
192,320,45183,1,0,0:0:0:0:
328,306,45578,1,8,0:0:0:0:
160,256,46236,1,0,0:0:0:0:
352,224,46762,1,8,0:0:0:0:
182,326,47289,1,0,0:0:0:0:
160,320,47683,1,0,0:0:0:0:
352,224,48341,1,8,0:0:0:0:
192,256,48868,1,0,0:0:0:0:
320,256,49394,1,8,0:0:0:0:
128,288,49920,1,0,0:0:0:0:
141,286,50446,1,0,0:0:0:0:
318,299,50973,5,8,0:0:0:0:
316,304,51236,1,8,0:0:0:0:
286,299,51499,1,8,0:0:0:0:
416,128,52025,1,12,0:0:0:0:
114,268,53341,1,0,0:0:0:0:
129,239,53604,1,0,0:0:0:0:
128,288,54131,1,0,0:0:0:0:
385,302,54657,1,8,0:0:0:0:
200,316,55183,1,0,0:0:0:0:
136,316,55446,1,0,0:0:0:0:
168,316,55709,1,0,0:0:0:0:
224,320,56236,1,0,0:0:0:0:
384,256,56762,1,8,0:0:0:0:
479,299,57288,1,8,0:0:0:0:
447,299,57552,1,8,0:0:0:0:
383,267,57815,1,8,0:0:0:0:
160,288,58341,1,0,0:0:0:0:
352,288,58868,1,8,0:0:0:0:
116,326,59394,1,0,0:0:0:0:
335,240,59789,1,8,0:0:0:0:
129,304,60446,1,0,0:0:0:0:
321,304,60973,1,8,0:0:0:0:
96,288,61499,1,0,0:0:0:0:
160,320,62552,1,0,0:0:0:0:
352,288,63078,1,8,0:0:0:0:
160,320,63604,1,0,0:0:0:0:
96,288,63868,1,0,0:0:0:0:
320,288,64131,1,8,0:0:0:0:
160,320,64657,1,0,0:0:0:0:
288,288,65183,1,8,0:0:0:0:
128,288,65710,1,0,0:0:0:0:
288,288,65973,1,8,0:0:0:0:
192,320,66236,1,0,0:0:0:0:
320,288,66762,1,8,0:0:0:0:
160,288,67289,1,0,0:0:0:0:
320,288,67815,1,8,0:0:0:0:
320,256,68210,1,8,0:0:0:0:
96,288,68604,1,0,0:0:0:0:
128,320,68868,1,0,0:0:0:0:
96,288,69394,1,0,0:0:0:0:
128,128,69920,1,4,0:0:0:0:
352,288,70973,5,8,0:0:0:0:
352,288,71499,1,8,0:0:0:0:
352,288,72025,1,8,0:0:0:0:
96,288,72552,1,0,0:0:0:0:
384,288,73078,1,8,0:0:0:0:
352,288,73604,1,8,0:0:0:0:
352,288,74131,1,8,0:0:0:0:
224,288,75183,1,0,0:0:0:0:
384,288,75710,1,8,0:0:0:0:
192,288,76236,1,0,0:0:0:0:
352,256,76762,1,8,0:0:0:0:
160,288,77289,1,0,0:0:0:0:
160,288,77815,1,0,0:0:0:0:
384,288,78341,1,8,0:0:0:0:
384,288,78604,1,8,0:0:0:0:
352,256,78868,1,8,0:0:0:0:
128,288,79394,1,0,0:0:0:0:
352,288,79920,1,8,0:0:0:0:
192,288,80446,1,0,0:0:0:0:
160,320,81499,1,0,0:0:0:0:
288,288,82025,1,8,0:0:0:0:
352,288,82552,1,8,0:0:0:0:
288,288,82815,1,8,0:0:0:0:
320,288,83078,1,8,0:0:0:0:
96,320,83604,1,0,0:0:0:0:
320,288,84131,1,8,0:0:0:0:
116,307,84657,1,0,0:0:0:0:
320,288,85710,1,8,0:0:0:0:
339,280,85973,1,8,0:0:0:0:
192,320,86236,1,0,0:0:0:0:
384,288,86762,1,8,0:0:0:0:
64,288,87815,1,0,0:0:0:0:
96,288,88341,1,0,0:0:0:0:
128,320,88868,1,0,0:0:0:0:
320,256,89920,1,8,0:0:0:0:
384,288,90446,1,8,0:0:0:0:
352,288,90973,1,8,0:0:0:0:
160,320,92025,1,0,0:0:0:0:
352,288,92552,1,8,0:0:0:0:
160,320,93078,1,0,0:0:0:0:
192,128,94131,1,4,0:0:0:0:
416,128,94657,1,12,0:0:0:0:
160,352,95183,1,0,0:0:0:0:
384,267,95578,1,8,0:0:0:0:
160,288,96236,5,0,0:0:0:0:
384,256,96499,1,8,0:0:0:0:
160,256,96762,1,0,0:0:0:0:
352,256,97025,1,8,0:0:0:0:
160,320,97289,1,0,0:0:0:0:
320,288,97815,1,8,0:0:0:0:
128,320,98341,1,8,0:0:0:0:
352,288,98604,1,8,0:0:0:0:
96,320,98868,1,0,0:0:0:0:
384,256,99131,1,8,0:0:0:0:
96,288,99394,1,0,0:0:0:0:
320,288,99920,1,8,0:0:0:0:
352,288,100446,1,8,0:0:0:0:
160,320,100710,1,0,0:0:0:0:
320,288,100973,1,8,0:0:0:0:
160,320,101236,1,0,0:0:0:0:
352,288,101499,1,8,0:0:0:0:
139,319,102025,1,0,0:0:0:0:
352,320,102552,1,8,0:0:0:0:
192,288,103078,1,0,0:0:0:0:
361,314,103341,1,8,0:0:0:0:
224,320,103604,1,0,0:0:0:0:
128,288,104131,1,0,0:0:0:0:
384,288,104394,1,8,0:0:0:0:
