osu file format v14

[General]
AudioFilename: 1.mp3
AudioLeadIn: 1500
PreviewTime: 48850
Countdown: 0
SampleSet: Soft
StackLeniency: 0.7
Mode: 0
LetterboxInBreaks: 0
StoryFireInFront: 0
WidescreenStoryboard: 1

[Editor]
DistanceSpacing: 1.1
BeatDivisor: 4
GridSize: 4
TimelineZoom: 1

[Metadata]
Title:Tabi no Owari
TitleUnicode:旅の終わり
Artist:mamenoi
ArtistUnicode:mamenoi
Creator:S h i a
Version:Insane
Source:
Tags:
BeatmapID:245227
BeatmapSetID:90356

[Difficulty]
HPDrainRate:8
CircleSize:4
OverallDifficulty:8
ApproachRate:8
SliderMultiplier:1.6
SliderTickRate:2

[Events]
//Background and Video events
0,0,"ng.jpg",0,0
//Break Periods
2,77782,79404
2,100925,109832
//Storyboard Layer 0 (Background)
//Storyboard Layer 1 (Fail)
//Storyboard Layer 2 (Pass)
//Storyboard Layer 3 (Foreground)
//Storyboard Sound Samples

[TimingPoints]
440,428.571428571429,3,2,1,20,1,0
1725,-133.333333333333,3,2,1,20,0,0
2582,-100,3,2,1,20,0,0
4618,-100,3,2,2,20,0,0
5475,-100,3,2,1,20,0,0
13297,-133.333333333333,3,2,1,20,0,0
14154,-133.333333333333,3,2,1,20,0,0
14904,-100,3,2,2,20,0,0
15118,-100,3,2,1,20,0,0
17582,-133.333333333333,3,2,1,20,0,0
18440,-100,3,2,1,20,0,0
23582,-133.333333333333,3,2,1,20,0,0
24440,-100,3,2,1,20,0,0
25190,-100,3,2,2,20,0,0
25404,-100,3,2,1,20,0,0
28725,-133.333333333333,3,2,1,20,0,0
29582,-100,3,2,1,20,0,0
32582,-133.333333333333,3,2,1,20,0,0
33440,-100,3,2,1,20,0,0
39011,-100,3,2,1,15,0,0
48011,-100,3,2,1,30,0,0
48225,-100,3,2,1,40,0,0
48440,-100,3,2,1,50,0,0
48761,-100,3,2,1,60,0,0
49297,-100,3,2,1,80,0,0
69761,-100,3,1,1,60,0,0
69975,-100,3,2,1,80,0,0
77582,-100,3,1,1,60,0,0
80154,-100,3,2,1,70,0,0
100404,-100,3,2,1,40,0,0
100600,-100,3,1,1,70,0,0
110582,-100,3,2,1,30,0,0
111011,-100,3,2,1,40,0,0
115190,-100,3,2,2,40,0,0
115404,-100,3,2,1,40,0,0
121297,-100,3,2,1,40,0,0
125475,-100,3,2,2,40,0,0
125690,-100,3,2,1,40,0,0
140582,-100,3,2,1,50,0,0
141225,-100,3,2,1,60,0,0
141850,-100,3,2,1,80,0,0
190725,-100,3,1,1,80,0,0
193297,-100,3,2,1,80,0,0
203475,-100,3,1,1,80,0,0
203690,-100,3,2,2,60,0,0

[Colours]
Combo1 : 183,164,104
Combo2 : 200,255,200
Combo3 : 70,165,172
Combo4 : 224,179,156

[HitObjects]
96,296,440,5,0,0:0:0:0:
168,136,868,1,0,0:0:0:0:
316,228,1297,1,2,0:0:0:0:
220,248,1725,2,0,B|212:156|308:92|392:164,1,240.000009155274,0|2,0:0|0:0,0:0:0:0:
364,332,3011,5,0,0:0:0:0:
224,248,3440,2,0,P|240:176|336:132,2,160,0|2|0,0:0|0:0|0:0,0:0:0:0:
364,332,4725,1,4,0:0:0:0:
128,72,5582,5,0,0:0:0:0:
52,232,6011,1,0,0:0:0:0:
212,304,6440,1,2,0:0:0:0:
284,144,6868,2,0,P|212:128|120:160,2,160,0|2|0,0:0|0:0|0:0,0:0:0:0:
136,236,8154,6,0,P|68:204|52:112,1,160
224,148,9011,2,0,P|292:108|316:28,1,160,2|0,0:0|0:0,0:0:0:0:
296,208,9868,1,2,0:0:0:0:
468,236,10297,1,2,0:0:0:0:
396,76,10725,5,0,0:0:0:0:
396,76,11154,2,0,P|372:152|400:228,2,160,0|2|0,0:0|0:0|0:0,0:0:0:0:
512,152,12440,1,2,0:0:0:0:
356,236,12868,1,0,0:0:0:0:
332,160,13297,2,0,P|433:261|377:312,1,240.000009155274,0|2,0:0|0:0,0:0:0:0:
252,160,14582,2,0,P|280:104|336:80,1,120.000004577637,0|4,0:0|0:0,0:0:0:0:
332,80,16297,5,0,0:0:0:0:
284,252,16725,1,0,0:0:0:0:
456,212,17154,1,2,0:0:0:0:
300,172,17582,2,0,P|216:208|252:328,1,240.000009155274,0|2,0:0|0:0,0:0:0:0:
420,276,18868,1,0,0:0:0:0:
300,84,19297,1,0,0:0:0:0:
224,128,19511,1,0,0:0:0:0:
300,172,19725,1,2,0:0:0:0:
160,64,20154,2,0,P|136:136|188:208,2,160,0|0|2,0:0|0:0|0:0,0:0:0:0:
280,192,21440,6,0,P|252:276|176:304,1,160
116,144,22297,1,2,0:0:0:0:
284,100,22725,2,0,P|352:144|360:224,1,160
252,292,23582,2,0,B|272:156|404:116,1,240.000009155274,2|0,0:0|0:0,0:0:0:0:
252,292,24868,1,0,0:0:0:0:
396,120,25297,1,4,0:0:0:0:
396,120,26154,5,0,0:0:0:0:
240,204,26582,2,0,L|416:224,1,160,0|2,0:0|0:0,0:0:0:0:
268,104,27440,1,0,0:0:0:0:
128,268,27868,2,0,L|296:284,1,160,0|2,0:0|0:0,0:0:0:0:
56,220,28725,6,0,P|56:320|180:336,1,240.000009155274
216,264,29797,1,0,0:0:0:0:
168,192,30011,2,0,P|88:188|44:264,1,160,0|2,0:0|0:0,0:0:0:0:
396,260,31297,5,0,0:0:0:0:
296,116,31725,1,0,0:0:0:0:
228,280,32154,1,2,0:0:0:0:
376,192,32582,2,0,P|325:255|438:315,1,240.000009155274
456,232,33654,1,0,0:0:0:0:
376,192,33868,6,0,P|296:176|224:220,2,160,0|0|2,0:0|0:0|0:0,0:0:0:0:
220,304,35154,2,0,P|156:260|136:184,1,160
256,192,36225,1,0,0:0:0:0:
256,192,36440,12,0,38582,0:0:0:0:
176,236,39011,5,4,0:0:0:0:
248,288,39225,1,4,0:0:0:0:
252,200,39440,2,0,P|180:156|112:184,1,160,0|8,0:0|0:0,0:0:0:0:
188,340,40297,2,0,L|264:388,1,80
392,292,40725,2,0,L|312:240,1,80,0|4,0:0|0:0,0:0:0:0:
324,336,41154,1,8,0:0:0:0:
476,248,41582,5,4,0:0:0:0:
400,204,41797,2,0,B|348:204|316:248|316:248|256:196|180:228,1,240,4|8,0:0|0:0,0:0:0:0:
392,292,42868,2,0,P|460:268|488:216,2,120,4|4|4,0:0|0:0|0:0,0:0:0:0:
400,204,43725,2,0,L|464:148,1,80,8|0,0:0|0:0,0:0:0:0:
512,300,44154,6,0,L|448:356,1,80,4|4,0:0|0:0,0:0:0:0:
328,324,44582,2,0,P|268:264|264:176,1,160,0|8,0:0|0:0,0:0:0:0:
200,304,45225,2,0,L|120:348,1,80
140,152,45654,2,0,L|212:192,1,80,4|0,0:0|0:0,0:0:0:0:
40,288,46082,2,0,L|40:208,1,80,4|8,0:0|0:0,0:0:0:0:
124,244,46725,2,0,P|160:240|180:72,1,240,4|4,0:0|0:0,0:0:0:0:
140,152,47582,1,8,0:0:0:0:
276,288,48011,6,0,P|328:260|356:200,2,120,4|4|4,0:0|0:0|0:0,0:0:0:0:
272,200,48868,1,8,0:0:0:0:
320,124,49082,1,0,0:0:0:0:
348,320,49297,6,0,P|292:364|208:328,1,160,4|8,0:0|0:0,0:0:0:0:
344,240,49939,2,0,P|444:216|520:320,1,240,4|4,0:0|0:0,0:0:0:0:
452,376,50797,2,0,L|408:272,1,80,0|8,0:0|0:0,0:0:0:0:
456,84,51225,1,4,0:0:0:0:
444,172,51439,5,0,0:0:0:0:
376,116,51654,1,0,0:0:0:0:
488,256,51868,2,0,P|408:252|352:188,1,160,4|8,0:0|0:0,0:0:0:0:
388,32,52511,2,0,P|320:128|192:128,1,240,4|0,0:0|0:0,0:0:0:0:
96,8,53368,1,4,0:0:0:0:
188,44,53582,1,8,0:0:0:0:
76,168,53797,1,4,0:0:0:0:
140,108,54011,2,0,P|160:144|160:184,1,80,0|8,0:0|0:0,0:0:0:0:
96,348,54439,6,0,P|132:276|204:248,1,160,4|8,0:0|0:0,0:0:0:0:
356,296,55082,2,0,P|380:208|520:196,1,240,4|0,0:0|0:0,0:0:0:0:
348,144,55940,2,0,P|312:128|284:96,1,80,4|8,0:0|0:0,0:0:0:0:
408,8,56368,1,4,0:0:0:0:
256,100,56797,5,8,0:0:0:0:
368,216,57011,2,0,P|421:161|393:84,1,160,4|8,0:0|0:0,0:0:0:0:
272,192,57654,2,0,P|288:272|368:316,1,160,4|0,0:0|0:0,0:0:0:0:
336,128,58297,1,0,0:0:0:0:
256,100,58511,1,0,0:0:0:0:
192,160,58725,1,8,0:0:0:0:
348,256,58940,2,0,B|360:224|352:204|352:204|419:190|418:106,1,160,4|8,0:0|0:0,0:0:0:0:
256,100,59582,6,0,P|268:176|364:204,1,160,4|8,0:0|0:0,0:0:0:0:
340,40,60225,2,0,P|224:8|152:100,1,240,4|4,0:0|0:0,0:0:0:0:
168,176,61082,2,0,P|124:152|80:152,1,80,0|8,0:0|0:0,0:0:0:0:
84,328,61511,1,4,0:0:0:0:
104,236,61725,5,0,0:0:0:0:
20,264,61939,1,0,0:0:0:0:
176,300,62154,2,0,P|248:260|284:184,1,160,4|8,0:0|0:0,0:0:0:0:
240,36,62797,2,0,P|189:130|242:263,1,240,4|0,0:0|0:0,0:0:0:0:
388,220,63654,1,4,0:0:0:0:
332,144,63868,1,8,0:0:0:0:
312,304,64082,1,4,0:0:0:0:
408,296,64297,2,0,P|448:276|468:236,1,80,0|8,0:0|0:0,0:0:0:0:
332,144,64725,6,0,L|200:256,1,160,4|8,0:0|0:0,0:0:0:0:
408,296,65368,2,0,B|452:52,1,240,4|0,0:0|0:0,0:0:0:0:
272,148,66225,2,0,L|348:196,1,80,4|8,0:0|0:0,0:0:0:0:
320,28,66654,2,0,L|164:96,1,160,4|8,0:0|0:0,0:0:0:0:
64,216,67297,6,0,P|52:120|-4:88,1,160,4|8,0:0|0:0,0:0:0:0:
16,276,67939,1,4,0:0:0:0:
104,292,68154,2,0,P|142:222|144:140,1,160,0|8,0:0|0:0,0:0:0:0:
104,68,68797,1,0,0:0:0:0:
224,224,69011,1,4,0:0:0:0:
220,136,69225,2,0,P|196:56|148:-4,1,160,8|8,0:0|0:0,0:0:0:0:
52,140,69868,1,4,0:0:0:0:
256,192,69895,12,4,72440,0:0:0:0:
236,128,72868,6,0,L|340:152,1,80,8|4,0:0|0:0,0:0:0:0:
144,188,73511,2,0,L|244:208,1,80,0|2,0:0|0:0,0:0:0:0:
396,228,74154,1,2,0:0:0:0:
260,120,74582,1,2,0:0:0:0:
228,292,75011,1,4,0:0:0:0:
256,192,75038,12,4,77582,0:0:0:0:
132,140,80154,6,0,P|120:224|168:300,1,160,4|8,0:0|0:0,0:0:0:0:
328,324,80797,2,0,P|372:124|344:92,1,240,4|0,0:0|0:0,0:0:0:0:
192,80,81868,1,8,0:0:0:0:
284,228,82297,1,0,0:0:0:0:
340,160,82511,1,8,0:0:0:0:
140,160,82725,6,0,P|120:236|152:316,1,160,4|8,0:0|0:0,0:0:0:0:
264,196,83368,2,0,P|256:84|156:20,1,240,4|0,0:0|0:0,0:0:0:0:
328,52,84439,2,0,L|424:24,1,80,0|4,0:0|0:0,0:0:0:0:
396,116,84868,2,0,L|312:144,1,80,0|8,0:0|0:0,0:0:0:0:
480,88,85297,2,0,P|472:160|400:204,1,160,4|8,0:0|0:0,0:0:0:0:
244,180,85940,6,0,P|356:184|404:300,1,240,4|0,0:0|0:0,0:0:0:0:
236,344,87011,1,8,0:0:0:0:
244,180,87440,2,0,P|232:140|200:116,1,80,0|8,0:0|0:0,0:0:0:0:
100,244,87868,6,0,P|68:340|16:356,1,160,4|8,0:0|0:0,0:0:0:0:
176,272,88511,2,0,P|188:144|84:80,1,240,4|0,0:0|0:0,0:0:0:0:
100,244,89368,2,0,P|96:288|128:336,1,80,4|8,0:0|0:0,0:0:0:0:
260,260,89797,1,4,0:0:0:0:
176,272,90011,2,0,L|176:292,7,20,8|0|0|0|2|2|2|0,0:0|0:0|0:0|0:0|0:0|0:0|0:0|0:0,0:0:0:0:
176,272,90440,6,0,P|204:200|300:188,1,160,4|8,0:0|0:0,0:0:0:0:
392,296,91082,2,0,P|436:268|412:80,1,240,4|0,0:0|0:0,0:0:0:0:
260,100,92154,1,8,0:0:0:0:
276,276,92582,2,0,P|312:304|360:304,1,80,0|8,0:0|0:0,0:0:0:0:
232,192,93011,2,0,L|64:192,1,160,4|8,0:0|0:0,0:0:0:0:
248,276,93654,6,0,P|264:112|228:104,1,240,4|0,0:0|0:0,0:0:0:0:
172,268,94725,2,0,L|204:367,1,80,0|4,0:0|0:0,0:0:0:0:
248,276,95154,2,0,L|220:184,1,80,0|8,0:0|0:0,0:0:0:0:
56,160,95582,6,0,L|108:328,1,160,4|8,0:0|0:0,0:0:0:0:
168,164,96225,2,0,P|136:80|-8:64,1,240,4|0,0:0|0:0,0:0:0:0:
20,236,97297,1,8,0:0:0:0:
168,164,97725,2,0,L|240:124,1,80,0|8,0:0|0:0,0:0:0:0:
72,144,98154,2,0,P|88:220|160:264,1,160,4|8,0:0|0:0,0:0:0:0:
304,192,98797,2,0,P|284:76|160:32,1,240,4|8,0:0|0:0,0:0:0:0:
380,104,99868,2,0,P|412:76|428:32,1,80,4|8,0:0|0:0,0:0:0:0:
192,152,100511,1,4,0:0:0:0:
320,256,100725,5,4,0:0:0:0:
136,128,110582,6,0,L|160:128,7,20,0|0|0|0|2|2|2|2,0:0|0:0|0:0|0:0|0:0|0:0|0:0|0:0,0:0:0:0:
136,128,111011,6,0,P|100:160|84:204,1,80,4|4,0:0|0:0,0:0:0:0:
172,208,111440,2,0,P|224:136|204:68,1,160,0|8,0:0|0:0,0:0:0:0:
284,232,112297,2,0,P|316:256|360:260,1,80
348,172,112725,2,0,P|316:148|264:144,1,80,0|4,0:0|0:0,0:0:0:0:
208,196,113154,1,8,0:0:0:0:
392,248,113582,6,0,P|424:216|436:164,1,80,4|4,0:0|0:0,0:0:0:0:
396,104,114011,1,0,0:0:0:0:
220,96,114439,1,8,0:0:0:0:
240,272,114868,2,0,P|352:232|368:180,1,160,0|4,0:0|0:0,0:0:0:0:
392,40,115511,2,0,P|396:84|436:116,1,80,4|8,0:0|0:0,0:0:0:0:
392,40,116154,6,0,P|376:88|348:104,1,80,4|4,0:0|0:0,0:0:0:0:
272,64,116582,2,0,P|272:144|336:192,1,160,0|8,0:0|0:0,0:0:0:0:
496,132,117440,2,0,P|444:188|464:276,1,160
364,128,118082,2,0,L|276:96,1,80,4|8,0:0|0:0,0:0:0:0:
280,276,118725,6,4,L|312:200,1,80
224,224,119154,2,0,P|204:296|264:352,1,160,0|8,0:0|0:0,0:0:0:0:
396,240,120011,2,0,P|364:188|272:160,1,160
128,236,120654,1,4,0:0:0:0:
156,308,120868,2,0,L|168:336,7,20,0|0|0|0|2|2|2|2,0:0|0:0|0:0|0:0|0:0|0:0|0:0|0:0,0:0:0:0:
156,308,121297,6,0,P|108:272|0:272,2,160,4|0|8,0:0|0:0|0:0,0:0:0:0:
64,156,122582,2,0,L|88:80,1,80,0|4,0:0|0:0,0:0:0:0:
164,124,123011,2,0,L|140:200,1,80,0|4,0:0|0:0,0:0:0:0:
64,244,123439,1,8,0:0:0:0:
232,192,123868,6,4,L|204:280,1,80
140,200,124297,2,0,P|180:120|264:104,1,160,0|8,0:0|0:0,0:0:0:0:
376,236,125154,2,0,P|304:240|228:188,1,160,0|4,0:0|0:0,0:0:0:0:
392,160,125797,2,0,P|432:184|452:220,1,80,4|8,0:0|0:0,0:0:0:0:
264,128,126440,6,0,P|224:124|184:140,1,80,4|4,0:0|0:0,0:0:0:0:
240,208,126868,2,0,P|297:205|349:125,1,160,0|8,0:0|0:0,0:0:0:0:
180,120,127725,2,0,P|208:196|296:204,1,160
224,56,128368,2,0,P|181:43|136:56,1,80,4|8,0:0|0:0,0:0:0:0:
316,100,129011,6,0,P|360:108|400:96,1,80,4|4,0:0|0:0,0:0:0:0:
456,36,129440,2,0,P|400:88|388:176,1,160,0|8,0:0|0:0,0:0:0:0:
472,320,130297,1,0,0:0:0:0:
320,236,130725,1,0,0:0:0:0:
304,228,130832,1,0,0:0:0:0:
284,224,130940,1,4,0:0:0:0:
264,224,131047,1,0,0:0:0:0:
244,228,131154,6,0,L|224:244,7,20,8|0|0|0|2|2|2|2,0:0|0:0|0:0|0:0|0:0|0:0|0:0|0:0,0:0:0:0:
248,228,131582,2,0,P|252:192|232:148,1,80,4|4,0:0|0:0,0:0:0:0:
300,92,132011,2,0,P|336:164|336:252,1,160,0|8,0:0|0:0,0:0:0:0:
172,316,132868,2,0,P|96:204|152:124,1,240,0|4,0:0|0:0,0:0:0:0:
196,216,133725,2,0,P|252:184|268:92,1,160,8|4,0:0|0:0,0:0:0:0:
276,256,134368,2,0,P|276:168|140:136,1,240,4|8,0:0|0:0,0:0:0:0:
196,216,135225,1,0,0:0:0:0:
148,132,135440,6,0,P|100:196|128:280,1,160,0|0,0:0|0:0,0:0:0:0:
288,216,136082,2,0,P|280:168|259:141,1,80,4|8,0:0|0:0,0:0:0:0:
212,312,136725,2,0,P|232:352|264:376,1,80,4|4,0:0|0:0,0:0:0:0:
140,264,137154,2,0,P|104:256|64:268,1,80
219,225,137582,1,8,0:0:0:0:
240,124,138011,6,0,P|154:144|318:253,1,480,0|4,0:0|0:0,0:0:0:0:
384,168,140582,6,0,P|348:216|280:220,1,120,4|4,0:0|0:0,0:0:0:0:
180,152,141225,2,0,P|112:164|96:192,1,80,4|8,0:0|0:0,0:0:0:0:
164,236,141654,1,2,0:0:0:0:
196,72,141868,6,0,P|116:76|44:120,1,160,4|8,0:0|0:0,0:0:0:0:
164,236,142511,2,0,P|124:128|16:168,1,240,4|4,0:0|0:0,0:0:0:0:
88,208,143368,2,0,P|48:192|-4:208,1,80,2|8,0:0|0:0,0:0:0:0:
40,280,143797,1,4,0:0:0:0:
128,288,144011,5,0,0:0:0:0:
176,216,144225,1,2,0:0:0:0:
80,356,144440,2,0,P|176:356|212:288,1,160,4|8,0:0|0:0,0:0:0:0:
360,248,145082,2,0,P|296:244|188:108,1,240,4|0,0:0|0:0,0:0:0:0:
348,84,145940,1,4,0:0:0:0:
296,156,146154,1,8,0:0:0:0:
184,32,146368,1,4,0:0:0:0:
256,80,146582,2,0,P|228:108|176:116,1,80,0|2,0:0|0:0,0:0:0:0:
348,84,147011,6,0,P|420:112|500:64,1,160,4|8,0:0|0:0,0:0:0:0:
384,180,147654,2,0,P|284:240|168:204,1,240,4|0,0:0|0:0,0:0:0:0:
292,316,148511,2,0,P|282:357|253:382,1,80,4|8,0:0|0:0,0:0:0:0:
124,284,148940,2,0,P|80:216|112:132,1,160,4|8,0:0|0:0,0:0:0:0:
308,172,149582,6,0,P|244:220|151:185,1,160,4|8,0:0|0:0,0:0:0:0:
288,88,150225,2,0,P|368:112|392:188,1,160,4|2,0:0|0:0,0:0:0:0:
340,248,150868,1,0,0:0:0:0:
252,232,151082,1,2,0:0:0:0:
228,148,151297,1,8,0:0:0:0:
393,179,151511,2,0,P|427:246|365:323,1,160,4|8,0:0|0:0,0:0:0:0:
312,164,152154,6,0,P|256:228|276:304,1,160,4|8,0:0|0:0,0:0:0:0:
224,132,152797,2,0,P|180:208|184:292,1,160,4|0,0:0|0:0,0:0:0:0:
212,352,153440,1,4,0:0:0:0:
152,284,153654,2,0,P|116:264|72:264,1,80,2|8,0:0|0:0,0:0:0:0:
212,352,154082,1,4,0:0:0:0:
232,264,154297,1,0,0:0:0:0:
172,200,154511,1,2,0:0:0:0:
12,220,154725,6,0,P|16:308|88:344,1,160,4|8,0:0|0:0,0:0:0:0:
132,192,155368,2,0,P|40:192|44:336,1,240,4|0,0:0|0:0,0:0:0:0:
176,264,156225,1,4,0:0:0:0:
88,260,156440,1,0,0:0:0:0:
224,344,156654,1,4,0:0:0:0:
264,264,156868,2,0,P|252:216|224:188,1,80,0|2,0:0|0:0,0:0:0:0:
76,152,157297,6,0,P|156:148|200:72,1,160,4|8,0:0|0:0,0:0:0:0:
40,36,157940,2,0,P|48:132|188:112,1,240,4|0,0:0|0:0,0:0:0:0:
16,200,158797,2,0,P|8:248|24:292,1,80,4|8,0:0|0:0,0:0:0:0:
172,224,159225,2,0,P|176:136|128:72,1,160,4|2,0:0|0:0,0:0:0:0:
260,192,159868,6,0,P|340:212|412:184,1,160,4|8,0:0|0:0,0:0:0:0:
252,108,160511,2,0,P|200:132|184:164,1,80,4|0,0:0|0:0,0:0:0:0:
260,192,160940,1,2,0:0:0:0:
332,148,161154,2,0,P|340:80|308:32,1,120,4|4,0:0|0:0,0:0:0:0:
184,48,161797,2,0,L|156:60,3,26.6666666666667,4|4|4|8,0:0|0:0|0:0|0:0,0:0:0:0:
252,108,162225,1,2,0:0:0:0:
100,164,162440,6,0,P|44:108|28:16,1,160,4|8,0:0|0:0,0:0:0:0:
172,120,163082,2,0,P|116:248|20:200,1,240,4|0,0:0|0:0,0:0:0:0:
24,136,163940,2,0,L|80:64,1,80,2|8,0:0|0:0,0:0:0:0:
44,232,164368,1,4,0:0:0:0:
100,164,164582,5,0,0:0:0:0:
132,248,164797,1,2,0:0:0:0:
24,136,165011,2,0,L|136:0,1,160,4|8,0:0|0:0,0:0:0:0:
228,136,165654,2,0,L|64:336,1,240,4|0,0:0|0:0,0:0:0:0:
100,164,166511,1,4,0:0:0:0:
156,96,166725,1,8,0:0:0:0:
240,248,166940,1,4,0:0:0:0:
188,320,167154,2,0,L|132:392,1,80,0|2,0:0|0:0,0:0:0:0:
240,248,167582,6,0,P|320:220|404:244,1,160,4|8,0:0|0:0,0:0:0:0:
480,368,168225,2,0,P|408:240|456:148,1,240,4|0,0:0|0:0,0:0:0:0:
320,280,169082,2,0,P|296:316|260:332,1,80,4|8,0:0|0:0,0:0:0:0:
316,172,169511,1,4,0:0:0:0:
316,172,169940,1,8,0:0:0:0:
176,84,170154,6,0,P|100:64|20:88,1,160,4|8,0:0|0:0,0:0:0:0:
100,232,170797,2,0,P|176:256|264:224,1,160,4|0,0:0|0:0,0:0:0:0:
316,172,171440,1,2,0:0:0:0:
232,144,171654,1,2,0:0:0:0:
252,236,171868,1,8,0:0:0:0:
296,84,172082,2,0,P|228:56|152:104,1,160,4|2,0:0|0:0,0:0:0:0:
316,172,172725,6,0,P|256:228|176:212,1,160,4|8,0:0|0:0,0:0:0:0:
216,52,173368,2,0,P|320:104|264:224,1,240,4|4,0:0|0:0,0:0:0:0:
208,212,174225,2,0,P|220:164|244:136,1,80,2|8,0:0|0:0,0:0:0:0:
376,248,174654,1,4,0:0:0:0:
304,296,174868,5,0,0:0:0:0:
296,208,175082,1,2,0:0:0:0:
440,136,175297,2,0,P|496:192|492:288,1,160,4|8,0:0|0:0,0:0:0:0:
368,160,175940,2,0,P|260:128|216:248,1,240,4|0,0:0|0:0,0:0:0:0:
344,320,176797,1,4,0:0:0:0:
308,240,177011,1,0,0:0:0:0:
152,312,177225,1,4,0:0:0:0:
220,256,177440,2,0,P|188:228|140:224,1,80,0|2,0:0|0:0,0:0:0:0:
28,240,177868,6,0,P|56:152|136:104,1,160,4|8,0:0|0:0,0:0:0:0:
264,168,178511,2,0,P|364:104|448:172,1,240,4|0,0:0|0:0,0:0:0:0:
356,304,179368,2,0,L|300:224,1,80,4|8,0:0|0:0,0:0:0:0:
220,100,179797,2,0,P|308:104|344:176,1,160,4|0,0:0|0:0,0:0:0:0:
260,304,180440,6,0,L|168:160,1,160,4|8,0:0|0:0,0:0:0:0:
80,20,181082,1,4,0:0:0:0:
52,104,181297,2,0,L|100:180,1,80,0|2,0:0|0:0,0:0:0:0:
252,176,181725,2,0,P|212:108|136:112,1,160,4|8,0:0|0:0,0:0:0:0:
92,184,182368,2,0,L|88:236,2,40,2|2|2,0:0|0:0|0:0,0:0:0:0:
176,184,182797,1,8,0:0:0:0:
120,336,183011,5,4,0:0:0:0:
256,192,183038,12,4,185582,0:0:0:0:
312,188,186011,6,0,P|296:224|252:248,1,80,8|4,0:0|0:0,0:0:0:0:
216,96,186654,6,0,P|260:96|296:128,1,80,0|4,0:0|0:0,0:0:0:0:
199,246,187297,2,0,P|154:164|187:105,1,160,4|4,0:0|0:0,0:0:0:0:
236,172,188154,1,4,0:0:0:0:
256,192,188181,12,4,190725,0:0:0:0:
88,108,193297,6,0,P|124:140|160:152,1,80,4|2,0:0|0:0,0:0:0:0:
240,136,193725,2,0,P|218:173|215:221,1,80,10|4,0:0|0:0,0:0:0:0:
300,200,194154,1,0,0:0:0:0:
332,120,194368,1,2,0:0:0:0:
268,284,194582,6,0,P|308:288|360:264,1,80,0|4,0:0|0:0,0:0:0:0:
388,200,195011,1,8,0:0:0:0:
208,216,195225,1,4,0:0:0:0:
208,216,195332,1,0,0:0:0:0:
208,216,195440,1,0,0:0:0:0:
332,120,195654,1,8,0:0:0:0:
354,284,195868,6,0,P|395:288|440:269,1,80,4|2,0:0|0:0,0:0:0:0:
278,263,196297,2,0,P|244:281|220:315,1,80,10|4,0:0|0:0,0:0:0:0:
333,203,196725,1,0,0:0:0:0:
261,150,196940,1,2,0:0:0:0:
412,221,197154,6,0,P|410:173|389:140,1,80,4|0,0:0|0:0,0:0:0:0:
278,264,197582,2,0,P|326:286|366:277,1,80,4|0,0:0|0:0,0:0:0:0:
306,125,198011,2,0,P|262:155|250:194,1,80,4|0,0:0|0:0,0:0:0:0:
186,237,198440,6,0,P|166:193|174:150,1,80,4|2,0:0|0:0,0:0:0:0:
203,79,198868,2,0,P|163:93|121:84,1,80,10|4,0:0|0:0,0:0:0:0:
69,19,199297,1,0,0:0:0:0:
160,10,199511,1,2,0:0:0:0:
77,152,199725,6,0,P|72:192|89:235,1,80,0|4,0:0|0:0,0:0:0:0:
165,265,200154,1,8,0:0:0:0:
231,131,200368,1,4,0:0:0:0:
231,131,200475,1,0,0:0:0:0:
231,131,200582,1,0,0:0:0:0:
158,180,200797,1,8,0:0:0:0:
300,83,201011,6,0,P|264:52|221:47,1,80,4|2,0:0|0:0,0:0:0:0:
306,167,201440,2,0,P|350:151|376:116,1,80,10|4,0:0|0:0,0:0:0:0:
231,131,201868,2,0,P|222:177|239:217,1,80,0|2,0:0|0:0,0:0:0:0:
305,257,202297,1,2,0:0:0:0:
152,135,202511,2,0,P|110:121|56:136,1,80,4|8,0:0|0:0,0:0:0:0:
103,252,202940,1,4,0:0:0:0:
103,252,203047,1,0,0:0:0:0:
103,252,203154,1,0,0:0:0:0:
231,131,203368,1,4,0:0:0:0:
256,300,203582,5,4,0:0:0:0:
256,192,203609,12,0,207440,0:0:0:0:
