osu file format v12

[General]
AudioFilename: Right Now.mp3
AudioLeadIn: 0
PreviewTime: 43336
Countdown: 0
SampleSet: Soft
StackLeniency: 0.7
Mode: 0
LetterboxInBreaks: 0
WidescreenStoryboard: 0

[Editor]
DistanceSpacing: 1
BeatDivisor: 4
GridSize: 4

[Metadata]
Title:Right Now
TitleUnicode:Right Now
Artist:makou
ArtistUnicode:makou
Creator:iyasine
Version:Standard
Source:DJMAX Portable 2
Tags:Audio Trinity
BeatmapID:328537
BeatmapSetID:124390

[Difficulty]
HPDrainRate:3
CircleSize:3
OverallDifficulty:4
ApproachRate:5
SliderMultiplier:1.2
SliderTickRate:1

[Events]
//Background and Video events
0,0,"bg.jpg",0,0
//Break Periods
2,76036,79969
//Storyboard Layer 0 (Background)
//Storyboard Layer 1 (Fail)
//Storyboard Layer 2 (Pass)
//Storyboard Layer 3 (Foreground)
//Storyboard Sound Samples
//Background Colour Transformations
3,100,163,162,255

[TimingPoints]
1170,333.333333333333,4,2,1,40,1,0
1170,-133.333333333333,4,2,1,40,0,0
3503,-133.333333333333,4,2,1,30,0,0
11836,-133.333333333333,4,2,3,30,0,0
12503,-133.333333333333,4,2,2,35,0,0
13003,-133.333333333333,4,2,2,40,0,0
13669,-133.333333333333,4,2,1,50,0,0
14003,-133.333333333333,4,2,2,40,0,0
15503,-133.333333333333,4,2,1,50,0,0
18836,-133.333333333333,4,2,1,40,0,0
19169,-133.333333333333,4,2,1,30,0,0
20503,-133.333333333333,4,2,1,40,0,0
21169,-133.333333333333,4,2,1,50,0,0
22503,-100,4,2,3,60,0,0
23169,-100,4,2,3,40,0,0
23503,-100,4,2,2,40,0,0
23836,-100,4,2,3,50,0,0
24169,-100,4,2,1,50,0,0
24503,-100,4,2,3,40,0,0
24836,-100,4,2,1,50,0,0
25169,-100,4,2,3,50,0,0
25503,-100,4,2,2,40,0,0
26169,-100,4,2,1,50,0,0
26336,-100,4,2,3,60,0,0
28169,-100,4,2,1,50,0,0
29169,-100,4,2,3,60,0,0
29836,-100,4,2,1,40,0,0
30169,-100,4,2,1,50,0,0
30503,-100,4,2,3,60,0,0
30836,-100,4,2,2,40,0,0
31169,-100,4,2,3,60,0,0
32503,-100,4,2,2,50,0,0
33336,-100,4,2,3,50,0,0
33669,-100,4,2,2,40,0,0
34336,-100,4,2,3,60,0,0
35336,-100,4,2,2,50,0,0
35836,-100,4,2,3,60,0,0
36169,-100,4,2,2,40,0,0
36836,-100,4,2,3,60,0,0
37836,-100,4,2,2,40,0,0
38503,-100,4,2,3,60,0,0
39503,-100,4,2,2,50,0,0
39836,-100,4,2,3,60,0,0
40503,-100,4,2,1,50,0,0
41169,-100,4,2,3,60,0,0
41836,-100,4,2,1,40,0,0
43836,-100,4,2,3,60,0,1
44003,-100,4,2,1,60,0,0
45836,-100,4,2,3,40,0,0
46003,-100,4,2,1,60,0,0
46503,-100,4,2,3,60,0,0
50169,-100,4,2,1,50,0,0
50503,-100,4,2,1,60,0,0
51169,-100,4,2,1,40,0,0
51503,-100,4,2,1,60,0,0
51836,-100,4,2,3,60,0,0
53169,-100,4,2,3,50,0,0
54503,-100,4,2,3,60,0,1
55169,-100,4,2,3,50,0,1
55503,-100,4,2,1,60,0,1
55836,-100,4,2,3,70,0,1
56003,-100,4,2,1,60,0,1
57003,-100,4,2,3,50,0,1
57169,-100,4,2,3,70,0,1
57503,-100,4,2,2,50,0,1
58169,-100,4,2,1,60,0,1
58836,-100,4,2,3,60,0,1
59169,-100,4,2,2,40,0,1
59503,-100,4,2,1,50,0,1
59836,-100,4,2,3,70,0,1
61836,-100,4,2,1,50,0,1
62169,-100,4,2,3,70,0,1
62836,-100,4,2,2,50,0,1
63003,-100,4,2,3,70,0,1
64503,-100,4,2,1,50,0,1
64836,-100,4,2,2,40,0,1
65170,-100,4,2,3,60,0,0
65503,-100,4,2,1,60,0,0
65836,-100,4,2,2,40,0,0
66169,-100,4,2,1,60,0,0
66503,-100,4,2,3,60,0,0
67169,-100,4,2,3,40,0,0
67503,-100,4,2,1,60,0,0
67836,-100,4,2,3,60,0,0
68169,-100,4,2,1,60,0,0
68503,-100,4,2,1,40,0,0
68836,-100,4,2,3,60,0,0
69836,-100,4,2,3,40,0,0
70169,-100,4,2,1,60,0,0
70503,-100,4,2,3,60,0,0
71169,-100,4,2,3,40,0,0
71836,-100,4,2,1,60,0,0
72169,-100,4,2,3,60,0,0
72503,-100,4,2,1,40,0,0
72836,-100,4,2,1,60,0,0
73169,-100,4,2,3,60,0,0
73503,-100,4,2,1,50,0,0
73836,-100,4,2,3,50,0,0
74503,-100,4,2,1,40,0,0
74836,-100,4,2,3,60,0,0
75169,-100,4,2,3,50,0,0
75503,-100,4,2,3,70,0,0
81169,-133.333333333333,4,2,3,50,0,0
83169,-133.333333333333,4,2,1,40,0,0
83836,-133.333333333333,4,2,3,55,0,0
84836,-133.333333333333,4,2,1,45,0,0
85503,-133.333333333333,4,2,3,55,0,0
86169,-133.333333333333,4,2,1,55,0,0
86503,-100,4,2,3,60,0,0
87169,-100,4,2,1,45,0,0
87503,-100,4,2,2,50,0,0
87836,-100,4,2,3,60,0,0
88503,-100,4,2,3,40,0,0
88836,-100,4,2,1,60,0,0
89169,-100,4,2,3,70,0,0
90169,-100,4,2,3,60,0,0
90836,-100,4,2,2,50,0,0
91503,-100,4,2,3,60,0,0
92503,-100,4,2,2,50,0,0
93169,-100,4,2,3,60,0,0
93836,-100,4,2,2,50,0,0
97169,-100,4,2,3,70,0,1
97336,-100,4,2,1,60,0,0
97836,-100,4,2,2,50,0,0
98169,-100,4,2,1,60,0,0
99169,-100,4,2,3,40,0,0
99503,-100,4,2,1,60,0,0
99836,-100,4,2,3,60,0,0
100169,-100,4,2,1,60,0,0
101503,-100,4,2,3,60,0,0
101836,-100,4,2,1,60,0,0
102503,-100,4,2,3,60,0,0
103169,-100,4,2,2,40,0,0
103836,-100,4,2,3,60,0,0
104169,-100,4,2,1,60,0,0
104503,-100,4,2,1,40,0,0
104836,-100,4,2,1,60,0,0
105169,-100,4,2,3,60,0,0
105669,-100,4,2,1,50,0,0
106003,-100,4,2,3,60,0,0
107669,-100,4,2,3,60,0,1
108503,-100,4,2,3,50,0,1
108836,-100,4,2,2,50,0,1
109169,-100,4,2,3,70,0,1
109336,-100,4,2,1,60,0,1
109669,-100,4,2,3,70,0,1
110836,-100,4,2,1,50,0,1
111169,-100,4,2,3,70,0,1
111503,-100,4,2,1,50,0,1
111836,-100,4,2,1,60,0,1
112169,-100,4,2,3,70,0,1
112503,-100,4,2,1,50,0,1
113169,-100,4,2,3,70,0,1
113503,-100,4,2,2,50,0,1
114503,-100,4,2,3,70,0,1
114836,-100,4,2,2,50,0,1
115503,-100,4,2,3,70,0,1
116169,-100,4,2,1,50,0,1
116336,-100,4,2,3,70,0,1
116669,-100,4,2,1,50,0,1
117169,-100,4,2,3,70,0,1
118169,-100,4,2,1,50,0,1
118336,-100,4,2,2,50,0,0
118503,-100,4,2,3,60,0,1
118669,-100,4,2,1,60,0,0
119169,-100,4,2,1,50,0,0
119836,-100,4,2,3,60,0,0
120503,-100,4,2,3,40,0,0
120836,-100,4,2,1,60,0,0
121169,-100,4,2,3,60,0,0
121503,-100,4,2,2,50,0,0
122169,-100,4,2,3,60,0,0
123169,-100,4,2,1,50,0,0
123503,-100,4,2,3,60,0,0
124836,-100,4,2,2,40,0,0
125169,-100,4,2,3,60,0,0
125836,-100,4,2,1,50,0,0
126169,-100,4,2,3,60,0,0
126503,-100,4,2,1,50,0,0
127003,-100,4,2,3,60,0,0
127503,-100,4,2,3,50,0,0

[Colours]
Combo1 : 121,188,255
Combo2 : 255,174,136
Combo3 : 255,162,208
Combo4 : 172,255,172

[HitObjects]
256,344,1170,2,0,P|297:325|342:318,1,90.0000034332277,2|0,0:0|0:0,0:0:0:0:
448,321,1836,2,0,P|437:277|432:230,1,90.0000034332277,2|0,0:0|0:0,0:0:0:0:
417,125,2503,2,0,P|430:79|433:38,2,90.0000034332277,0|2|2,0:0|0:0|0:0,0:0:0:0:
110,230,4169,6,0,P|103:252|92:273,2,45.0000017166138,2|0|2,0:0|0:0|0:0,0:0:0:0:
139,126,4836,1,2,0:0:0:0:
244,104,5169,2,0,P|312:92|380:72,1,135.000005149841,2|2,0:0|0:0,0:0:0:0:
324,340,6503,6,0,P|282:324|238:316,1,90.0000034332277,2|0,0:0|0:0,0:0:0:0:
139,273,7169,2,0,P|97:289|50:294,1,90.0000034332277,2|2,0:0|0:0,0:0:0:0:
25,189,7836,2,0,L|9:95,2,90.0000034332277,0|2|2,0:0|0:0|0:0,0:0:0:0:
287,379,9503,5,2,0:0:0:0:
306,272,9836,2,0,P|349:287|397:293,1,90.0000034332277,2|0,0:0|0:0,0:0:0:0:
366,188,10503,2,0,P|358:143|362:92,1,90.0000034332277,2|0,0:0|0:0,0:0:0:0:
373,46,11003,2,0,P|417:57|462:65,2,90.0000034332277,0|2|0,0:0|0:0|0:0,0:0:0:0:
320,32,11836,1,4,0:0:0:0:
106,66,12503,6,0,P|119:108|125:155,1,90.0000034332277,2|0,0:0|0:0,0:0:0:0:
124,207,13003,2,0,P|114:249|117:298,2,90.0000034332277,2|0|2,0:0|0:0|0:0,0:0:0:0:
218,153,14003,2,0,L|310:146,1,90.0000034332277,2|0,0:0|0:0,0:0:0:0:
460,199,14836,1,2,0:0:0:0:
430,302,15169,2,0,L|342:283,1,90.0000034332277,0|2,0:0|0:0,0:0:0:0:
289,269,15669,1,2,0:0:0:0:
197,327,16003,2,0,P|132:352|68:344,1,135.000005149841,2|0,0:0|0:0,0:0:0:0:
16,136,17169,6,0,P|92:104|188:112,1,180.000006866455,2|2,0:0|0:0,0:0:0:0:
284,156,18169,1,0,0:0:0:0:
376,216,18503,2,0,P|400:252|408:300,2,90.0000034332277,2|2|2,0:0|0:0|0:0,0:0:0:0:
284,156,19503,1,2,0:0:0:0:
256,192,19836,12,6,22503,0:0:0:0:
174,213,23169,6,0,L|295:196,1,120,0|2,1:0|0:0,0:0:0:0:
396,136,23836,2,0,P|449:110|478:56,2,120,2|2|8,0:0|0:0|0:0,0:0:0:0:
281,98,24836,1,2,0:0:0:0:
167,57,25169,2,0,P|108:44|53:64,2,120,2|2|0,0:0|0:0|1:0,0:0:0:0:
280,98,26169,1,2,0:0:0:0:
280,98,26336,2,0,P|261:153|273:217,2,120,2|0|0,0:0|0:0|0:0,0:0:0:0:
381,162,27336,2,0,P|391:220|372:276,1,120,2|2,0:0|0:0,0:0:0:0:
318,303,27836,6,0,L|198:290,1,120,0|2,0:0|0:0,0:0:0:0:
95,228,28503,2,0,P|43:200|21:145,1,120,0|0,1:0|0:0,0:0:0:0:
111,66,29169,2,0,P|163:94|185:149,1,120,2|2,0:0|0:0,0:0:0:0:
95,228,29836,1,0,1:0:0:0:
181,310,30169,1,2,0:0:0:0:
258,217,30503,6,0,L|324:212,1,60,0|2,0:0|0:0,0:0:0:0:
377,209,30836,2,0,P|421:254|478:265,2,120,2|2|2,0:0|0:0|0:0,0:0:0:0:
309,109,31836,1,0,0:0:0:0:
258,217,32169,1,2,0:0:0:0:
182,123,32503,2,0,L|93:135,2,90,0|0|2,1:0|1:0|0:0,0:0:0:0:
258,217,33336,6,0,L|376:240,1,120,6|2,0:0|0:0,0:0:0:0:
435,249,33836,2,0,P|488:223|499:168,1,120,0|2,1:0|0:0,0:0:0:0:
476,111,34336,2,0,L|358:88,1,120,2|0,0:0|0:0,0:0:0:0:
240,111,35003,2,0,P|187:139|125:141,2,120,0|2|0,0:0|0:0|0:0,0:0:0:0:
272,60,35836,6,0,L|151:34,1,120,2|2,0:0|0:0,0:0:0:0:
35,15,36503,2,0,L|44:139,1,120,0|2,1:0|0:0,0:0:0:0:
55,254,37169,2,0,P|105:219|170:210,1,120,0|2,0:0|0:0,0:0:0:0:
263,273,37836,2,0,P|313:308|371:321,1,120,2|0,0:0|1:0,0:0:0:0:
480,273,38503,6,0,L|485:147,1,120,2|0,0:0|0:0,0:0:0:0:
376,101,39169,2,0,L|371:220,1,120,2|2,0:0|0:0,0:0:0:0:
263,273,39836,2,0,P|214:240|153:231,2,120,2|2|0,0:0|0:0|1:0,0:0:0:0:
348,357,40836,1,2,0:0:0:0:
415,257,41169,5,2,0:0:0:0:
328,173,41503,1,0,0:0:0:0:
263,273,41836,2,0,P|214:240|153:231,1,120,0|0,1:0|0:0,0:0:0:0:
256,192,42503,12,6,43836,0:0:0:0:
139,319,44503,6,0,P|82:345|25:354,2,120,2|2|2,0:0|0:0|0:0,0:0:0:0:
237,250,45503,1,2,0:0:0:0:
333,178,45836,2,0,B|356:149|356:149|340:65,1,120,8|0,0:0|0:0,0:0:0:0:
230,117,46503,6,0,P|174:144|118:158,2,120,2|0|0,0:0|0:0|0:0,0:0:0:0:
333,178,47503,2,0,L|345:304,2,120,0|0|2,0:0|0:0|0:0,0:0:0:0:
129,51,48836,2,0,P|125:79|126:112,1,60
123,170,49169,6,0,P|67:144|11:125,2,120,2|0|0,0:0|0:0|0:0,0:0:0:0:
226,231,50169,1,2,0:0:0:0:
118,285,50503,1,2,0:0:0:0:
214,355,50836,2,0,P|268:335|329:322,1,120,2|0,0:0|1:0,0:0:0:0:
448,308,51503,1,2,0:0:0:0:
364,221,51836,6,0,P|376:164|376:96,1,120,2|0,0:0|0:0,0:0:0:0:
366,43,52336,2,0,P|307:34|246:18,1,120,2|2,0:0|0:0,0:0:0:0:
195,46,52836,2,0,P|135:48|72:68,1,120,2|0,0:0|1:0,0:0:0:0:
4,160,53503,2,0,L|19:280,1,120,6|0,0:0|1:0,0:0:0:0:
29,338,54003,2,0,P|82:312|146:307,1,120,6|0,0:0|0:0,0:0:0:0:
200,321,54503,6,0,P|254:344|315:346,1,120,6|0,0:0|0:0,0:0:0:0:
428,307,55169,1,0,1:0:0:0:
336,229,55503,1,2,0:0:0:0:
445,180,55836,1,2,0:0:0:0:
445,180,56003,2,0,P|462:113|454:64,1,120,2|2,0:0|0:0,0:0:0:0:
343,110,56669,2,0,P|287:135|226:138,1,120,2|0,0:0|1:0,0:0:0:0:
170,126,57169,6,0,P|118:91|60:83,2,120,2|2|0,0:0|0:0|1:0,0:0:0:0:
228,230,58169,1,2,0:0:0:0:
228,230,58336,2,0,L|347:207,1,120,2|2,0:0|0:0,0:0:0:0:
405,201,58836,2,0,P|424:257|410:317,1,120,2|0,0:0|1:0,0:0:0:0:
302,366,59503,1,0,1:0:0:0:
184,342,59836,5,2,0:0:0:0:
228,230,60169,1,0,0:0:0:0:
113,193,60503,2,0,P|58:168|17:124,2,120,2|0|2,0:0|0:0|0:0,0:0:0:0:
228,230,61503,2,0,L|346:214,1,120,2|0,0:0|1:0,0:0:0:0:
440,288,62169,1,2,0:0:0:0:
346,364,62503,6,0,L|227:344,1,120,2|2,0:0|0:0,0:0:0:0:
177,310,63003,2,0,P|168:253|141:193,1,120,2|0,0:0|0:0,0:0:0:0:
86,175,63503,2,0,P|95:114|131:70,1,120,2|0,0:0|0:0,0:0:0:0:
234,9,64169,1,2,0:0:0:0:
329,81,64503,1,0,1:0:0:0:
236,157,64836,1,2,0:0:0:0:
321,240,65169,6,0,P|352:290|342:350,1,120,6|2,0:0|0:0,0:0:0:0:
227,382,65836,2,0,P|196:332|206:272,1,120,0|2,1:0|0:0,0:0:0:0:
236,157,66503,1,2,0:0:0:0:
321,240,66836,1,2,0:0:0:0:
206,274,67169,2,0,L|89:306,1,120,8|2,0:0|0:0,0:0:0:0:
28,202,67836,6,0,P|47:144|52:85,1,120,2|2,0:0|0:0,0:0:0:0:
169,60,68503,2,0,P|195:115|237:158,1,120,0|2,1:0|0:0,0:0:0:0:
321,240,69169,2,0,L|329:338,2,90,2|2|2,0:0|0:0|0:0,0:0:0:0:
316,180,69836,2,0,P|374:172|433:140,1,120,8|2,0:0|0:0,0:0:0:0:
338,64,70503,6,0,P|286:40|222:33,1,120,2|0,0:0|0:0,0:0:0:0:
106,57,71169,2,0,L|118:176,1,120,0|0,1:0|0:0,0:0:0:0:
138,294,71836,2,0,P|190:263|222:213,2,120,2|2|0,0:0|0:0|1:0,0:0:0:0:
25,252,72836,1,2,0:0:0:0:
118,176,73169,6,0,L|106:57,1,120,2|2,0:0|0:0,0:0:0:0:
213,109,73836,2,0,L|351:85,2,120,6|0|0,0:0|0:0|1:0,0:0:0:0:
105,56,74836,1,2,0:0:0:0:
118,176,75169,2,0,L|128:296,1,120,8|2,0:0|0:0,0:0:0:0:
224,366,75836,1,2,0:0:0:0:
149,154,81169,6,0,L|167:254,1,90.0000034332277,2|0,0:0|0:0,0:0:0:0:
191,347,81836,2,0,P|230:324|277:313,1,90.0000034332277
327,313,82336,2,0,L|377:323,1,45.0000017166138,2|0,0:0|0:0,0:0:0:0:
508,154,83169,2,0,L|419:137,1,90.0000034332277,0|0,1:0|0:0,0:0:0:0:
336,68,83836,6,0,P|296:85|251:94,1,90.0000034332277,2|0,0:0|0:0,0:0:0:0:
168,164,84503,2,0,P|126:146|68:137,2,90.0000034332277,2|2|2,0:0|0:0|0:0,0:0:0:0:
267,207,85503,1,2,0:0:0:0:
178,268,85836,1,0,0:0:0:0:
277,309,86169,1,2,0:0:0:0:
277,309,86503,6,0,P|333:330|394:331,1,120,6|0,0:0|0:0,0:0:0:0:
487,257,87169,2,0,L|494:131,1,120,0|2,1:0|0:0,0:0:0:0:
386,83,87836,2,0,L|379:202,1,120,2|2,0:0|0:0,0:0:0:0:
266,246,88503,1,8,0:0:0:0:
190,152,88836,1,2,0:0:0:0:
70,153,89169,6,0,P|18:226|19:316,2,180,2|2|6,0:0|0:0|0:0,0:0:0:0:
281,267,90836,2,0,L|400:239,1,120,2|0,0:0|1:0,0:0:0:0:
503,182,91503,2,0,L|513:248,2,60,2|0|6,0:0|0:0|0:0,0:0:0:0:
485,63,92169,5,0,0:0:0:0:
392,139,92503,1,0,1:0:0:0:
279,97,92836,1,2,0:0:0:0:
166,56,93169,2,0,P|106:73|49:79,2,120,2|2|0,0:0|0:0|1:0,0:0:0:0:
279,97,94169,1,2,0:0:0:0:
256,192,94503,12,6,97169,0:0:0:0:
149,311,97836,6,0,P|98:344|41:355,2,120,2|2|2,0:0|0:0|0:0,0:0:0:0:
227,219,98836,1,2,0:0:0:0:
344,195,99169,1,8,0:0:0:0:
452,246,99503,1,2,0:0:0:0:
353,314,99836,6,0,L|344:195,1,120,2|2,0:0|0:0,0:0:0:0:
345,74,100503,2,0,P|289:97|226:109,1,120,0|2,0:0|0:0,0:0:0:0:
112,86,101169,2,0,L|121:205,1,120,0|2,0:0|0:0,0:0:0:0:
133,325,101836,1,2,0:0:0:0:
23,275,102169,1,0,0:0:0:0:
121,205,102503,6,0,P|181:190|239:200,1,120,2|0,0:0|0:0,0:0:0:0:
352,234,103169,2,0,P|412:253|467:243,1,120,2|0,0:0|0:0,0:0:0:0:
419,132,103836,1,2,0:0:0:0:
313,75,104169,2,0,P|256:60|195:75,2,120,2|0|2,0:0|1:0|0:0,0:0:0:0:
419,132,105169,6,0,L|415:254,1,120,2|0,0:0|0:0,0:0:0:0:
388,305,105669,2,0,P|343:266|285:256,1,120,0|2,1:0|0:0,0:0:0:0:
232,225,106169,2,0,B|159:234|117:290|117:290|75:273,1,180,0|6,0:0|0:0,0:0:0:0:
37,36,107336,1,2,0:0:0:0:
132,108,107669,6,0,L|251:80,2,120,6|0|2,0:0|0:0|0:0,0:0:0:0:
72,121,108503,1,8,0:0:0:0:
19,228,108836,1,2,0:0:0:0:
112,303,109169,2,0,L|186:285,1,60,2|2,0:0|0:0,0:0:0:0:
288,268,109669,2,0,P|338:304|398:318,2,120,2|2|2,0:0|0:0|0:0,0:0:0:0:
253,218,110503,6,0,L|257:93,1,120,0|0,0:0|1:0,0:0:0:0:
148,148,111169,2,0,P|92:179|37:190,1,120,2|0,0:0|1:0,0:0:0:0:
48,70,111836,1,2,0:0:0:0:
161,29,112169,1,2,0:0:0:0:
258,99,112503,2,0,P|312:75|372:78,1,120,0|0,1:0|1:0,0:0:0:0:
484,118,113169,6,0,L|468:239,1,120,2|2,0:0|0:0,0:0:0:0:
448,355,113836,1,0,1:0:0:0:
356,277,114169,1,0,1:0:0:0:
469,237,114503,1,2,0:0:0:0:
375,161,114836,2,0,P|317:179|258:188,1,120,0|0,1:0|1:0,0:0:0:0:
154,127,115503,1,2,0:0:0:0:
53,61,115836,6,0,P|36:117|47:180,1,120,2|0,0:0|1:0,0:0:0:0:
77,227,116336,2,0,P|138:217|200:211,1,120,2|0,0:0|1:0,0:0:0:0:
248,240,116836,2,0,P|302:272|361:280,1,120,0|2,1:0|0:0,0:0:0:0:
466,229,117503,1,2,0:0:0:0:
371,155,117836,1,2,0:0:0:0:
469,85,118169,1,0,1:0:0:0:
370,15,118503,6,0,P|316:30|253:37,1,120,6|0,0:0|0:0,0:0:0:0:
133,26,119169,2,0,P|147:86|156:148,1,120,0|0,1:0|0:0,0:0:0:0:
160,263,119836,2,0,P|204:226|260:199,1,120,2|2,0:0|0:0,0:0:0:0:
372,155,120503,2,0,P|386:215|395:277,1,120,8|2,0:0|0:0,0:0:0:0:
337,377,121169,6,0,L|219:360,2,120,2|2|0,0:0|0:0|1:0,0:0:0:0:
451,341,122169,1,2,0:0:0:0:
377,245,122503,2,0,P|375:199|372:156,2,90,2|2|2,0:0|0:0|0:0,0:0:0:0:
326,277,123169,2,0,P|272:251|211:238,1,120,0|2,1:0|0:0,0:0:0:0:
95,260,123836,5,2,0:0:0:0:
137,147,124169,1,0,0:0:0:0:
214,238,124503,1,2,0:0:0:0:
256,125,124836,1,2,0:0:0:0:
337,213,125169,2,0,P|390:245|446:249,1,120,2|2,0:0|0:0,0:0:0:0:
483,134,125836,2,0,P|430:102|374:98,1,120,0|2,1:0|0:0,0:0:0:0:
256,125,126503,6,0,P|172:147|80:138,2,180,4|2|6,0:0|0:0|0:0,0:0:0:0:
