osu file format v12

[General]
AudioFilename: Right Now.mp3
AudioLeadIn: 0
PreviewTime: 43336
Countdown: 0
SampleSet: Soft
StackLeniency: 0.4
Mode: 0
LetterboxInBreaks: 0
WidescreenStoryboard: 0

[Editor]
DistanceSpacing: 1.3
BeatDivisor: 4
GridSize: 4

[Metadata]
Title:Right Now
TitleUnicode:Right Now
Artist:makou
ArtistUnicode:makou
Creator:iyasine
Version:Another
Source:DJMAX Portable 2
Tags:Audio Trinity
BeatmapID:317107
BeatmapSetID:124390

[Difficulty]
HPDrainRate:7
CircleSize:4
OverallDifficulty:7
ApproachRate:9
SliderMultiplier:1.65
SliderTickRate:1

[Events]
//Background and Video events
0,0,"bg.jpg",0,0
//Break Periods
2,76036,80569
//Storyboard Layer 0 (Background)
//Storyboard Layer 1 (Fail)
//Storyboard Layer 2 (Pass)
//Storyboard Layer 3 (Foreground)
//Storyboard Sound Samples
//Background Colour Transformations
3,100,163,162,255

[TimingPoints]
1170,333.333333333333,4,2,1,40,1,0
1170,-133.333333333333,4,2,1,40,0,0
2836,-133.333333333333,4,2,1,30,0,0
3169,-133.333333333333,4,2,1,40,0,0
3503,-133.333333333333,4,2,1,30,0,0
8669,-133.333333333333,4,2,1,40,0,0
8836,-133.333333333333,4,2,1,30,0,0
9836,-133.333333333333,4,2,1,40,0,0
11836,-133.333333333333,4,2,3,30,0,0
12336,-133.333333333333,4,2,2,35,0,0
12670,-133.333333333333,4,2,1,50,0,0
13003,-133.333333333333,4,2,2,40,0,0
13670,-133.333333333333,4,2,1,50,0,0
14003,-133.333333333333,4,2,2,40,0,0
14170,-133.333333333333,4,2,1,50,0,0
14836,-133.333333333333,4,2,2,40,0,0
15170,-133.333333333333,4,2,1,50,0,0
17003,-133.333333333333,4,2,2,40,0,0
17170,-133.333333333333,4,2,1,50,0,0
17503,-133.333333333333,4,2,2,40,0,0
18003,-133.333333333333,4,2,1,50,0,0
18170,-133.333333333333,4,2,2,30,0,0
18503,-133.333333333333,4,2,1,50,0,0
19170,-133.333333333333,4,2,1,40,0,0
19503,-133.333333333333,4,2,1,30,0,0
20503,-133.333333333333,4,2,1,40,0,0
21170,-133.333333333333,4,2,1,50,0,0
22420,-133.333333333333,4,2,1,25,0,0
22503,-100,4,2,3,60,0,0
23170,-100,4,2,3,50,0,0
23336,-100,4,2,1,50,0,0
23503,-100,4,2,2,40,0,0
23669,-100,4,2,3,50,0,0
24169,-100,4,2,1,50,0,0
24503,-166.666666666667,4,2,3,40,0,0
24836,-166.666666666667,4,2,1,40,0,0
25170,-100,4,2,3,60,0,0
25503,-100,4,2,2,40,0,0
25669,-100,4,2,2,30,0,0
25836,-100,4,2,3,40,0,0
26170,-100,4,2,1,50,0,0
26336,-100,4,2,3,60,0,0
28003,-100,4,2,2,50,0,0
28169,-100,4,2,1,50,0,0
28336,-100,4,2,3,40,0,0
28503,-100,4,2,3,50,0,0
28670,-100,4,2,3,60,0,0
29003,-100,4,2,2,50,0,0
29170,-100,4,2,3,60,0,0
29836,-100,4,2,3,50,0,0
30170,-100,4,2,1,60,0,0
30336,-100,4,2,3,40,0,0
30503,-100,4,2,3,60,0,0
30836,-100,4,2,2,40,0,0
31170,-100,4,2,3,60,0,0
31670,-100,4,2,1,60,0,0
32170,-100,4,2,3,60,0,0
32503,-100,4,2,2,50,0,0
33003,-166.666666666667,4,2,2,40,0,0
33336,-100,4,2,3,50,0,0
33670,-100,4,2,2,40,0,0
34003,-100,4,2,1,60,0,0
34169,-100,4,2,2,40,0,0
34336,-100,4,2,3,60,0,0
34503,-100,4,2,2,40,0,0
34836,-100,4,2,3,60,0,0
35170,-100,4,2,3,40,0,0
35336,-100,4,2,2,50,0,0
35503,-100,4,2,1,60,0,0
35836,-100,4,2,3,60,0,0
36170,-100,4,2,2,40,0,0
36836,-100,4,2,3,60,0,0
37003,-100,4,2,1,60,0,0
37503,-100,4,2,3,60,0,0
37836,-100,4,2,2,40,0,0
38503,-100,4,2,3,60,0,0
38836,-100,4,2,2,50,0,0
39003,-100,4,2,3,40,0,0
39086,-100,4,2,3,60,0,0
39336,-100,4,2,1,60,0,0
39503,-100,4,2,2,50,0,0
39670,-100,4,2,3,60,0,0
40503,-100,4,2,3,50,0,0
40836,-100,4,2,1,60,0,0
41170,-100,4,2,3,60,0,0
41503,-100,4,2,1,60,0,0
41836,-100,4,2,1,40,0,0
42503,-100,4,2,1,30,0,0
43169,-83.3333333333333,4,2,1,30,0,0
43503,-83.3333333333333,4,2,1,40,0,0
43836,-90.9090909090909,4,2,3,60,0,1
44003,-90.9090909090909,4,2,1,60,0,0
45003,-90.9090909090909,4,2,3,60,0,0
45170,-90.9090909090909,4,2,1,60,0,0
45836,-90.9090909090909,4,2,3,40,0,0
46003,-90.9090909090909,4,2,1,40,0,0
46170,-90.9090909090909,4,2,1,60,0,0
46503,-90.9090909090909,4,2,3,60,0,0
47836,-90.9090909090909,4,2,1,60,0,0
48169,-90.9090909090909,4,2,3,60,0,0
48336,-90.9090909090909,4,2,1,60,0,0
49170,-90.9090909090909,4,2,3,60,0,0
49670,-90.9090909090909,4,2,3,40,0,0
50336,-90.9090909090909,4,2,3,60,0,0
51170,-90.9090909090909,4,2,3,40,0,0
51503,-90.9090909090909,4,2,1,50,0,0
51836,-90.9090909090909,4,2,3,60,0,0
53170,-90.9090909090909,4,2,3,50,0,0
54503,-90.9090909090909,4,2,3,60,0,1
55170,-90.9090909090909,4,2,3,50,0,1
55336,-90.9090909090909,4,2,1,60,0,1
55669,-90.9090909090909,4,2,3,70,0,1
56003,-90.9090909090909,4,2,1,60,0,1
56836,-90.9090909090909,4,2,3,70,0,1
57003,-90.9090909090909,4,2,3,50,0,1
57170,-90.9090909090909,4,2,3,70,0,1
57503,-90.9090909090909,4,2,2,50,0,1
57670,-90.9090909090909,4,2,1,60,0,1
57836,-90.9090909090909,4,2,1,50,0,1
58503,-90.9090909090909,4,2,2,40,0,1
58836,-90.9090909090909,4,2,3,70,0,1
59003,-90.9090909090909,4,2,1,60,0,1
59170,-90.9090909090909,4,2,2,40,0,1
59503,-90.9090909090909,4,2,1,50,0,1
59669,-90.9090909090909,4,2,2,40,0,1
59836,-90.9090909090909,4,2,3,70,0,1
60336,-90.9090909090909,4,2,3,60,0,1
60503,-90.9090909090909,4,2,3,70,0,1
60670,-90.9090909090909,4,2,1,60,0,1
61003,-90.9090909090909,4,2,3,70,0,1
61836,-90.9090909090909,4,2,3,60,0,1
62170,-90.9090909090909,4,2,3,70,0,1
62336,-90.9090909090909,4,2,3,60,0,1
62503,-90.9090909090909,4,2,3,70,0,1
62836,-90.9090909090909,4,2,2,50,0,1
63003,-90.9090909090909,4,2,3,70,0,1
63170,-90.9090909090909,4,2,3,50,0,1
63503,-90.9090909090909,4,2,3,70,0,1
63670,-90.9090909090909,4,2,1,70,0,1
64170,-90.9090909090909,4,2,3,70,0,1
64503,-90.9090909090909,4,2,3,60,0,1
64670,-90.9090909090909,4,2,3,70,0,1
64836,-90.9090909090909,4,2,2,50,0,1
65170,-90.9090909090909,4,2,3,60,0,0
65503,-90.9090909090909,4,2,1,60,0,0
65670,-90.9090909090909,4,2,2,40,0,0
66003,-90.9090909090909,4,2,1,60,0,0
66336,-90.9090909090909,4,2,3,60,0,0
67170,-90.9090909090909,4,2,3,40,0,0
67336,-90.9090909090909,4,2,2,40,0,0
67670,-90.9090909090909,4,2,1,60,0,0
67836,-90.9090909090909,4,2,3,60,0,0
68170,-90.9090909090909,4,2,1,60,0,0
68336,-90.9090909090909,4,2,3,60,0,0
68503,-90.9090909090909,4,2,3,40,0,0
68586,-90.9090909090909,4,2,3,60,0,0
69169,-111.111111111111,4,2,3,60,0,0
69753,-90.9090909090909,4,2,1,60,0,0
69836,-90.9090909090909,4,2,3,40,0,0
70170,-90.9090909090909,4,2,3,60,0,0
70670,-90.9090909090909,4,2,1,60,0,0
71003,-90.9090909090909,4,2,3,40,0,0
71503,-90.9090909090909,4,2,3,60,0,0
71836,-90.9090909090909,4,2,1,60,0,0
72169,-90.9090909090909,4,2,3,60,0,0
72503,-90.9090909090909,4,2,3,45,0,0
72836,-90.9090909090909,4,2,1,60,0,0
73170,-90.9090909090909,4,2,3,60,0,0
73336,-90.9090909090909,4,2,0,50,0,0
73670,-90.9090909090909,4,2,3,60,0,0
73836,-90.9090909090909,4,2,3,50,0,0
74336,-90.9090909090909,4,2,1,60,0,0
74503,-90.9090909090909,4,2,3,40,0,0
74670,-90.9090909090909,4,2,3,60,0,0
75003,-90.9090909090909,4,2,1,60,0,0
75170,-90.9090909090909,4,2,3,50,0,0
75420,-90.9090909090909,4,2,3,70,0,0
81169,-125,4,2,3,50,0,0
81670,-125,4,2,3,30,0,0
82003,-125,4,2,1,50,0,0
82336,-125,4,2,3,50,0,0
83170,-125,4,2,3,40,0,0
83836,-100,4,2,3,55,0,0
84670,-100,4,2,1,45,0,0
85503,-100,4,2,3,55,0,0
85670,-100,4,2,1,55,0,0
86503,-90.9090909090909,4,2,3,60,0,0
87003,-90.9090909090909,4,2,2,50,0,0
87170,-90.9090909090909,4,2,2,45,0,0
87336,-90.9090909090909,4,2,1,60,0,0
87503,-90.9090909090909,4,2,2,50,0,0
87670,-90.9090909090909,4,2,3,60,0,0
88336,-90.9090909090909,4,2,1,60,0,0
88503,-90.9090909090909,4,2,3,40,0,0
88669,-90.9090909090909,4,2,2,50,0,0
88836,-90.9090909090909,4,2,1,60,0,0
89003,-90.9090909090909,4,2,3,50,0,0
89170,-90.9090909090909,4,2,3,70,0,0
89503,-90.9090909090909,4,2,2,50,0,0
89670,-90.9090909090909,4,2,3,70,0,0
90170,-90.9090909090909,4,2,3,60,0,0
90503,-90.9090909090909,4,2,1,60,0,0
90836,-90.9090909090909,4,2,2,50,0,0
91253,-90.9090909090909,4,2,1,45,0,0
91503,-90.9090909090909,4,2,3,60,0,0
92336,-90.9090909090909,4,2,3,40,0,0
92503,-90.9090909090909,4,2,3,50,0,0
92670,-90.9090909090909,4,2,1,60,0,0
92836,-90.9090909090909,4,2,2,50,0,0
93003,-90.9090909090909,4,2,3,60,0,0
93836,-90.9090909090909,4,2,2,50,0,0
94336,-90.9090909090909,4,2,3,60,0,0
94836,-90.9090909090909,4,2,2,50,0,0
95003,-90.9090909090909,4,2,3,60,0,0
95170,-90.9090909090909,4,2,3,50,0,0
95336,-90.9090909090909,4,2,3,60,0,0
95836,-90.9090909090909,4,2,3,70,0,0
96503,-90.9090909090909,4,2,1,80,0,0
97169,-90.9090909090909,4,2,3,70,0,1
97336,-90.9090909090909,4,2,1,60,0,0
97836,-90.9090909090909,4,2,2,50,0,0
98003,-90.9090909090909,4,2,1,60,0,0
98336,-90.9090909090909,4,2,3,60,0,0
98503,-90.9090909090909,4,2,1,60,0,0
99170,-90.9090909090909,4,2,3,40,0,0
99336,-90.9090909090909,4,2,2,50,0,0
99670,-90.9090909090909,4,2,3,40,0,0
99836,-90.9090909090909,4,2,3,60,0,0
100170,-90.9090909090909,4,2,1,60,0,0
100836,-90.9090909090909,4,2,3,60,0,0
101170,-90.9090909090909,4,2,1,60,0,0
101503,-90.9090909090909,4,2,3,60,0,0
101670,-90.9090909090909,4,2,1,60,0,0
102336,-90.9090909090909,4,2,2,50,0,0
102503,-90.9090909090909,4,2,3,60,0,0
103003,-90.9090909090909,4,2,3,40,0,0
103336,-90.9090909090909,4,2,1,60,0,0
103670,-90.9090909090909,4,2,3,60,0,0
104169,-90.9090909090909,4,2,1,60,0,0
104503,-90.9090909090909,4,2,3,50,0,0
104670,-90.9090909090909,4,2,1,60,0,0
105170,-90.9090909090909,4,2,3,60,0,0
105336,-90.9090909090909,4,2,1,60,0,0
105670,-90.9090909090909,4,2,1,50,0,0
106003,-90.9090909090909,4,2,3,60,0,0
106503,-90.9090909090909,4,2,3,50,0,0
106669,-80,4,2,3,60,0,0
107336,-133.333333333333,4,2,3,60,0,0
107586,-133.333333333333,4,2,1,25,0,0
107669,-83.3333333333333,4,2,3,60,0,1
108170,-90.9090909090909,4,2,2,50,0,1
108336,-90.9090909090909,4,2,3,60,0,1
108503,-90.9090909090909,4,2,3,50,0,1
108670,-90.9090909090909,4,2,1,60,0,1
108836,-90.9090909090909,4,2,2,50,0,1
109003,-90.9090909090909,4,2,3,70,0,1
109336,-90.9090909090909,4,2,1,60,0,1
109503,-90.9090909090909,4,2,1,50,0,1
109670,-90.9090909090909,4,2,3,70,0,1
110670,-90.9090909090909,4,2,1,40,0,1
111003,-90.9090909090909,4,2,3,70,0,1
111336,-90.9090909090909,4,2,1,60,0,1
111503,-90.9090909090909,4,2,1,50,0,1
111670,-90.9090909090909,4,2,1,60,0,1
112170,-90.9090909090909,4,2,3,70,0,1
112336,-90.9090909090909,4,2,1,60,0,1
112503,-90.9090909090909,4,2,1,50,0,1
112586,-90.9090909090909,4,2,1,60,0,1
112836,-90.9090909090909,4,2,2,50,0,1
113170,-90.9090909090909,4,2,3,70,0,1
113503,-90.9090909090909,4,2,2,50,0,1
114336,-90.9090909090909,4,2,3,70,0,1
114836,-90.9090909090909,4,2,2,50,0,1
115336,-90.9090909090909,4,2,1,60,0,1
115503,-90.9090909090909,4,2,3,70,0,1
116003,-90.9090909090909,4,2,3,50,0,1
116336,-90.9090909090909,4,2,3,70,0,1
116503,-90.9090909090909,4,2,3,50,0,1
117170,-90.9090909090909,4,2,3,70,0,1
118003,-90.9090909090909,4,2,3,50,0,1
118336,-90.9090909090909,4,2,1,50,0,0
118503,-90.9090909090909,4,2,3,60,0,1
118669,-90.9090909090909,4,2,1,60,0,0
119170,-90.9090909090909,4,2,1,50,0,0
119336,-90.9090909090909,4,2,1,60,0,0
119670,-90.9090909090909,4,2,3,60,0,0
120503,-90.9090909090909,4,2,3,50,0,0
120670,-90.9090909090909,4,2,1,60,0,0
121170,-90.9090909090909,4,2,3,60,0,0
121503,-90.9090909090909,4,2,2,50,0,0
121670,-90.9090909090909,4,2,3,60,0,0
121836,-90.9090909090909,4,2,3,40,0,0
122003,-90.9090909090909,4,2,1,60,0,0
122170,-90.9090909090909,4,2,3,60,0,0
122336,-90.9090909090909,4,2,1,60,0,0
122503,-90.9090909090909,4,2,3,60,0,0
122670,-90.9090909090909,4,2,2,50,0,0
122753,-90.9090909090909,4,2,3,60,0,0
123170,-90.9090909090909,4,2,3,50,0,0
123503,-90.9090909090909,4,2,3,60,0,0
123670,-90.9090909090909,4,2,3,50,0,0
123836,-90.9090909090909,4,2,3,60,0,0
124336,-90.9090909090909,4,2,3,40,0,0
124503,-90.9090909090909,4,2,3,60,0,0
124670,-90.9090909090909,4,2,1,60,0,0
124836,-90.9090909090909,4,2,2,40,0,0
125170,-90.9090909090909,4,2,3,60,0,0
125670,-90.9090909090909,4,2,1,60,0,0
125836,-90.9090909090909,4,2,1,50,0,0
126003,-90.9090909090909,4,2,3,60,0,0
126336,-90.9090909090909,4,2,1,50,0,0
126669,-90.9090909090909,4,2,1,60,0,0
127003,-90.9090909090909,4,2,3,60,0,0
127169,-90.9090909090909,4,2,1,60,0,0
127503,-90.9090909090909,4,2,3,50,0,0

[Colours]
Combo1 : 121,188,255
Combo2 : 255,174,136
Combo3 : 255,162,208
Combo4 : 172,255,172

[HitObjects]
138,148,1170,2,0,P|183:192|201:248,1,123.750004720688
201,248,1836,2,0,L|138:257,1,61.875002360344,2|0,0:0|0:0,0:0:0:0:
287,170,2169,2,0,P|315:181|346:186,1,61.875002360344
462,131,2503,6,0,P|431:125|402:114,1,61.875002360344
327,70,2836,1,2,0:0:0:0:
287,170,3003,1,2,0:0:0:0:
188,108,3169,2,0,L|251:99,1,61.875002360344,2|0,0:0|0:0,0:0:0:0:
75,76,3503,1,2,0:0:0:0:
45,66,3669,1,2,0:0:0:0:
45,66,4169,6,0,P|54:95|57:128,1,61.875002360344
138,202,4503,2,0,P|123:230|114:259,1,61.875002360344,2|2,0:0|0:0,0:0:0:0:
87,341,4836,1,2,0:0:0:0:
16,271,5003,1,2,0:0:0:0:
138,202,5169,6,0,P|168:201|199:196,1,61.875002360344,0|2,0:0|0:0,0:0:0:0:
295,145,5503,2,0,L|329:153,1,30.937501180172
373,93,5669,2,0,P|403:87|431:74,1,61.875002360344,0|2,0:0|0:0,0:0:0:0:
466,186,6503,6,0,P|403:194|354:227,1,123.750004720688,2|0,0:0|0:0,0:0:0:0:
165,345,7169,2,0,P|156:313|154:284,1,61.875002360344,2|0,0:0|0:0,0:0:0:0:
248,224,7503,2,0,P|255:194|258:163,1,61.875002360344,2|2,0:0|0:0,0:0:0:0:
195,71,7836,6,0,P|163:63|129:58,1,61.875002360344,2|2,0:0|0:0,0:0:0:0:
321,104,8169,2,0,P|354:113|384:115,1,61.875002360344,2|2,0:0|0:0,0:0:0:0:
471,89,8503,1,2,0:0:0:0:
461,59,8669,1,2,0:0:0:0:
348,195,8836,1,2,0:0:0:0:
318,185,9003,1,2,0:0:0:0:
287,174,9503,5,0,0:0:0:0:
287,174,9669,1,0,0:0:0:0:
198,241,9836,2,0,P|134:247|80:272,1,123.750004720688,2|0,0:0|0:0,0:0:0:0:
82,70,10503,6,0,P|99:128|149:164,1,123.750004720688,2|0,0:0|0:0,0:0:0:0:
170,79,11003,2,0,P|201:80|232:87,1,61.875002360344,0|2,0:0|0:0,0:0:0:0:
287,174,11336,2,0,P|317:180|348:181,1,61.875002360344
434,146,11669,1,0,0:0:0:0:
509,92,11836,1,4,0:0:0:0:
509,92,12336,5,2,0:0:0:0:
509,92,12419,1,2,0:0:0:0:
509,92,12503,1,2,0:0:0:0:
352,125,12669,1,2,0:0:0:0:
419,260,12836,1,0,0:0:0:0:
434,146,13003,6,0,P|431:111|431:83,1,61.875002360344,2|0,0:0|0:0,0:0:0:0:
273,35,13336,2,0,P|276:70|276:98,1,61.875002360344
238,206,13669,5,2,0:0:0:0:
352,125,13836,1,2,0:0:0:0:
311,259,14003,1,2,0:0:0:0:
278,72,14169,1,2,0:0:0:0:
167,147,14336,2,0,P|136:149|100:146,1,61.875002360344
384,311,14836,6,0,P|415:309|445:311,1,61.875002360344,2|0,0:0|0:0,0:0:0:0:
474,119,15169,2,0,P|413:128|352:125,1,123.750004720688,2|2,0:0|0:0,0:0:0:0:
310,259,15669,2,0,P|276:255|243:256,1,61.875002360344,2|0,0:0|0:0,0:0:0:0:
214,259,15919,5,0,0:0:0:0:
214,259,16003,1,2,0:0:0:0:
351,125,16169,1,0,0:0:0:0:
135,60,16336,2,0,P|143:89|148:120,1,61.875002360344,2|0,0:0|0:0,0:0:0:0:
154,153,16586,1,0,0:0:0:0:
154,153,16669,1,0,0:0:0:0:
356,28,17003,1,2,0:0:0:0:
258,69,17169,6,0,L|135:60,1,123.750004720688,2|0,0:0|0:0,0:0:0:0:
0,179,17669,1,0,0:0:0:0:
0,179,17753,1,0,0:0:0:0:
0,179,17836,2,0,L|69:170,1,61.875002360344,2|2,0:0|0:0,0:0:0:0:
134,60,18169,1,2,0:0:0:0:
176,241,18336,1,2,0:0:0:0:
282,159,18503,6,0,P|251:155|220:155,1,61.875002360344,2|0,0:0|0:0,0:0:0:0:
59,311,18836,2,0,P|87:317|121:317,1,61.875002360344,2|0,0:0|0:0,0:0:0:0:
249,285,19169,2,0,P|278:277|309:271,1,61.875002360344,2|0,0:0|0:0,0:0:0:0:
435,253,19503,1,2,0:0:0:0:
256,192,19836,12,0,21503,0:0:0:0:
132,218,21836,5,2,0:0:0:0:
118,315,22003,1,2,0:0:0:0:
210,280,22169,2,0,P|255:288|298:307,1,92.812503540516,2|0,0:0|0:0,0:0:0:0:
330,323,22503,6,0,P|342:235|365:164,1,165,6|0,0:0|0:0,0:0:0:0:
250,115,23003,2,0,L|206:104,1,41.25
342,79,23169,2,0,P|383:67|425:63,1,82.5,0|2,1:0|0:0,0:0:0:0:
264,19,23503,1,2,0:0:0:0:
365,162,23669,1,2,0:0:0:0:
250,115,23836,6,0,P|210:129|167:135,1,82.5,2|0,0:0|0:0,0:0:0:0:
32,254,24169,2,0,P|72:240|115:234,1,82.5,2|2,0:0|0:0,0:0:0:0:
235,243,24503,6,0,P|262:251|285:262,1,49.4999984893799,8|0,0:0|0:0,0:0:0:0:
365,162,24836,2,0,P|393:168|421:171,1,49.4999984893799,2|0,0:0|0:0,0:0:0:0:
491,79,25169,5,2,0:0:0:0:
491,79,25336,1,2,0:0:0:0:
453,240,25503,1,2,0:0:0:0:
365,162,25669,1,2,0:0:0:0:
453,240,25836,1,0,1:0:0:0:
80,284,26169,1,2,0:0:0:0:
80,284,26336,1,2,0:0:0:0:
365,315,26669,5,0,0:0:0:0:
281,381,26836,1,2,0:0:0:0:
266,274,27003,1,0,0:0:0:0:
365,315,27169,2,0,L|418:310,1,41.25
488,305,27336,1,2,0:0:0:0:
165,227,27669,1,2,0:0:0:0:
254,168,27836,5,0,0:0:0:0:
266,274,28003,1,2,0:0:0:0:
165,227,28169,1,2,0:0:0:0:
254,168,28336,1,8,0:0:0:0:
266,274,28503,2,0,P|263:317|248:356,2,82.5,0|2|0,1:0|0:0|0:0,0:0:0:0:
254,168,29003,1,2,0:0:0:0:
338,106,29169,6,0,P|379:112|420:115,1,82.5,2|0,0:0|0:0,0:0:0:0:
165,227,29503,2,0,P|122:221|81:218,1,82.5,2|0,0:0|0:0,0:0:0:0:
365,316,29836,2,0,L|378:234,1,82.5,0|0,1:0|0:0,0:0:0:0:
338,106,30169,1,2,0:0:0:0:
266,274,30336,1,0,1:0:0:0:
403,217,30503,6,0,P|443:207|488:210,2,82.5,2|2|2,0:0|0:0|0:0,0:0:0:0:
266,274,31003,1,2,0:0:0:0:
338,106,31169,2,0,P|340:63|335:23,1,82.5,2|0,0:0|0:0,0:0:0:0:
89,214,31503,2,0,P|131:216|172:231,1,82.5,2|2,0:0|0:0,0:0:0:0:
266,274,31836,5,0,0:0:0:0:
179,337,32003,1,0,0:0:0:0:
235,136,32169,1,2,0:0:0:0:
266,274,32336,1,2,0:0:0:0:
392,174,32503,1,0,1:0:0:0:
406,167,32586,1,0,0:0:0:0:
422,161,32669,1,0,0:0:0:0:
438,157,32753,1,0,1:0:0:0:
454,155,32836,1,0,1:0:0:0:
381,288,33003,6,0,L|304:279,1,74.2499977340699,2|0,0:0|0:0,0:0:0:0:
266,274,33336,6,0,P|310:204|311:122,1,165,6|2,0:0|0:0,0:0:0:0:
311,123,33753,1,2,0:0:0:0:
311,123,33836,2,0,L|228:114,1,82.5,2|2,0:0|0:0,0:0:0:0:
142,36,34169,1,2,0:0:0:0:
92,175,34336,1,2,0:0:0:0:
23,71,34503,1,2,0:0:0:0:
92,175,34669,6,0,L|183:170,1,82.5,0|2,0:0|0:0,0:0:0:0:
392,74,35003,2,0,P|404:116|401:156,1,82.5,0|8,0:0|0:0,0:0:0:0:
192,326,35336,2,0,P|180:284|183:244,1,82.5,2|2,0:0|0:0,0:0:0:0:
286,274,35669,1,0,0:0:0:0:
92,175,35836,5,2,0:0:0:0:
92,282,36003,1,2,0:0:0:0:
192,223,36169,1,2,0:0:0:0:
0,125,36336,1,2,0:0:0:0:
192,223,36503,2,0,P|267:196|352:186,1,165,0|2,1:0|0:0,0:0:0:0:
471,217,37003,1,2,0:0:0:0:
384,305,37169,5,0,0:0:0:0:
338,106,37336,1,0,0:0:0:0:
274,214,37503,2,0,L|191:223,1,82.5,2|0,0:0|0:0,0:0:0:0:
73,147,37836,1,2,0:0:0:0:
55,135,37919,1,2,0:0:0:0:
37,123,38003,1,2,0:0:0:0:
189,59,38169,1,0,1:0:0:0:
192,223,38336,1,2,0:0:0:0:
73,147,38503,6,0,L|156:140,1,82.5,2|0,0:0|0:0,0:0:0:0:
338,106,38836,1,2,0:0:0:0:
241,295,39003,1,8,0:0:0:0:
241,295,39086,1,0,0:0:0:0:
241,295,39169,2,0,L|158:302,1,82.5,2|2,0:0|0:0,0:0:0:0:
28,213,39503,2,0,P|60:181|74:141,1,82.5,2|2,0:0|0:0,0:0:0:0:
84,39,39836,5,2,0:0:0:0:
192,223,40003,1,0,0:0:0:0:
338,106,40169,2,0,L|380:108,1,41.25,2|0,0:0|0:0,0:0:0:0:
185,130,40336,2,0,L|146:144,1,41.25
314,192,40503,2,0,P|354:210|392:215,1,82.5,0|0,1:0|0:0,0:0:0:0:
247,33,40836,2,0,P|211:44|163:52,1,82.5,2|0,0:0|0:0,0:0:0:0:
28,213,41169,6,0,P|64:202|112:194,1,82.5,2|0,0:0|0:0,0:0:0:0:
314,192,41503,1,2,0:0:0:0:
256,311,41669,1,0,0:0:0:0:
185,130,41836,1,0,1:0:0:0:
409,159,42003,1,2,0:0:0:0:
216,220,42169,1,2,0:0:0:0:
153,38,42336,5,2,0:0:0:0:
131,49,42419,1,2,0:0:0:0:
112,66,42503,1,2,0:0:0:0:
99,86,42586,1,0,0:0:0:0:
91,110,42669,1,0,0:0:0:0:
90,134,42753,1,0,0:0:0:0:
94,159,42836,1,0,0:0:0:0:
106,181,42919,1,0,0:0:0:0:
122,199,43003,1,0,0:0:0:0:
142,212,43086,1,0,0:0:0:0:
166,220,43169,6,0,L|215:219,1,49.4999984893799
318,138,43336,2,0,L|270:157,1,49.4999984893799
324,228,43503,2,0,L|378:248,1,49.4999984893799
420,159,43669,2,0,L|466:141,1,49.4999984893799
364,40,43836,6,0,P|275:67|186:66,1,181.500005538941,6|0,0:0|0:0,0:0:0:0:
187,66,44503,1,2,0:0:0:0:
244,168,44669,1,2,0:0:0:0:
187,66,44836,2,0,L|88:52,1,90.7500027694703,2|2,0:0|0:0,0:0:0:0:
0,211,45169,6,0,P|41:185|85:174,1,90.7500027694703,2|2,0:0|0:0,0:0:0:0:
228,245,45503,2,0,P|238:289|238:335,2,90.7500027694703,2|0|8,0:0|0:0|0:0,0:0:0:0:
193,150,46003,1,2,0:0:0:0:
131,229,46169,1,2,0:0:0:0:
187,66,46336,1,2,0:0:0:0:
294,170,46503,6,0,L|386:165,1,90.7500027694703,2|2,0:0|0:0,0:0:0:0:
482,117,46836,1,0,0:0:0:0:
287,196,47003,6,0,L|379:191,1,90.7500027694703
475,143,47336,1,0,0:0:0:0:
280,219,47503,6,0,L|372:214,1,90.7500027694703,0|2,0:0|0:0,0:0:0:0:
468,166,47836,1,2,0:0:0:0:
272,245,48003,6,0,L|181:249,1,90.7500027694703,0|2,0:0|0:0,0:0:0:0:
84,199,48336,1,2,0:0:0:0:
160,75,48503,1,0,0:0:0:0:
255,349,48836,5,0,0:0:0:0:
272,245,49003,1,0,0:0:0:0:
176,287,49169,6,0,L|79:278,1,90.7500027694703,2|0,0:0|0:0,0:0:0:0:
14,141,49503,1,0,0:0:0:0:
167,160,49669,2,0,L|260:147,1,90.7500027694703,8|0,0:0|0:0,0:0:0:0:
459,112,50003,2,0,P|457:157|462:202,1,90.7500027694703
360,308,50336,2,0,P|361:262|356:217,1,90.7500027694703,2|0,0:0|0:0,0:0:0:0:
356,217,50836,5,0,0:0:0:0:
353,207,51169,1,0,1:0:0:0:
351,198,51503,2,0,P|397:186|441:184,1,90.7500027694703,2|0,0:0|0:0,0:0:0:0:
307,50,51836,6,0,P|261:62|217:64,1,90.7500027694703,2|0,0:0|0:0,0:0:0:0:
0,181,52169,1,0,0:0:0:0:
132,126,52336,2,0,L|139:92,3,22.6875006923676,2|2|2|2,0:0|0:0|0:0|0:0,0:0:0:0:
132,126,52503,2,0,P|125:168|126:217,1,90.7500027694703,2|2,0:0|0:0,0:0:0:0:
138,342,52836,2,0,P|101:313|56:306,1,90.7500027694703,2|0,0:0|0:0,0:0:0:0:
223,86,53169,5,0,1:0:0:0:
232,101,53503,2,0,B|290:129|348:64|409:92,1,181.500005538941,6|0,0:0|1:0,0:0:0:0:
511,180,54003,1,6,0:0:0:0:
381,224,54169,1,0,0:0:0:0:
409,91,54336,1,0,0:0:0:0:
269,179,54503,6,0,P|173:194|101:151,1,181.500005538941,6|0,0:0|0:0,0:0:0:0:
42,52,55003,1,0,0:0:0:0:
42,52,55086,1,0,0:0:0:0:
42,52,55169,1,0,1:0:0:0:
176,38,55336,1,2,0:0:0:0:
104,154,55503,1,2,0:0:0:0:
176,38,55669,1,2,0:0:0:0:
154,232,55836,5,2,0:0:0:0:
269,179,56003,2,0,B|321:172|357:198|357:198|391:167|440:169,2,181.500005538941,2|2|2,0:0|0:0|0:0,0:0:0:0:
154,232,56836,2,0,P|117:257|100:298,1,90.7500027694703,2|0,0:0|1:0,0:0:0:0:
208,382,57169,6,0,P|245:357|262:316,1,90.7500027694703,2|2,0:0|0:0,0:0:0:0:
269,179,57503,1,2,0:0:0:0:
154,232,57669,1,2,0:0:0:0:
165,106,57836,1,0,1:0:0:0:
262,315,58003,1,2,0:0:0:0:
269,179,58169,1,2,0:0:0:0:
208,382,58336,1,2,0:0:0:0:
154,232,58503,1,2,0:0:0:0:
311,252,58669,6,0,B|400:267,1,90.7500027694703,0|2,0:0|0:0,0:0:0:0:
146,318,59003,1,2,0:0:0:0:
165,106,59169,1,2,0:0:0:0:
165,106,59253,1,2,0:0:0:0:
165,106,59336,1,2,0:0:0:0:
77,265,59503,1,0,1:0:0:0:
269,179,59669,1,2,0:0:0:0:
146,318,59836,6,0,P|105:349|64:353,1,90.7500027694703,2|0,0:0|0:0,0:0:0:0:
10,211,60169,1,0,0:0:0:0:
179,192,60336,2,0,L|269:179,1,90.7500027694703,8|2,0:0|0:0,0:0:0:0:
422,120,60669,2,0,P|434:164|431:209,2,90.7500027694703,2|0|2,0:0|0:0|0:0,0:0:0:0:
313,38,61169,6,0,L|223:51,1,90.7500027694703,2|0,0:0|0:0,0:0:0:0:
15,125,61503,2,0,P|60:134|100:154,1,90.7500027694703,2|0,0:0|0:0,0:0:0:0:
256,246,61836,1,0,1:0:0:0:
108,316,62003,1,0,0:0:0:0:
100,154,62169,1,2,0:0:0:0:
108,316,62336,1,0,1:0:0:0:
256,246,62503,6,0,P|299:228|345:219,2,90.7500027694703,2|0|2,0:0|0:0|0:0,0:0:0:0:
13,317,63003,2,0,P|0:272|0:225,1,90.7500027694703,2|0,0:0|1:0,0:0:0:0:
0,110,63336,1,0,0:0:0:0:
100,154,63503,1,2,0:0:0:0:
88,46,63669,1,2,0:0:0:0:
306,79,63836,1,0,0:0:0:0:
306,79,64169,5,2,0:0:0:0:
256,246,64336,1,0,0:0:0:0:
185,124,64503,1,0,1:0:0:0:
185,124,64586,1,0,0:0:0:0:
185,124,64669,1,2,0:0:0:0:
355,178,64836,1,2,0:0:0:0:
188,298,65003,1,2,0:0:0:0:
306,79,65169,6,0,P|349:74|396:83,1,90.7500027694703,6|0,0:0|0:0,0:0:0:0:
185,124,65503,1,2,0:0:0:0:
256,246,65669,1,2,0:0:0:0:
256,246,65753,1,2,0:0:0:0:
256,246,65836,1,0,1:0:0:0:
220,33,66003,1,2,0:0:0:0:
142,208,66169,2,0,L|49:201,1,90.7500027694703,2|2,0:0|0:0,0:0:0:0:
59,29,66503,6,0,P|100:108|189:123,1,181.500005538941,2|2,0:0|0:0,0:0:0:0:
185,124,67169,2,0,P|234:116|276:111,1,90.7500027694703,8|2,0:0|0:0,0:0:0:0:
451,67,67503,2,0,P|437:111|434:160,1,90.7500027694703,0|2,0:0|0:0,0:0:0:0:
306,319,67836,6,0,P|289:280|255:245,1,90.7500027694703,2|0,0:0|0:0,0:0:0:0:
142,208,68169,2,0,L|52:205,1,90.7500027694703,2|2,0:0|0:0,0:0:0:0:
185,124,68503,2,0,L|229:105,1,45.3750013847352,0|0,1:0|0:0,0:0:0:0:
185,124,68669,2,0,P|173:76|172:30,1,90.7500027694703,0|2,0:0|0:0,0:0:0:0:
50,97,69003,1,2,0:0:0:0:
142,208,69169,6,0,P|159:258|154:318,2,111.374996601105,2|2|2,0:0|0:0|0:0,0:0:0:0:
142,208,69753,5,0,0:0:0:0:
142,208,69836,2,0,L|49:211,1,90.7500027694703,8|0,0:0|0:0,0:0:0:0:
270,52,70169,2,0,P|266:95|275:141,1,90.7500027694703
342,290,70503,5,2,0:0:0:0:
421,179,70669,1,2,0:0:0:0:
242,251,70836,1,0,0:0:0:0:
270,52,71003,1,8,0:0:0:0:
270,52,71086,1,0,0:0:0:0:
270,52,71169,2,0,P|222:61|179:63,1,90.7500027694703,0|0,1:0|0:0,0:0:0:0:
16,216,71503,2,0,P|64:207|107:205,1,90.7500027694703,0|2,0:0|0:0,0:0:0:0:
142,208,71753,5,0,0:0:0:0:
142,208,71836,1,2,0:0:0:0:
19,299,72003,1,2,0:0:0:0:
70,91,72169,1,2,0:0:0:0:
142,208,72336,1,0,0:0:0:0:
70,91,72503,2,0,P|122:87|159:77,1,90.7500027694703,0|0,1:0|0:0,0:0:0:0:
375,192,72836,2,0,P|329:194|286:207,1,90.7500027694703,2|0,0:0|0:0,0:0:0:0:
108,314,73169,5,2,0:0:0:0:
142,208,73336,1,4,0:0:0:0:
19,299,73503,1,2,0:0:0:0:
233,224,73669,1,2,0:0:0:0:
19,299,73836,2,0,L|108:314,1,90.7500027694703,6|0,0:0|0:0,0:0:0:0:
108,314,74086,1,0,0:0:0:0:
108,314,74169,1,0,0:0:0:0:
169,101,74336,1,2,0:0:0:0:
184,289,74503,6,0,P|190:335|203:377,2,90.7500027694703,0|2|2,1:0|0:0|0:0,0:0:0:0:
169,101,75003,1,2,0:0:0:0:
287,146,75169,2,0,L|423:132,1,136.125004154205,8|2,0:0|0:0,0:0:0:0:
449,130,75503,1,2,0:0:0:0:
323,261,75669,1,2,0:0:0:0:
439,14,75836,1,2,0:0:0:0:
9,356,81169,6,0,P|51:309|119:293,1,132,2|0,0:0|0:0,0:0:0:0:
214,300,81669,1,8,0:0:0:0:
214,300,81836,2,0,L|293:313,1,66,0|2,0:0|0:0,0:0:0:0:
364,258,82169,2,0,P|401:255|427:242,1,66,0|2,0:0|0:0,0:0:0:0:
496,172,82503,1,0,0:0:0:0:
496,172,83169,6,0,P|491:135|489:106,1,66,0|0,1:0|0:0,0:0:0:0:
359,18,83503,2,0,P|363:50|365:83,1,66,0|0,0:0|1:0,0:0:0:0:
329,175,83836,5,2,0:0:0:0:
257,243,84003,2,0,P|221:268|184:281,2,82.5,2|0|0,0:0|0:0|0:0,0:0:0:0:
329,175,84503,1,2,0:0:0:0:
377,261,84669,1,2,0:0:0:0:
283,83,84836,1,2,0:0:0:0:
257,243,85003,1,2,0:0:0:0:
283,83,85169,6,0,L|201:76,1,82.5,2|0,0:0|0:0,0:0:0:0:
364,15,85503,1,2,0:0:0:0:
253,161,85669,2,0,L|258:249,1,82.5,2|0,0:0|0:0,0:0:0:0:
261,367,86003,1,0,0:0:0:0:
377,261,86169,1,2,0:0:0:0:
183,307,86336,1,2,0:0:0:0:
339,147,86503,6,0,P|417:192|506:204,1,181.500005538941,6|0,0:0|0:0,0:0:0:0:
364,15,87003,1,2,0:0:0:0:
364,15,87086,1,2,0:0:0:0:
364,15,87169,2,0,P|318:32|274:41,1,90.7500027694703,0|2,1:0|0:0,0:0:0:0:
64,140,87503,2,0,P|110:146|151:167,1,90.7500027694703,2|2,0:0|0:0,0:0:0:0:
273,218,87836,6,0,P|259:122|278:38,1,181.500005538941,2|2,0:0|0:0,0:0:0:0:
277,40,88336,1,2,0:0:0:0:
377,132,88503,2,0,L|470:124,1,90.7500027694703,8|2,0:0|0:0,0:0:0:0:
273,218,88836,2,0,P|313:237|359:248,1,90.7500027694703,2|0,0:0|1:0,0:0:0:0:
277,40,89169,6,0,P|185:27|103:54,1,181.500005538941,2|2,0:0|0:0,0:0:0:0:
102,54,89669,2,0,B|66:76|59:108|62:132|74:156|109:179|109:179|97:213,1,181.500005538941,2|0,0:0|0:0,0:0:0:0:
99,204,90169,2,0,P|103:301|176:325,1,181.500005538941,6|2,0:0|0:0,0:0:0:0:
306,302,90669,5,2,0:0:0:0:
190,200,90836,2,0,L|99:204,1,90.7500027694703,2|0,0:0|1:0,0:0:0:0:
352,88,91169,1,0,1:0:0:0:
372,79,91253,1,2,0:0:0:0:
392,70,91336,1,2,0:0:0:0:
172,6,91503,2,0,P|200:42|221:87,1,90.7500027694703,2|2,0:0|0:0,0:0:0:0:
306,221,91836,6,0,P|378:170|469:134,1,181.500005538941,6|0,0:0|0:0,0:0:0:0:
266,18,92336,1,8,0:0:0:0:
266,18,92419,1,0,0:0:0:0:
266,18,92503,2,0,L|279:109,1,90.7500027694703,0|2,1:0|0:0,0:0:0:0:
306,221,92836,1,2,0:0:0:0:
392,70,93003,1,2,0:0:0:0:
226,181,93169,6,0,P|139:222|49:228,2,181.500005538941,2|2|0,0:0|0:0|1:0,0:0:0:0:
320,95,94003,1,2,0:0:0:0:
306,221,94169,1,2,0:0:0:0:
266,18,94336,1,2,0:0:0:0:
149,134,94503,6,0,P|107:150|57:152,2,90.7500027694703,0|0|2,0:0|0:0|0:0,0:0:0:0:
266,18,95003,1,2,0:0:0:0:
226,181,95169,1,0,1:0:0:0:
320,95,95336,1,0,0:0:0:0:
149,134,95503,1,2,0:0:0:0:
306,221,95669,1,0,1:0:0:0:
266,18,95836,5,0,0:0:0:0:
226,181,96003,1,2,0:0:0:0:
218,206,96086,1,2,0:0:0:0:
209,232,96169,1,2,0:0:0:0:
70,86,96336,1,0,1:0:0:0:
99,300,96503,1,2,0:0:0:0:
149,134,96669,1,2,0:0:0:0:
13,272,96836,1,2,0:0:0:0:
70,86,97003,1,2,0:0:0:0:
99,300,97169,5,6,0:0:0:0:
99,300,97669,1,0,0:0:0:0:
99,300,97753,1,0,0:0:0:0:
99,300,97836,2,0,L|192:293,1,90.7500027694703,2|2,0:0|0:0,0:0:0:0:
306,221,98169,1,2,0:0:0:0:
271,361,98336,1,2,0:0:0:0:
226,181,98503,5,2,0:0:0:0:
185,332,98669,1,2,0:0:0:0:
306,221,98836,1,2,0:0:0:0:
99,300,99003,2,0,P|50:299|9:306,2,90.7500027694703,2|8|2,0:0|0:0|0:0,0:0:0:0:
271,361,99503,2,0,P|315:375|361:372,1,90.7500027694703,0|0,0:0|1:0,0:0:0:0:
185,332,99836,6,0,P|182:281|165:244,1,90.7500027694703,2|2,0:0|0:0,0:0:0:0:
101,145,100169,1,2,0:0:0:0:
306,221,100336,6,0,P|269:194|225:181,1,90.7500027694703
109,157,100669,1,2,0:0:0:0:
302,88,100836,6,0,P|259:87|215:102,1,90.7500027694703,2|2,0:0|0:0,0:0:0:0:
117,170,101169,1,2,0:0:0:0:
0,84,101336,6,0,L|6:175,1,90.7500027694703,0|2,0:0|0:0,0:0:0:0:
15,320,101669,1,2,0:0:0:0:
125,181,101836,1,2,0:0:0:0:
133,193,101919,1,0,0:0:0:0:
141,206,102003,1,2,0:0:0:0:
252,300,102169,1,0,0:0:0:0:
302,88,102336,1,2,0:0:0:0:
150,218,102503,6,0,L|245:214,1,90.7500027694703,2|0,0:0|0:0,0:0:0:0:
443,135,102836,1,0,0:0:0:0:
372,251,103003,2,0,P|352:292|346:339,1,90.7500027694703,8|0,0:0|0:0,0:0:0:0:
189,384,103336,2,0,P|182:339|162:298,1,90.7500027694703,2|0,0:0|0:0,0:0:0:0:
50,210,103669,2,0,L|145:206,1,90.7500027694703,2|0,0:0|0:0,0:0:0:0:
140,206,104169,6,0,P|120:111|159:38,1,181.500005538941,2|0,0:0|1:0,0:0:0:0:
157,39,104669,1,2,0:0:0:0:
39,122,104836,1,2,0:0:0:0:
230,163,105003,1,2,0:0:0:0:
52,247,105169,6,0,P|56:291|56:344,1,90.7500027694703,2|2,0:0|0:0,0:0:0:0:
39,122,105503,1,0,0:0:0:0:
230,163,105669,1,0,1:0:0:0:
230,163,105753,1,0,1:0:0:0:
230,163,105836,1,0,1:0:0:0:
52,247,106003,1,2,0:0:0:0:
243,288,106169,1,0,0:0:0:0:
70,373,106336,1,2,0:0:0:0:
142,207,106503,1,0,1:0:0:0:
70,373,106669,6,0,P|142:302|242:288,1,206.25,2|2,0:0|0:0,0:0:0:0:
243,288,107086,1,2,0:0:0:0:
243,288,107169,1,2,0:0:0:0:
60,153,107336,6,0,P|18:125|1:85,1,92.812503540516,2|0,0:0|0:0,0:0:0:0:
78,77,107669,6,0,B|126:109|207:50|271:67,1,197.99999395752,6|2,0:0|0:0,0:0:0:0:
420,83,108169,1,2,0:0:0:0:
314,206,108336,1,2,0:0:0:0:
314,206,108419,1,0,0:0:0:0:
314,206,108503,1,8,0:0:0:0:
339,44,108669,1,2,0:0:0:0:
231,165,108836,2,0,P|187:182|141:182,1,90.7500027694703,2|2,0:0|0:0,0:0:0:0:
0,314,109169,6,0,P|44:297|90:297,1,90.7500027694703,2|2,0:0|0:0,0:0:0:0:
245,336,109503,1,0,1:0:0:0:
143,182,109669,5,2,0:0:0:0:
133,167,110003,1,2,0:0:0:0:
122,151,110336,2,0,L|75:151,1,45.3750013847352,2|0,0:0|0:0,0:0:0:0:
226,85,110503,6,0,P|272:82|314:68,1,90.7500027694703,0|0,0:0|1:0,0:0:0:0:
345,48,110753,1,0,1:0:0:0:
345,48,110836,1,0,1:0:0:0:
252,247,111003,2,0,P|241:294|245:337,1,90.7500027694703,2|2,0:0|0:0,0:0:0:0:
376,210,111336,1,2,0:0:0:0:
252,247,111503,1,0,1:0:0:0:
134,279,111669,1,2,0:0:0:0:
238,166,111836,5,2,0:0:0:0:
269,328,112003,1,2,0:0:0:0:
376,210,112169,1,2,0:0:0:0:
134,279,112336,1,2,0:0:0:0:
91,111,112503,5,0,1:0:0:0:
91,84,112586,1,0,0:0:0:0:
101,59,112669,1,0,0:0:0:0:
118,38,112753,1,0,0:0:0:0:
141,25,112836,2,0,P|188:23|236:16,1,90.7500027694703,0|2,1:0|0:0,0:0:0:0:
470,124,113169,6,0,P|423:126|375:133,1,90.7500027694703,2|0,0:0|0:0,0:0:0:0:
238,166,113503,1,2,0:0:0:0:
328,279,113669,2,0,P|336:325|330:368,1,90.7500027694703,0|0,0:0|1:0,0:0:0:0:
134,279,114003,2,0,P|96:304|51:315,2,90.7500027694703,0|0|2,0:0|0:0|0:0,0:0:0:0:
238,166,114503,6,0,P|238:117|234:75,1,90.7500027694703,2|0,0:0|0:0,0:0:0:0:
402,6,114836,2,0,P|401:50|406:97,1,90.7500027694703,2|0,0:0|0:0,0:0:0:0:
328,279,115169,1,0,1:0:0:0:
485,189,115336,1,2,0:0:0:0:
321,174,115503,1,2,0:0:0:0:
480,85,115669,1,0,0:0:0:0:
328,279,115836,6,0,L|235:273,1,90.7500027694703,2|0,0:0|1:0,0:0:0:0:
200,271,116086,1,0,1:0:0:0:
200,271,116169,1,0,1:0:0:0:
399,216,116336,2,0,P|447:207|486:189,1,90.7500027694703,2|0,0:0|1:0,0:0:0:0:
238,166,116669,1,0,1:0:0:0:
480,85,116836,1,0,1:0:0:0:
480,85,116919,1,0,1:0:0:0:
480,85,117003,1,0,1:0:0:0:
399,216,117169,5,2,0:0:0:0:
316,86,117336,1,2,0:0:0:0:
485,189,117503,1,2,0:0:0:0:
328,279,117669,1,2,0:0:0:0:
165,198,117836,2,0,P|122:181|75:173,1,90.7500027694703,2|0,0:0|1:0,0:0:0:0:
41,172,118086,1,0,1:0:0:0:
41,172,118169,1,0,1:0:0:0:
316,86,118336,5,0,1:0:0:0:
316,86,118419,1,0,1:0:0:0:
316,86,118503,2,0,B|367:152|426:26|484:89,1,181.500005538941,6|0,0:0|0:0,0:0:0:0:
328,279,119003,1,0,0:0:0:0:
315,292,119086,1,0,0:0:0:0:
302,305,119169,2,0,L|212:298,1,90.7500027694703,0|2,1:0|0:0,0:0:0:0:
57,282,119503,2,0,P|66:321|71:377,1,90.7500027694703,0|2,0:0|0:0,0:0:0:0:
165,165,119836,6,0,P|223:105|317:86,1,181.500005538941,2|2,0:0|0:0,0:0:0:0:
316,85,120503,1,8,0:0:0:0:
261,259,120669,5,2,0:0:0:0:
254,276,120753,1,0,0:0:0:0:
248,293,120836,1,0,0:0:0:0:
242,310,120919,1,0,0:0:0:0:
236,327,121003,1,0,0:0:0:0:
230,344,121086,1,0,0:0:0:0:
224,361,121169,6,0,P|180:340|136:330,1,90.7500027694703,2|0,0:0|0:0,0:0:0:0:
0,304,121503,1,2,0:0:0:0:
142,223,121669,2,0,P|165:229|190:233,1,45.3750013847352,2|0,0:0|0:0,0:0:0:0:
262,178,121836,2,0,P|308:176|353:160,1,90.7500027694703,0|2,1:0|0:0,0:0:0:0:
499,93,122169,1,2,0:0:0:0:
431,260,122336,1,2,0:0:0:0:
431,260,122503,6,0,P|391:280|346:290,1,90.7500027694703,2|2,0:0|0:0,0:0:0:0:
264,280,122753,2,0,P|207:244|140:223,1,136.125004154205,2|2,0:0|0:0,0:0:0:0:
6,201,123169,1,0,1:0:0:0:
90,95,123336,1,0,0:0:0:0:
90,95,123419,1,0,0:0:0:0:
90,95,123503,1,2,0:0:0:0:
51,284,123669,1,0,1:0:0:0:
172,189,123836,6,0,L|264:178,1,90.7500027694703,2|0,0:0|0:0,0:0:0:0:
440,139,124169,2,0,P|418:181|410:224,1,90.7500027694703,0|8,0:0|0:0,0:0:0:0:
301,361,124503,2,0,P|285:314|262:278,1,90.7500027694703,2|2,0:0|0:0,0:0:0:0:
172,189,124836,1,2,0:0:0:0:
264,101,125003,1,2,0:0:0:0:
172,189,125169,6,0,P|128:203|76:206,1,90.7500027694703,2|0,0:0|0:0,0:0:0:0:
355,108,125503,2,0,P|396:120|441:140,1,90.7500027694703,2|2,0:0|0:0,0:0:0:0:
144,65,125836,1,0,1:0:0:0:
172,189,126003,1,2,0:0:0:0:
264,101,126169,1,2,0:0:0:0:
51,152,126336,1,0,1:0:0:0:
144,65,126503,5,6,0:0:0:0:
80,270,126669,1,2,0:0:0:0:
80,270,127003,1,2,0:0:0:0:
264,101,127169,1,2,0:0:0:0:
9,333,127503,5,6,0:0:0:0:
