osu file format v13

[General]
AudioFilename: ten thousand tons of anonymous letters.mp3
AudioLeadIn: 0
PreviewTime: 76362
Countdown: 0
SampleSet: Normal
StackLeniency: 0.7
Mode: 0
LetterboxInBreaks: 1
WidescreenStoryboard: 0

[Editor]
Bookmarks: 14760,33510,38010,40510,43510
DistanceSpacing: 0.7
BeatDivisor: 4
GridSize: 32
TimelineZoom: 1

[Metadata]
Title:ten thousand tons of anonymous letters(instrumental)
TitleUnicode:万吨匿名信(instumental)
Artist:mai zang
ArtistUnicode:埋葬
Creator:Kochiya Sanya
Version:loser
Source:
Tags:
BeatmapID:436460
BeatmapSetID:181928

[Difficulty]
HPDrainRate:7
CircleSize:4
OverallDifficulty:7
ApproachRate:8
SliderMultiplier:1.8
SliderTickRate:1

[Events]
//Background and Video events
0,0,"51029e9143225.jpg",0,0
//Break Periods
2,54200,61250
//Storyboard Layer 0 (Background)
//Storyboard Layer 1 (Fail)
//Storyboard Layer 2 (Pass)
//Storyboard Layer 3 (Foreground)
//Storyboard Sound Samples
//Background Colour Transformations
3,100,163,162,255

[TimingPoints]
10000,500,4,2,0,75,1,0
37990,-100,4,1,0,75,0,1
40500,-100,4,2,0,75,0,0
41000,-100,4,2,0,75,0,0
46000,-100,4,1,0,75,0,1
52000,-100,4,1,0,75,0,0
54000,-100,4,1,0,40,0,0
62000,-133.333333333333,4,2,0,60,0,0
94000,-100,4,1,0,75,0,0
126000,-80,4,1,0,90,0,1
152000,-80,4,1,0,60,0,0

[HitObjects]
88,64,9990,6,0,L|184:128,1,90
162,113,10375,1,0,0:0:0:0:
162,113,10500,1,8,0:0:0:0:
252,66,10750,1,0,0:0:0:0:
278,83,10875,1,0,0:0:0:0:
305,101,11000,1,0,0:0:0:0:
357,254,11250,1,2,0:0:0:0:
201,211,11500,1,8,0:0:0:0:
128,261,12000,6,0,L|224:197,1,90
202,211,12375,1,0,0:0:0:0:
202,211,12500,1,8,0:0:0:0:
309,132,12750,1,2,0:0:0:0:
246,53,13000,1,0,0:0:0:0:
225,76,13125,1,0,0:0:0:0:
212,104,13250,1,0,0:0:0:0:
208,136,13375,1,0,0:0:0:0:
214,166,13500,1,8,0:0:0:0:
214,166,13750,5,0,0:0:0:0:
412,131,14000,1,0,0:0:0:0:
412,131,14250,1,0,0:0:0:0:
423,160,14375,1,0,0:0:0:0:
420,191,14500,1,8,0:0:0:0:
307,229,14750,1,0,0:0:0:0:
294,258,14875,1,0,0:0:0:0:
271,279,15000,1,0,0:0:0:0:
177,227,15250,2,2,L|176:169,1,45
83,277,15625,2,2,L|81:337,1,45
86,81,16000,6,0,P|156:128|248:116,1,180,0|8,0:0|0:0,0:0:0:0:
276,104,16625,1,2,0:0:0:0:
304,90,16750,1,2,0:0:0:0:
332,77,16875,1,2,0:0:0:0:
434,166,17250,1,0,0:0:0:0:
346,230,17500,1,8,0:0:0:0:
424,305,17750,1,0,0:0:0:0:
180,217,18000,6,0,L|101:157,1,90
84,142,18375,1,0,0:0:0:0:
58,123,18500,1,8,0:0:0:0:
145,55,18750,1,0,0:0:0:0:
169,74,18875,1,0,0:0:0:0:
194,92,19000,1,0,0:0:0:0:
365,155,19250,1,2,0:0:0:0:
197,221,19500,1,10,0:0:0:0:
360,296,19750,1,2,0:0:0:0:
134,297,20000,5,0,0:0:0:0:
134,297,20250,1,0,0:0:0:0:
115,271,20375,1,0,0:0:0:0:
97,244,20500,1,8,0:0:0:0:
102,136,20750,1,0,0:0:0:0:
130,151,20875,1,0,0:0:0:0:
160,161,21000,1,0,0:0:0:0:
191,168,21125,1,0,0:0:0:0:
222,169,21250,1,0,0:0:0:0:
253,166,21375,1,0,0:0:0:0:
284,158,21500,1,8,0:0:0:0:
313,146,21625,1,0,0:0:0:0:
340,130,21750,1,0,0:0:0:0:
222,78,22000,6,0,L|222:183,1,90,0|0,0:0|0:0,0:0:0:0:
222,169,22375,1,0,0:0:0:0:
222,169,22500,1,8,0:0:0:0:
112,181,22750,1,0,0:0:0:0:
101,210,22875,1,0,0:0:0:0:
107,241,23000,1,0,0:0:0:0:
239,300,23250,1,2,0:0:0:0:
287,166,23500,1,10,0:0:0:0:
403,91,23750,1,0,0:0:0:0:
414,121,23875,1,0,0:0:0:0:
408,151,24000,1,0,0:0:0:0:
282,216,24375,6,2,L|245:275,1,45,0|8,0:0|0:0,0:0:0:0:
183,224,24625,2,2,L|218:176,1,45
138,151,24875,2,2,L|101:210,1,45
231,66,25375,1,0,0:0:0:0:
255,87,25500,1,8,0:0:0:0:
285,98,25625,1,0,0:0:0:0:
316,98,25750,1,0,0:0:0:0:
406,158,26000,6,0,P|401:198|363:239,1,90
369,235,26375,1,0,0:0:0:0:
369,235,26500,1,8,0:0:0:0:
269,196,26750,1,0,0:0:0:0:
248,219,26875,1,0,0:0:0:0:
219,231,27000,1,0,0:0:0:0:
85,158,27250,1,2,0:0:0:0:
205,62,27500,1,10,0:0:0:0:
219,231,27750,1,2,0:0:0:0:
396,124,28000,5,0,0:0:0:0:
396,124,28250,1,0,0:0:0:0:
396,155,28375,1,0,0:0:0:0:
397,186,28500,1,8,0:0:0:0:
294,154,28750,1,0,0:0:0:0:
278,126,28875,1,0,0:0:0:0:
255,105,29000,1,0,0:0:0:0:
227,91,29125,1,0,0:0:0:0:
196,85,29250,1,0,0:0:0:0:
165,89,29375,1,0,0:0:0:0:
138,106,29500,2,0,L|94:137,1,45,8|0,0:0|0:0,0:0:0:0:
171,180,29750,2,0,L|137:233,1,45
243,217,30000,5,2,0:0:0:0:
350,236,30250,1,0,0:0:0:0:
346,267,30375,1,0,0:0:0:0:
332,295,30500,1,8,0:0:0:0:
226,282,30750,2,0,L|170:253,2,45
81,204,31250,2,0,L|133:162,2,45,0|0|8,0:0|0:0|0:0,0:0:0:0:
56,71,31750,1,0,0:0:0:0:
80,97,31875,1,0,0:0:0:0:
113,111,32000,1,0,0:0:0:0:
148,112,32125,1,0,0:0:0:0:
183,104,32250,1,0,0:0:0:0:
217,91,32375,1,0,0:0:0:0:
252,83,32500,1,8,0:0:0:0:
288,85,32625,1,0,0:0:0:0:
321,100,32750,1,0,0:0:0:0:
346,125,32875,1,0,0:0:0:0:
367,148,33000,1,0,0:0:0:0:
134,258,33500,5,0,0:0:0:0:
161,238,33625,1,0,0:0:0:0:
180,210,33750,1,0,0:0:0:0:
190,178,33875,1,0,0:0:0:0:
189,144,34000,1,8,0:0:0:0:
177,113,34125,1,0,0:0:0:0:
157,87,34250,1,0,0:0:0:0:
380,86,34500,5,0,0:0:0:0:
354,107,34625,1,0,0:0:0:0:
336,135,34750,1,0,0:0:0:0:
328,168,34875,1,0,0:0:0:0:
331,202,35000,1,8,0:0:0:0:
344,232,35125,1,0,0:0:0:0:
366,258,35250,1,0,0:0:0:0:
155,264,35500,6,0,L|114:202,1,45
194,188,35750,2,0,L|240:160,1,45
140,125,36000,2,0,L|99:63,1,45,8|0,0:0|0:0,0:0:0:0:
198,71,36250,1,2,0:0:0:0:
352,77,36500,6,0,L|393:139,1,45
313,153,36750,2,0,L|267:181,1,45
367,216,37000,2,0,L|408:278,1,45,8|0,0:0|0:0,0:0:0:0:
309,270,37250,1,2,0:0:0:0:
188,257,37500,1,0,0:0:0:0:
167,229,37625,1,0,0:0:0:0:
137,194,37750,1,0,0:0:0:0:
161,166,37875,1,0,0:0:0:0:
189,132,38000,1,8,0:0:0:0:
192,257,38250,5,0,0:0:0:0:
192,257,38375,1,0,0:0:0:0:
191,131,38625,1,0,0:0:0:0:
189,132,38750,1,0,0:0:0:0:
317,130,39000,1,8,0:0:0:0:
317,130,39125,1,0,0:0:0:0:
317,256,39375,1,0,0:0:0:0:
170,277,39625,5,0,0:0:0:0:
170,106,39875,1,0,0:0:0:0:
341,106,40125,1,0,0:0:0:0:
341,106,40250,1,0,0:0:0:0:
341,277,40500,1,0,0:0:0:0:
256,192,41000,5,2,0:0:0:0:
256,192,41125,1,2,0:0:0:0:
256,192,41375,1,2,0:0:0:0:
256,192,41625,1,2,0:0:0:0:
104,100,42000,5,8,0:0:0:0:
104,100,42125,1,0,0:0:0:0:
104,100,42250,1,0,0:0:0:0:
42,186,42500,1,0,0:0:0:0:
78,203,42625,1,0,0:0:0:0:
118,205,42750,1,0,0:0:0:0:
156,192,42875,1,0,0:0:0:0:
187,166,43000,1,8,0:0:0:0:
205,130,43125,1,0,0:0:0:0:
209,90,43250,1,0,0:0:0:0:
302,90,43500,5,0,0:0:0:0:
306,130,43625,1,0,0:0:0:0:
324,166,43750,1,0,0:0:0:0:
355,192,43875,1,0,0:0:0:0:
393,205,44000,1,8,0:0:0:0:
433,203,44125,1,0,0:0:0:0:
470,186,44250,1,0,0:0:0:0:
377,314,44500,5,0,0:0:0:0:
337,314,44625,1,0,0:0:0:0:
296,314,44750,1,0,0:0:0:0:
256,314,44875,1,0,0:0:0:0:
215,314,45000,1,8,0:0:0:0:
175,314,45125,1,0,0:0:0:0:
134,314,45250,1,0,0:0:0:0:
173,214,45500,5,0,0:0:0:0:
213,214,45625,1,0,0:0:0:0:
254,214,45750,1,0,0:0:0:0:
294,214,45875,1,0,0:0:0:0:
335,214,46000,1,8,0:0:0:0:
256,274,46250,5,0,0:0:0:0:
256,274,46375,1,0,0:0:0:0:
173,192,46625,1,0,0:0:0:0:
173,192,46750,1,0,0:0:0:0:
256,109,47000,1,0,0:0:0:0:
256,109,47125,1,0,0:0:0:0:
338,192,47375,1,0,0:0:0:0:
240,127,47625,5,0,0:0:0:0:
167,218,47875,1,0,0:0:0:0:
319,231,48125,1,0,0:0:0:0:
319,231,48250,1,0,0:0:0:0:
226,97,48500,5,0,0:0:0:0:
136,226,48750,1,0,0:0:0:0:
343,250,49000,1,0,0:0:0:0:
343,250,49125,1,0,0:0:0:0:
204,77,49375,5,0,0:0:0:0:
108,236,49625,1,0,0:0:0:0:
369,270,49875,1,0,0:0:0:0:
369,270,50000,1,0,0:0:0:0:
178,51,50250,5,0,0:0:0:0:
78,245,50500,1,0,0:0:0:0:
398,290,50750,1,0,0:0:0:0:
398,290,50875,1,0,0:0:0:0:
154,27,51125,5,0,0:0:0:0:
41,255,51375,1,0,0:0:0:0:
428,311,51625,1,0,0:0:0:0:
428,311,51750,1,0,0:0:0:0:
256,192,52000,12,0,54000,0:0:0:0:
72,66,62000,6,0,P|112:121|191:139,1,135.000005149842,0|8,0:0|0:0,0:0:0:0:
301,113,62750,1,0,0:0:0:0:
404,136,63000,2,0,P|365:199|283:204,1,135.000005149842,0|8,0:0|0:0,0:0:0:0:
208,179,63750,1,0,0:0:0:0:
127,250,64000,1,0,0:0:0:0:
232,272,64250,1,0,0:0:0:0:
154,347,64500,1,8,0:0:0:0:
370,160,65000,5,0,0:0:0:0:
370,160,65125,1,0,0:0:0:0:
370,160,65250,2,0,P|372:191|365:229,1,67.5000025749208,0|8,0:0|0:0,0:0:0:0:
299,319,65750,1,0,0:0:0:0:
195,349,66000,2,0,P|161:351|126:336,1,67.5000025749208
40,227,66500,2,0,P|75:246|118:246,1,67.5000025749208,8|0,0:0|0:0,0:0:0:0:
205,166,67000,2,0,P|165:165|136:153,1,67.5000025749208
43,41,67500,2,0,P|74:59|121:60,1,67.5000025749208,8|0,0:0|0:0,0:0:0:0:
315,51,68000,5,2,0:0:0:0:
123,149,68500,1,8,0:0:0:0:
271,226,68750,1,0,0:0:0:0:
374,195,69000,1,0,0:0:0:0:
445,113,69250,1,2,0:0:0:0:
345,218,69500,1,10,0:0:0:0:
188,248,69750,1,2,0:0:0:0:
77,58,70000,6,0,P|97:120|156:152,1,135.000005149842,0|8,0:0|0:0,0:0:0:0:
187,54,70750,1,0,0:0:0:0:
435,58,71000,2,0,P|398:136|336:152,1,135.000005149842,0|8,0:0|0:0,0:0:0:0:
325,54,71750,1,0,0:0:0:0:
168,230,72000,1,2,0:0:0:0:
152,255,72500,1,8,0:0:0:0:
128,293,73000,5,0,0:0:0:0:
152,255,73125,1,0,0:0:0:0:
168,230,73250,1,0,0:0:0:0:
95,150,73500,1,8,0:0:0:0:
189,98,73750,1,0,0:0:0:0:
283,150,74000,2,0,L|349:108,1,67.5000025749208
368,196,74500,2,0,L|290:243,1,67.5000025749208,8|0,0:0|0:0,0:0:0:0:
229,150,75000,2,0,L|173:111,1,67.5000025749208
132,200,75500,2,0,L|197:240,1,67.5000025749208,8|0,0:0|0:0,0:0:0:0:
359,290,76000,5,2,0:0:0:0:
174,305,76500,1,8,0:0:0:0:
67,232,76750,1,0,0:0:0:0:
156,86,77250,1,0,0:0:0:0:
299,139,77500,1,8,0:0:0:0:
356,298,77750,1,0,0:0:0:0:
72,318,78000,6,0,P|102:251|176:235,1,135.000005149842,0|8,0:0|0:0,0:0:0:0:
301,271,78750,1,0,0:0:0:0:
404,248,79000,2,0,P|368:190|308:169,1,135.000005149842,0|8,0:0|0:0,0:0:0:0:
206,196,79750,1,0,0:0:0:0:
125,125,80000,1,0,0:0:0:0:
230,103,80250,1,0,0:0:0:0:
152,28,80500,1,8,0:0:0:0:
370,224,81000,5,0,0:0:0:0:
370,224,81125,1,0,0:0:0:0:
370,224,81250,2,0,P|390:193|386:148,1,67.5000025749208,0|8,0:0|0:0,0:0:0:0:
316,76,81750,1,0,0:0:0:0:
203,36,82000,2,0,P|154:35|124:55,1,67.5000025749208
29,173,82500,2,0,P|69:141|110:149,1,67.5000025749208,8|0,0:0|0:0,0:0:0:0:
198,217,83000,2,0,P|149:216|121:237,1,67.5000025749208
32,347,83500,2,0,P|78:314|116:320,1,67.5000025749208,8|0,0:0|0:0,0:0:0:0:
232,352,84000,5,2,0:0:0:0:
123,235,84500,1,8,0:0:0:0:
271,158,84750,1,0,0:0:0:0:
374,189,85000,1,0,0:0:0:0:
445,271,85250,1,2,0:0:0:0:
345,166,85500,1,10,0:0:0:0:
188,136,85750,1,2,0:0:0:0:
435,58,86000,6,0,P|398:136|328:158,1,135.000005149842,0|8,0:0|0:0,0:0:0:0:
325,54,86750,1,0,0:0:0:0:
77,58,87000,2,0,P|96:120|158:150,1,135.000005149842,0|8,0:0|0:0,0:0:0:0:
187,54,87750,1,0,0:0:0:0:
344,230,88000,1,2,0:0:0:0:
360,255,88500,1,8,0:0:0:0:
384,293,89000,5,0,0:0:0:0:
360,255,89125,1,0,0:0:0:0:
344,230,89250,1,0,0:0:0:0:
417,150,89500,1,8,0:0:0:0:
323,98,89750,1,0,0:0:0:0:
229,150,90000,2,0,L|154:97,1,67.5000025749208
133,204,90500,2,0,L|191:245,1,67.5000025749208,8|0,0:0|0:0,0:0:0:0:
188,243,90875,1,2,0:0:0:0:
188,243,91000,5,2,0:0:0:0:
309,220,91250,1,0,0:0:0:0:
364,127,91500,1,8,0:0:0:0:
307,34,91750,1,0,0:0:0:0:
112,97,92000,1,2,0:0:0:0:
112,97,92500,1,8,0:0:0:0:
112,287,92750,1,0,0:0:0:0:
114,192,93000,2,0,B|152:166|152:166|173:194|173:194|208:164|208:164|240:200|240:200|310:200,1,236.250009012223
301,200,94000,5,0,0:0:0:0:
345,293,94250,1,0,0:0:0:0:
314,312,94375,1,0,0:0:0:0:
282,329,94500,1,8,0:0:0:0:
177,276,94750,1,0,0:0:0:0:
210,257,94875,1,0,0:0:0:0:
240,240,95000,1,0,0:0:0:0:
188,134,95250,1,0,0:0:0:0:
316,244,95500,1,8,0:0:0:0:
397,86,96000,6,0,L|310:149,1,90
297,163,96375,1,0,0:0:0:0:
268,184,96500,1,8,0:0:0:0:
170,104,96750,1,0,0:0:0:0:
72,258,97000,1,0,0:0:0:0:
170,104,97250,1,0,0:0:0:0:
263,265,97500,1,8,0:0:0:0:
115,320,98000,6,0,L|184:256,1,90
180,258,98375,1,0,0:0:0:0:
180,258,98500,1,8,0:0:0:0:
283,331,98750,1,0,0:0:0:0:
309,306,98875,1,0,0:0:0:0:
335,282,99000,1,0,0:0:0:0:
278,169,99250,1,0,0:0:0:0:
219,88,99500,1,8,0:0:0:0:
103,242,99750,1,0,0:0:0:0:
164,315,100000,1,0,0:0:0:0:
419,146,100500,5,8,0:0:0:0:
395,173,100625,1,0,0:0:0:0:
370,199,100750,1,0,0:0:0:0:
340,219,100875,2,0,P|255:251|193:248,1,135
211,251,101500,1,8,0:0:0:0:
107,199,101750,1,0,0:0:0:0:
110,53,102000,6,0,L|188:119,1,90
206,133,102375,1,0,0:0:0:0:
232,156,102500,1,8,0:0:0:0:
362,193,102750,1,0,0:0:0:0:
338,220,102875,1,0,0:0:0:0:
322,239,103000,1,0,0:0:0:0:
207,124,103250,1,0,0:0:0:0:
92,238,103500,1,8,0:0:0:0:
207,353,103750,1,0,0:0:0:0:
338,220,104000,6,0,L|245:152,1,90
235,146,104375,1,0,0:0:0:0:
207,124,104500,1,8,0:0:0:0:
115,277,104750,1,0,0:0:0:0:
143,248,104875,1,0,0:0:0:0:
181,227,105000,1,0,0:0:0:0:
221,248,105125,1,0,0:0:0:0:
261,268,105250,1,0,0:0:0:0:
302,249,105375,1,0,0:0:0:0:
342,229,105500,1,8,0:0:0:0:
378,251,105625,1,0,0:0:0:0:
412,280,105750,1,0,0:0:0:0:
412,84,106000,6,0,L|330:153,1,90
343,141,106375,1,0,0:0:0:0:
343,141,106500,1,8,0:0:0:0:
160,144,106750,1,0,0:0:0:0:
187,121,106875,1,0,0:0:0:0:
215,98,107000,1,0,0:0:0:0:
227,224,107250,2,0,L|178:269,2,45,0|0|8,0:0|0:0|0:0,0:0:0:0:
302,298,107750,1,0,0:0:0:0:
275,322,107875,1,0,0:0:0:0:
247,345,108000,5,0,0:0:0:0:
126,308,108250,1,0,0:0:0:0:
15,247,108500,1,8,0:0:0:0:
43,218,108625,1,0,0:0:0:0:
79,199,108750,1,0,0:0:0:0:
119,191,108875,1,0,0:0:0:0:
159,194,109000,1,0,0:0:0:0:
275,244,109250,5,0,0:0:0:0:
304,272,109375,1,0,0:0:0:0:
340,291,109500,1,8,0:0:0:0:
380,299,109625,1,0,0:0:0:0:
420,296,109750,1,0,0:0:0:0:
386,174,110000,6,0,L|438:79,1,90
429,95,110375,1,0,0:0:0:0:
429,95,110500,1,8,0:0:0:0:
386,174,110750,1,0,0:0:0:0:
386,174,110875,1,0,0:0:0:0:
386,174,111000,1,0,0:0:0:0:
265,210,111250,1,0,0:0:0:0:
140,107,111500,1,8,0:0:0:0:
140,311,111750,1,0,0:0:0:0:
265,210,112000,6,0,L|356:210,1,90
355,210,112375,1,0,0:0:0:0:
355,210,112500,1,8,0:0:0:0:
265,210,112750,1,0,0:0:0:0:
229,210,112875,1,0,0:0:0:0:
193,210,113000,1,0,0:0:0:0:
157,211,113125,1,0,0:0:0:0:
121,211,113250,1,0,0:0:0:0:
85,213,113375,1,0,0:0:0:0:
58,188,113500,1,8,0:0:0:0:
33,161,113625,1,0,0:0:0:0:
35,125,113750,1,0,0:0:0:0:
36,89,113875,1,0,0:0:0:0:
38,53,114000,1,8,0:0:0:0:
150,106,114250,5,0,0:0:0:0:
150,106,114375,1,0,0:0:0:0:
150,106,114500,1,0,0:0:0:0:
267,61,114750,5,0,0:0:0:0:
267,61,114875,1,0,0:0:0:0:
267,61,115000,1,8,0:0:0:0:
377,120,115250,5,0,0:0:0:0:
377,120,115375,1,0,0:0:0:0:
377,120,115500,1,0,0:0:0:0:
445,225,115750,5,0,0:0:0:0:
445,225,115875,1,0,0:0:0:0:
445,225,116000,2,0,P|396:279|341:298,1,90,8|0,0:0|0:0,0:0:0:0:
347,298,116375,1,0,0:0:0:0:
312,306,116500,1,0,0:0:0:0:
201,128,116750,5,0,0:0:0:0:
282,228,117000,1,8,0:0:0:0:
90,108,117250,1,2,0:0:0:0:
239,335,117500,1,2,0:0:0:0:
239,335,118000,6,0,L|323:282,1,90,8|0,0:0|0:0,0:0:0:0:
344,266,118375,1,0,0:0:0:0:
374,246,118500,1,8,0:0:0:0:
239,335,118750,1,0,0:0:0:0:
203,336,118875,1,0,0:0:0:0:
167,336,119000,1,8,0:0:0:0:
94,208,119250,1,2,0:0:0:0:
308,199,119500,5,8,0:0:0:0:
207,123,119750,1,0,0:0:0:0:
178,145,119875,1,0,0:0:0:0:
148,166,120000,1,8,0:0:0:0:
52,53,120250,5,0,0:0:0:0:
33,93,120375,1,0,0:0:0:0:
27,138,120500,1,8,0:0:0:0:
35,182,120625,1,0,0:0:0:0:
56,222,120750,1,0,0:0:0:0:
88,254,120875,1,0,0:0:0:0:
127,274,121000,1,8,0:0:0:0:
171,283,121125,1,0,0:0:0:0:
216,277,121250,1,0,0:0:0:0:
257,259,121375,1,0,0:0:0:0:
290,230,121500,1,8,0:0:0:0:
187,158,121750,1,0,0:0:0:0:
290,230,122000,6,0,L|366:158,1,90,8|0,0:0|0:0,0:0:0:0:
355,168,122375,1,0,0:0:0:0:
355,168,122500,1,8,0:0:0:0:
290,230,122750,1,0,0:0:0:0:
290,230,122875,1,0,0:0:0:0:
290,230,123000,1,8,0:0:0:0:
138,111,123250,1,2,0:0:0:0:
103,297,123500,1,8,0:0:0:0:
236,272,123750,5,0,0:0:0:0:
265,251,123875,1,0,0:0:0:0:
294,230,124000,2,0,L|381:166,1,90,8|0,0:0|0:0,0:0:0:0:
290,230,124500,1,8,0:0:0:0:
269,201,124625,1,0,0:0:0:0:
245,173,124750,1,0,0:0:0:0:
136,94,125000,1,8,0:0:0:0:
118,126,125125,1,0,0:0:0:0:
101,158,125250,1,0,0:0:0:0:
84,190,125375,1,0,0:0:0:0:
67,221,125500,1,8,0:0:0:0:
152,313,125750,6,0,L|206:311,1,45,0|0,0:0|0:0,0:0:0:0:
196,311,126000,2,0,L|311:311,1,112.5,8|0,0:0|0:0,0:0:0:0:
348,310,126375,1,0,0:0:0:0:
387,309,126500,1,8,0:0:0:0:
141,200,126750,6,0,L|197:200,1,56.25,8|0,0:0|0:0,0:0:0:0:
198,200,127000,2,0,L|312:199,1,112.5,8|8,0:0|0:0,0:0:0:0:
349,199,127375,1,0,0:0:0:0:
388,197,127500,1,8,0:0:0:0:
382,75,127750,1,0,0:0:0:0:
347,102,127875,1,0,0:0:0:0:
309,126,128000,1,8,0:0:0:0:
383,309,128250,5,0,0:0:0:0:
347,282,128375,1,0,0:0:0:0:
309,258,128500,1,8,0:0:0:0:
271,233,128625,1,0,0:0:0:0:
234,206,128750,1,8,0:0:0:0:
198,179,128875,2,0,L|166:156,2,28.125,0|0|8,0:0|0:0|0:0,0:0:0:0:
152,235,129125,2,0,L|96:195,2,56.25,0|8|0,0:0|0:0|0:0,0:0:0:0:
188,262,129500,5,8,0:0:0:0:
309,319,129750,1,0,0:0:0:0:
376,164,130000,1,8,0:0:0:0:
281,68,130250,2,0,L|234:109,1,56.25,8|0,0:0|0:0,0:0:0:0:
238,104,130500,2,0,L|147:178,1,112.5,8|8,0:0|0:0,0:0:0:0:
114,202,130875,1,0,0:0:0:0:
77,228,131000,1,8,0:0:0:0:
238,104,131250,1,0,0:0:0:0:
152,175,131500,1,8,0:0:0:0:
254,253,131750,5,0,0:0:0:0:
283,278,131875,1,0,0:0:0:0:
315,303,132000,2,0,L|430:303,1,112.5,8|0,0:0|0:0,0:0:0:0:
370,206,132500,1,8,0:0:0:0:
370,206,132625,1,0,0:0:0:0:
370,206,132750,1,8,0:0:0:0:
298,126,133000,1,8,0:0:0:0:
278,172,133125,1,0,0:0:0:0:
241,206,133250,1,8,0:0:0:0:
194,223,133375,1,0,0:0:0:0:
144,220,133500,1,8,0:0:0:0:
76,71,133750,5,0,0:0:0:0:
76,71,133875,1,0,0:0:0:0:
76,71,134000,2,0,L|76:209,1,112.5,8|0,0:0|0:0,0:0:0:0:
76,183,134375,1,0,0:0:0:0:
76,183,134500,1,8,0:0:0:0:
224,127,134750,2,0,L|276:162,1,56.25
224,127,135000,2,0,L|228:64,1,56.25,8|0,0:0|0:0,0:0:0:0:
224,127,135250,2,0,L|167:154,1,56.25
224,127,135500,1,8,0:0:0:0:
361,173,135750,5,0,0:0:0:0:
325,201,135875,1,0,0:0:0:0:
288,228,136000,2,0,L|184:300,1,112.5,8|0,0:0|0:0,0:0:0:0:
159,319,136375,1,0,0:0:0:0:
123,346,136500,1,8,0:0:0:0:
194,293,136750,1,0,0:0:0:0:
232,269,136875,1,0,0:0:0:0:
268,242,137000,1,8,0:0:0:0:
95,136,137250,1,2,0:0:0:0:
279,50,137500,1,2,0:0:0:0:
402,135,137750,1,0,0:0:0:0:
419,272,138000,6,0,L|290:195,1,112.5,8|0,0:0|0:0,0:0:0:0:
322,214,138375,1,0,0:0:0:0:
322,214,138500,1,8,0:0:0:0:
137,157,138750,2,0,L|188:133,1,56.25
191,76,139000,2,0,L|188:133,1,56.25,8|0,0:0|0:0,0:0:0:0:
234,164,139250,2,0,L|188:133,1,56.25
188,133,139500,1,8,0:0:0:0:
102,265,139750,5,0,0:0:0:0:
129,305,139875,1,0,0:0:0:0:
178,312,140000,1,8,0:0:0:0:
275,187,140250,5,0,0:0:0:0:
248,228,140375,1,0,0:0:0:0:
199,234,140500,1,8,0:0:0:0:
100,113,140750,5,0,0:0:0:0:
128,154,140875,1,0,0:0:0:0:
176,160,141000,1,8,0:0:0:0:
390,75,141250,1,2,0:0:0:0:
404,308,141500,5,2,0:0:0:0:
401,309,141750,2,0,L|335:308,1,56.25,0|0,0:0|0:0,0:0:0:0:
343,308,142000,2,0,L|228:308,1,112.5,8|0,0:0|0:0,0:0:0:0:
194,306,142375,1,0,0:0:0:0:
155,305,142500,1,8,0:0:0:0:
401,196,142750,2,0,L|345:196,1,56.25
344,196,143000,2,0,L|230:195,1,112.5,8|0,0:0|0:0,0:0:0:0:
193,195,143375,1,0,0:0:0:0:
154,193,143500,1,8,0:0:0:0:
160,71,143750,1,0,0:0:0:0:
195,98,143875,1,0,0:0:0:0:
233,122,144000,1,8,0:0:0:0:
159,305,144250,5,0,0:0:0:0:
195,278,144375,1,0,0:0:0:0:
233,254,144500,1,8,0:0:0:0:
271,229,144625,1,0,0:0:0:0:
308,202,144750,1,0,0:0:0:0:
344,175,144875,2,0,L|376:152,2,28.125,0|0|8,0:0|0:0|0:0,0:0:0:0:
390,231,145125,2,0,L|446:191,2,56.25
354,258,145500,1,8,0:0:0:0:
201,315,145750,1,2,0:0:0:0:
64,194,146000,5,2,0:0:0:0:
148,90,146250,1,0,0:0:0:0:
148,90,146375,1,0,0:0:0:0:
148,90,146500,2,0,L|263:90,1,112.5,8|0,0:0|0:0,0:0:0:0:
305,90,146875,1,0,0:0:0:0:
349,89,147000,1,8,0:0:0:0:
445,179,147250,1,0,0:0:0:0:
445,301,147500,1,8,0:0:0:0:
337,258,147750,6,0,L|290:225,2,56.25,0|0|8,0:0|0:0|0:0,0:0:0:0:
336,257,148250,1,0,0:0:0:0:
222,161,148500,1,8,0:0:0:0:
189,139,148625,1,0,0:0:0:0:
157,115,148750,1,0,0:0:0:0:
357,279,149000,5,8,0:0:0:0:
357,279,149250,1,0,0:0:0:0:
195,141,149500,1,8,0:0:0:0:
153,111,149625,1,0,0:0:0:0:
112,80,149750,1,8,0:0:0:0:
380,300,150000,5,8,0:0:0:0:
380,300,150250,1,0,0:0:0:0:
170,121,150500,1,8,0:0:0:0:
134,93,150625,1,0,0:0:0:0:
96,67,150750,1,0,0:0:0:0:
405,320,151000,5,8,0:0:0:0:
405,320,151250,1,0,0:0:0:0:
148,104,151500,1,8,0:0:0:0:
103,70,151625,1,0,0:0:0:0:
58,35,151750,1,0,0:0:0:0:
256,192,152750,6,0,L|288:192,3,28.125
256,192,153000,1,4,0:0:0:0:
