osu file format v10

[General]
AudioFilename: Yuugure Semi Nikki.mp3
AudioLeadIn: 0
PreviewTime: 52755
Countdown: 0
SampleSet: Soft
StackLeniency: 0.7
Mode: 0
LetterboxInBreaks: 0

[Editor]
DistanceSpacing: 1.1
BeatDivisor: 4
GridSize: 4

[Metadata]
Title:Yuugure Semi Nikki
TitleUnicode:Yuugure Semi Nikki
Artist:mafumafu
ArtistUnicode:mafumafu
Creator:Ryafuka
Version:Hard
Source:Vocaloid
Tags:IA
BeatmapID:181155
BeatmapSetID:60344

[Difficulty]
HPDrainRate:6
CircleSize:4
OverallDifficulty:5
ApproachRate:7
SliderMultiplier:1.6
SliderTickRate:1

[Events]
//Background and Video events
0,0,"BG.jpg"
Video,0,"movie.avi"
//Break Periods
2,16719,24461
2,73561,91408
2,140508,149513
//Storyboard Layer 0 (Background)
//Storyboard Layer 1 (Fail)
//Storyboard Layer 2 (Pass)
//Storyboard Layer 3 (Foreground)
//Storyboard Sound Samples
//Background Colour Transformations
3,100,163,162,255

[TimingPoints]
98,315.789473684211,4,1,1,65,1,0
6413,-100,4,1,1,68,0,1
6492,-100,4,1,1,65,0,0
25361,-100,4,1,1,20,0,0
26624,-100,4,1,1,40,0,0
27571,-133.333333333333,4,2,1,40,0,0
35940,-133.333333333333,4,2,1,35,0,0
36571,-133.333333333333,4,2,1,30,0,0
37203,-100,4,1,1,60,0,0
37992,-100,4,1,1,60,0,1
38071,-100,4,1,1,60,0,0
41782,-100,4,1,1,45,0,0
42098,-100,4,1,1,50,0,0
42413,-100,4,1,1,55,0,0
42729,-100,4,1,1,60,0,0
45571,-100,4,1,1,50,0,0
50940,-100,4,1,1,40,0,0
51098,-100,4,1,1,45,0,0
51255,-100,4,1,1,50,0,0
51413,-100,4,1,1,55,0,0
51571,-100,4,1,1,60,0,0
51729,-100,4,1,1,65,0,0
51887,-100,4,1,1,70,0,0
52834,-100,4,1,1,60,0,0
53150,-100,4,1,1,70,0,1
61992,-100,4,1,1,70,0,0
63255,-100,4,1,1,70,0,1
67913,-100,4,1,1,60,0,1
68229,-100,4,1,1,70,0,1
73282,-100,4,1,1,70,0,0
73361,-100,4,1,1,70,0,1
73440,-100,4,1,1,20,0,0
93571,-100,4,1,1,40,0,0
94519,-133.333333333333,4,2,1,40,0,0
102887,-133.333333333333,4,2,1,35,0,0
103519,-133.333333333333,4,2,1,30,0,0
104150,-100,4,1,1,60,0,0
104940,-100,4,1,1,60,0,1
105019,-100,4,1,1,60,0,0
108729,-100,4,1,1,45,0,0
109045,-100,4,1,1,50,0,0
109361,-100,4,1,1,55,0,0
109676,-100,4,1,1,60,0,0
119782,-100,4,1,1,60,0,0
120098,-100,4,1,1,70,0,1
128940,-100,4,1,1,60,0,0
130203,-100,4,1,1,70,0,1
140229,-100,4,1,1,70,0,0
140308,-100,4,1,1,70,0,1
140387,-100,4,1,1,70,0,0
150413,-100,4,1,1,65,0,1
150492,-100,4,1,1,65,0,0
161624,-100,4,2,1,35,0,0
166676,-100,4,1,1,50,0,0
170229,-100,4,1,1,45,0,0
170387,-100,4,1,1,40,0,0
170545,-100,4,1,1,35,0,0
170703,-100,4,1,1,30,0,0
171255,-100,4,2,1,30,0,0
171887,-100,4,2,1,45,0,0
172203,-100,4,1,1,75,0,1
180729,-100,4,1,1,65,0,0
181992,-100,4,1,1,75,0,1
185782,-100,4,1,1,75,0,1
186098,-100,4,1,1,75,0,1
186413,-100,4,1,1,75,0,1
186729,-100,4,1,1,75,0,1
191782,-133.333333333333,4,2,1,75,0,1
192019,-100,4,1,1,60,0,0
192098,-100,4,1,1,60,0,1
192176,-100,4,1,1,60,0,0

[Colours]
Combo1 : 240,120,0
Combo2 : 240,180,0
Combo3 : 255,200,245

[HitObjects]
360,156,6413,1,4,0:0:0
376,332,6729,2,0,B|420:328|456:244|432:192,1,160,8|0,0:0|0:0,0:0:0
360,156,7203,2,0,B|316:156|288:116,1,80,0|8,0:0|0:0,0:0:0
268,36,7519,6,0,B|300:72|280:160|228:180,1,160
148,196,7992,2,0,B|184:284,1,80,8|0,0:0|0:0,0:0:0
212,352,8308,1,0,0:0:0
376,288,8624,1,8,0:0:0
288,136,8940,6,0,B|268:96|180:80|140:112,1,160,0|8,0:0|0:0,0:0:0
148,196,9413,1,0,0:0:0
116,280,9571,2,0,B|136:320|224:336|264:304,1,160,0|8,0:0|0:0,0:0:0
264,220,10045,1,0,0:0:0
366,119,10203,6,0,B|288:136,1,80
148,196,10519,2,0,B|69:179,2,80,8|0|0,0:0|0:0|0:0,0:0:0
272,320,11150,2,0,B|332:308,3,40,8|0|8|0,0:0|0:0|0:0|0:0,0:0:0
336,308,11466,6,0,B|300:268|320:180|380:172,2,160,4|8|0,0:0|0:0|0:0,0:0:0
481,279,12255,2,0,B|449:246|408:256,1,80,0|8,0:0|0:0,0:0:0
336,308,12571,6,0,B|303:348|211:324|199:280,1,160
116,256,13045,2,0,B|144:168,1,80,8|0,0:0|0:0,0:0:0
168,96,13361,1,0,0:0:0
244,256,13676,1,8,0:0:0
392,160,13992,6,0,B|348:192|268:180|244:128,1,160,0|8,0:0|0:0,0:0:0
168,96,14466,1,0,0:0:0
76,191,14624,2,0,B|120:223|200:211|220:168,1,160,0|8,0:0|0:0,0:0:0
380,244,15255,5,0,0:0:0
428,320,15413,2,0,B|468:316,2,40,0|0|8,0:0|0:0|0:0,0:0:0
344,348,15729,1,0,0:0:0
296,272,15887,2,0,B|264:248,2,40,8|0|0,0:0|0:0|0:0,0:0:0
380,244,16203,2,0,B|396:200,2,40,8|0|0,0:0|0:0|0:0,0:0:0
380,244,16519,5,4,0:0:0
256,192,25361,12,4,26624,0:0:0
384,56,27887,5,2,0:0:0
444,188,28519,1,0,0:0:0
388,280,28992,1,0,0:0:0
376,316,29150,2,0,B|364:352|300:364|268:336,2,120.000004577637,2|0|2,0:0|0:0|0:0,0:0:0
292,136,30413,5,2,0:0:0
164,72,31045,1,0,0:0:0
60,172,31676,2,0,B|40:204|56:268|104:276,2,120.000004577637,2|0|2,0:0|0:0|0:0,0:0:0
148,200,32624,1,0,0:0:0
228,152,32940,5,2,0:0:0
328,256,33571,1,0,0:0:0
452,184,34203,2,0,B|476:68,2,120.000004577637,2|0|2,0:0|0:0|0:0,0:0:0
436,252,35150,1,0,0:0:0
420,324,35466,5,2,0:0:0
276,308,36098,1,0,0:0:0
200,184,36729,1,2,0:0:0
200,184,37361,5,0,0:0:0
128,136,37519,2,0,B|88:168,5,40
80,176,37992,6,0,B|59:220|99:296|155:292,2,160,4|8|0,0:0|0:0|0:0,0:0:0
220,68,38940,2,0,B|204:160,1,80,8|0,0:0|0:0,0:0:0
232,232,39255,2,0,B|276:228|312:268,1,80
336,344,39571,2,0,B|312:304|344:216|392:212,2,160,8|0|8,0:0|0:0|0:0,0:0:0
472,228,40519,6,0,B|424:244|364:172|388:124,1,160,0|8,0:0|0:0,0:0:0
224,64,41150,2,0,B|224:108|192:144,1,80
124,184,41466,1,8,0:0:0
124,184,41624,1,0,0:0:0
52,340,41782,6,0,B|85:267,1,80
188,264,42098,2,0,B|260:229,1,80,8|0,0:0|0:0,0:0:0
324,312,42413,2,0,B|401:331,1,80
488,352,42729,1,8,0:0:0
488,352,42887,1,0,0:0:0
488,352,43045,6,0,B|521:317|521:233|477:205,1,160,4|8,0:0|0:0,0:0:0
392,196,43519,1,0,0:0:0
336,264,43676,2,0,B|296:296|216:272|200:220,1,160,0|8,0:0|0:0,0:0:0
208,136,44150,1,0,0:0:0
313,34,44308,6,0,B|292:112,1,80
292,200,44624,2,0,B|312:240|368:248,2,80,8|0|0,0:0|0:0|0:0,0:0:0
116,188,45255,1,8,0:0:0
48,352,45571,6,0,B|68:312|160:300|196:340,1,160,4|8,0:0|0:0,0:0:0
276,312,46045,2,0,B|276:356,2,40,0|0|8,0:0|0:0|0:0,0:0:0
408,88,46519,1,8,0:0:0
408,88,46676,1,8,0:0:0
244,148,46992,6,0,B|264:192|348:208|388:172,1,160,8|0,0:0|0:0,0:0:0
408,88,47466,2,0,B|372:128|392:208|448:224,1,160,8|0,0:0|0:0,0:0:0
444,312,47940,1,8,0:0:0
360,344,48098,6,0,B|260:324,1,80
124,244,48571,2,0,B|84:252,2,40,0|0|8,0:0|0:0|0:0,0:0:0
296,204,49045,1,0,0:0:0
344,276,49203,1,8,0:0:0
392,348,49361,6,0,B|484:324,2,80,0|8|0,0:0|0:0|0:0,0:0:0
216,320,49992,2,0,B|164:312|140:224|180:184,1,160,8|8,0:0|0:0,0:0:0
304,68,50624,5,12,0:0:0
468,128,50940,2,0,B|484:168|464:220,1,80
423,333,51255,2,0,B|394:301|396:260,1,80
350,122,51571,2,0,B|332:200,1,80
308,284,51887,1,8,0:0:0
308,284,52834,6,0,B|276:312|224:304,1,80,0|0,0:0|0:0,0:0:0
148,328,53150,2,0,B|120:296|128:244,1,80,4|0,0:0|0:0,0:0:0
96,172,53466,2,0,B|128:144|180:152,1,80,8|0,0:0|0:0,0:0:0
256,128,53782,2,0,B|284:160|276:212,1,80
308,284,54098,6,0,B|392:312,2,80,8|0|0,0:0|0:0|0:0,0:0:0
224,256,54571,1,0,0:0:0
188,176,54729,2,0,B|156:88,2,80,8|0|0,0:0|0:0|0:0,0:0:0
396,120,55361,5,8,0:0:0
432,200,55519,1,0,0:0:0
396,280,55676,2,0,B|368:328|292:336|252:300,1,160,0|8,0:0|0:0,0:0:0
192,136,56308,1,0,0:0:0
44,228,56624,1,8,0:0:0
92,304,56782,1,0,0:0:0
92,304,56940,6,0,B|184:328,1,80
304,272,57255,2,0,B|381:251,2,80,8|8|0,0:0|0:0|0:0,0:0:0
176,152,57887,1,8,0:0:0
176,152,58203,6,0,B|216:192|192:280|144:288,2,160,4|8|0,0:0|0:0|0:0,0:0:0
24,60,59150,2,0,B|52:148,1,80,8|0,0:0|0:0,0:0:0
76,220,59466,5,8,0:0:0
284,340,59782,1,8,0:0:0
436,152,60098,1,8,0:0:0
200,108,60413,5,8,0:0:0
200,108,60729,2,0,B|252:112|288:192|264:248,1,160,0|8,0:0|0:0,0:0:0
208,296,61203,1,0,0:0:0
284,340,61361,2,0,B|324:332|368:352,1,80
490,285,61676,2,0,B|450:293|412:276,1,80,8|0,0:0|0:0,0:0:0
325,135,61992,6,0,B|348:212,1,80,12|0,0:0|0:0,0:0:0
239,223,62308,2,0,B|207:296,1,80,8|0,0:0|0:0,0:0:0
122,228,62624,2,0,B|50:263,1,80,8|0,0:0|0:0,0:0:0
50,106,62940,6,0,B|122:141,1,80,8|0,0:0|0:0,0:0:0
122,228,63255,2,0,B|194:263,1,80,4|0,0:0|0:0,0:0:0
356,295,63571,2,0,B|284:260,1,80,8|0,0:0|0:0,0:0:0
284,172,63887,2,0,B|212:137,1,80
132,100,64203,1,8,0:0:0
132,100,64361,1,0,0:0:0
132,100,64519,6,0,B|164:140|248:128|272:80,2,160,0|8|0,0:0|0:0|0:0,0:0:0
72,244,65466,1,8,0:0:0
124,316,65624,1,0,0:0:0
212,324,65782,2,0,B|234:278|318:266|350:306,1,160,0|8,0:0|0:0,0:0:0
428,348,66255,1,0,0:0:0
480,276,66413,6,0,B|496:236|480:184,1,80,0|0,0:0|0:0,0:0:0
403,85,66729,2,0,B|387:125|400:164,1,80,8|0,0:0|0:0,0:0:0
364,244,67045,1,0,0:0:0
284,284,67203,1,0,0:0:0
208,240,67361,2,0,B|112:264,2,80,8|0|0,0:0|0:0|0:0,0:0:0
208,240,67992,1,8,0:0:0
220,152,68150,1,8,0:0:0
232,64,68308,6,0,B|196:28|108:44|88:96,1,160,4|8,0:0|0:0,0:0:0
100,176,68782,1,0,0:0:0
184,204,68940,2,0,B|216:248|176:328|128:336,1,160,0|8,0:0|0:0,0:0:0
56,288,69413,5,0,0:0:0
20,208,69571,2,0,B|0:172|12:124,1,80
108,36,69887,1,8,0:0:0
108,36,70045,2,0,B|118:77|98:113,1,80,0|0,0:0|0:0,0:0:0
144,284,70519,6,0,B|133:242|153:206,1,80,8|0,0:0|0:0,0:0:0
240,216,70834,2,0,B|260:260|344:272|380:240,1,160,0|8,0:0|0:0,0:0:0
324,172,71308,2,0,B|300:208|312:264,1,80
256,320,71624,1,0,0:0:0
256,320,71782,2,0,B|292:344|348:332,1,80,8|0,0:0|0:0,0:0:0
412,292,72098,5,8,0:0:0
264,104,72413,1,8,0:0:0
56,224,72729,1,8,0:0:0
56,224,73361,5,4,0:0:0
256,192,92308,12,4,93571,0:0:0
320,336,94834,5,2,0:0:0
432,244,95466,1,0,0:0:0
404,140,95940,1,0,0:0:0
392,108,96098,2,0,B|372:76|308:68|280:92,2,120.000004577637,2|0|2,0:0|0:0|0:0,0:0:0
416,176,97045,1,0,0:0:0
432,244,97361,5,2,0:0:0
312,320,97992,1,0,0:0:0
196,236,98624,2,0,B|172:212|104:216|80:252,1,120.000004577637,2|0,0:0|0:0,0:0:0
32,320,99255,1,2,0:0:0
120,348,99571,1,0,0:0:0
208,328,99887,6,0,B|232:352|300:348|324:312,2,120.000004577637,2|0|0,0:0|0:0|0:0,0:0:0
36,252,101150,2,0,B|108:152,1,120.000004577637,2|0,0:0|0:0,0:0:0
164,84,101782,1,2,0:0:0
240,136,102098,1,0,0:0:0
328,108,102413,5,2,0:0:0
380,244,103045,1,0,0:0:0
272,336,103676,1,2,0:0:0
272,336,104308,5,8,0:0:0
192,300,104466,2,0,B|176:260,5,40,0|0|0|0|0|0,0:0|0:0|0:0|0:0|0:0|0:0,0:0:0
168,240,104940,6,0,B|204:276|292:268|312:216,1,160,4|8,0:0|0:0,0:0:0
376,164,105413,2,0,B|404:260,1,80
268,356,105887,1,8,0:0:0
268,356,106045,1,0,0:0:0
190,317,106203,6,0,B|167:240,1,80
27,155,106519,2,0,B|59:187|100:184,1,80,8|0,0:0|0:0,0:0:0
235,88,106834,2,0,B|164:124,1,80
99,184,107150,5,8,0:0:0
80,296,107308,1,0,0:0:0
190,317,107466,2,0,B|208:276|296:260|336:296,1,160,0|8,0:0|0:0,0:0:0
408,340,107940,1,0,0:0:0
440,260,108098,2,0,B|472:176,2,80,0|0|8,0:0|0:0|0:0,0:0:0
408,340,108571,1,0,0:0:0
408,340,108729,6,0,B|372:364|328:352,1,80,8|0,0:0|0:0,0:0:0
207,292,109045,2,0,B|243:268|284:280,1,80,8|0,0:0|0:0,0:0:0
397,159,109361,2,0,B|356:228,1,80,8|0,0:0|0:0,0:0:0
308,300,109676,1,8,0:0:0
308,300,109834,1,0,0:0:0
308,300,109992,6,0,B|284:348|204:352|168:316,2,160,4|8|0,0:0|0:0|0:0,0:0:0
320,124,110940,1,8,0:0:0
320,124,111098,1,0,0:0:0
260,188,111255,2,0,B|288:280,1,80
172,356,111571,2,0,B|196:280,1,80,8|0,0:0|0:0,0:0:0
159,139,111887,2,0,B|136:216,1,80
108,300,112203,1,8,0:0:0
108,300,112519,6,0,B|120:348|200:372|248:336,1,160,0|0,0:0|0:0,0:0:0
308,280,112992,2,0,B|356:288,2,40,0|0|8,0:0|0:0|0:0,0:0:0
172,168,113466,1,0,0:0:0
240,112,113624,2,0,B|276:84|276:28,2,80,0|8|8,0:0|0:0|0:0,0:0:0
172,168,114098,2,0,B|192:128|288:124|320:164,1,160,8|8,0:0|0:0,0:0:0
264,328,114729,6,0,B|240:292|249:251,1,80,8|8,0:0|0:0,0:0:0
256,164,115045,2,0,B|268:216|208:272|148:252,1,160,0|8,0:0|0:0,0:0:0
68,228,115519,2,0,B|44:268,2,40,0|0|8,0:0|0:0|0:0,0:0:0
52,140,115834,1,0,0:0:0
132,100,115992,2,0,B|176:176,1,80,8|0,0:0|0:0,0:0:0
300,240,116308,6,0,B|340:170,2,80,0|8|8,0:0|0:0|0:0,0:0:0
384,84,116940,1,8,0:0:0
448,248,117255,1,0,0:0:0
392,336,117413,1,8,0:0:0
292,308,117571,6,0,B|280:268|184:248|148:284,1,160,12|8,0:0|0:0,0:0:0
88,344,118045,1,0,0:0:0
151,281,118203,2,0,B|176:248|172:192,1,80
102,65,118519,2,0,B|90:105|108:144,1,80,8|0,0:0|0:0,0:0:0
172,206,118834,5,0,0:0:0
256,180,118992,2,0,B|304:180,2,40,0|0|8,0:0|0:0|0:0,0:0:0
344,108,119308,2,0,B|384:108,5,40,8|0|8|0|8|0,0:0|0:0|0:0|0:0|0:0|0:0,0:0:0
408,108,119782,6,0,B|404:152|440:196,1,80,0|0,0:0|0:0,0:0:0
496,240,120098,2,0,B|472:200|380:192|344:236,1,160,8|8,0:0|0:0,0:0:0
300,300,120571,1,0,0:0:0
216,276,120729,2,0,B|160:112,1,160,0|8,0:0|0:0,0:0:0
136,40,121203,1,0,0:0:0
64,92,121361,6,0,B|32:124|36:180,1,80
122,308,121676,2,0,B|88:236,1,80,8|0,0:0|0:0,0:0:0
132,160,121992,2,0,B|168:184|220:168,1,80
276,112,122308,1,8,0:0:0
276,112,122624,6,0,B|228:124|212:216|252:252,1,160,0|8,0:0|0:0,0:0:0
324,296,123098,1,0,0:0:0
408,272,123255,2,0,B|444:176,1,80
323,89,123571,2,0,B|352:164,1,80,8|0,0:0|0:0,0:0:0
408,272,123887,5,8,0:0:0
180,348,124203,1,8,0:0:0
64,136,124519,1,8,0:0:0
180,348,124834,5,8,0:0:0
180,348,125150,2,0,B|144:312|176:220|224:216,1,160,4|8,0:0|0:0,0:0:0
308,192,125624,1,0,0:0:0
308,192,125782,2,0,B|272:228|180:188|188:132,1,160,0|8,0:0|0:0,0:0:0
360,104,126413,6,0,B|400:124|408:168,1,80,8|0,0:0|0:0,0:0:0
451,303,126729,2,0,B|478:271|468:228,1,80,8|0,0:0|0:0,0:0:0
380,248,127045,2,0,B|353:283|311:284,1,80,8|0,0:0|0:0,0:0:0
236,240,127361,1,8,0:0:0
236,240,127676,6,0,B|208:200|124:192|88:232,2,160,0|8|0,0:0|0:0|0:0,0:0:0
292,308,128466,1,0,0:0:0
292,308,128624,1,8,0:0:0
464,272,128940,6,0,B|487:234|475:194,1,80,8|0,0:0|0:0,0:0:0
384,132,129255,2,0,B|363:92|323:83,1,80,8|0,0:0|0:0,0:0:0
216,116,129571,2,0,B|172:114|143:144,1,80,8|0,0:0|0:0,0:0:0
40,184,129887,6,0,B|64:268,1,80,8|0,0:0|0:0,0:0:0
132,316,130203,2,0,B|144:272|248:260|276:304,1,160,4|8,0:0|0:0,0:0:0
336,240,130676,1,0,0:0:0
271,299,130834,2,0,B|232:275|244:171|288:159,1,160,0|8,0:0|0:0,0:0:0
372,128,131308,1,0,0:0:0
440,184,131466,6,0,B|420:272,1,80
364,328,131782,2,0,B|396:356|448:348,2,80,8|0|0,0:0|0:0|0:0,0:0:0
252,192,132413,2,0,B|266:270,1,80,8|0,0:0|0:0,0:0:0
216,344,132729,6,0,B|228:300|316:272|356:308,1,160,0|8,0:0|0:0,0:0:0
440,260,133203,1,0,0:0:0
440,260,133361,2,0,B|400:272|352:244,1,80
269,138,133676,2,0,B|257:178|280:216,1,80,8|0,0:0|0:0,0:0:0
284,304,133992,2,0,B|264:352|176:356|144:308,2,160,0|8|0,0:0|0:0|0:0,0:0:0
440,220,134940,2,0,B|416:168,3,40,8|0|8|0,0:0|0:0|0:0|0:0,0:0:0
412,164,135255,6,0,B|376:128|284:148|276:195,1,160,0|8,0:0|0:0,0:0:0
296,280,135729,1,0,0:0:0
232,340,135887,2,0,B|196:364|144:352,1,80
96,188,136361,5,0,0:0:0
36,252,136519,2,0,B|80:332,1,80
136,259,136834,2,0,B|172:231|216:247,1,80,8|0,0:0|0:0,0:0:0
296,280,137150,1,0,0:0:0
148,180,137466,1,8,0:0:0
236,164,137624,1,0,0:0:0
324,148,137782,6,0,B|408:168,2,80,0|0|8,0:0|0:0|0:0,0:0:0
236,128,138255,1,0,0:0:0
236,128,138413,5,8,0:0:0
60,268,138729,1,8,0:0:0
268,348,139045,2,0,B|288:308|272:268,1,80,8|0,0:0|0:0,0:0:0
216,200,139361,2,0,B|232:240|332:256|372:216,1,160,8|8,0:0|0:0,0:0:0
360,225,140308,5,4,0:0:0
184,112,150413,6,0,B|216:140|188:252|140:252,1,160,4|8,0:0|0:0,0:0:0
76,300,150887,1,0,0:0:0
156,336,151045,2,0,B|248:308,1,80,0|0,0:0|0:0,0:0:0
392,316,151361,2,0,B|316:340,1,80,8|0,0:0|0:0,0:0:0
292,256,151676,6,0,B|240:248|220:160|264:124,1,160,0|8,0:0|0:0,0:0:0
340,84,152150,1,0,0:0:0
408,140,152308,2,0,B|328:180,2,80,0|0|8,0:0|0:0|0:0,0:0:0
440,312,152940,6,0,B|360:352,1,80
228,256,153255,2,0,B|300:292,1,80,8|0,0:0|0:0,0:0:0
364,232,153571,2,0,B|388:200|380:144,1,80
278,59,153887,2,0,B|272:104|296:136,1,80,8|0,0:0|0:0,0:0:0
356,200,154203,6,0,B|328:160|236:164|212:212,1,160,0|8,0:0|0:0,0:0:0
72,308,154834,2,0,B|108:332|160:320,1,80
236,344,155150,2,0,B|308:308,1,80,8|0,0:0|0:0,0:0:0
364,240,155466,6,0,B|348:284|256:300|216:256,2,160,4|8|0,0:0|0:0|0:0,0:0:0
396,160,156255,1,0,0:0:0
269,58,156413,2,0,B|344:88,1,80,8|0,0:0|0:0,0:0:0
396,160,156729,5,0,0:0:0
320,320,157045,2,0,B|168:264,1,160,8|0,0:0|0:0,0:0:0
88,228,157519,1,0,0:0:0
108,312,157676,2,0,B|164:316|200:228|160:180,1,160,8|0,0:0|0:0,0:0:0
276,52,158308,6,0,B|308:148,1,80,8|0,0:0|0:0,0:0:0
388,140,158624,2,0,B|364:232,1,80
436,276,158940,2,0,B|376:348,1,80,8|0,0:0|0:0,0:0:0
256,192,159255,12,8,160440,0:0:0
96,224,161782,5,2,0:0:0
276,156,162413,1,2,0:0:0
424,280,163045,2,0,B|408:328|316:340|280:296,1,160,2|0,0:0|0:0,0:0:0
220,232,163676,1,0,0:0:0
276,156,163992,1,2,0:0:0
344,224,164308,5,2,0:0:0
152,236,164940,1,2,0:0:0
272,88,165571,1,2,0:0:0
412,216,166203,1,2,0:0:0
412,216,166834,6,0,B|416:272|336:304|292:272,1,160
164,152,167466,1,0,0:0:0
48,284,167782,1,0,0:0:0
216,236,168098,6,0,B|176:272|88:248|80:196,1,160
192,64,168729,1,0,0:0:0
348,144,169045,1,0,0:0:0
308,316,169361,6,0,B|348:352|436:328|444:276,2,160
228,280,170150,1,0,0:0:0
180,204,170308,2,0,B|144:180|88:184,1,80
13,275,170624,2,0,B|53:291|92:272,1,80
276,84,171255,5,0,0:0:0
276,180,171571,1,0,0:0:0
276,276,171887,1,0,0:0:0
276,276,172203,6,0,B|264:328|168:336|140:292,2,160,4|0|8,0:0|0:0|0:0,0:0:0
356,312,172992,1,0,0:0:0
424,256,173150,2,0,B|400:172,1,80
320,140,173466,2,0,B|348:60,2,80,8|0|0,0:0|0:0|0:0,0:0:0
268,308,174098,5,8,0:0:0
180,300,174255,1,0,0:0:0
156,216,174413,2,0,B|153:168|53:148|21:184,1,160,0|8,0:0|0:0,0:0:0
4,268,174887,1,0,0:0:0
60,336,175045,5,0,0:0:0
240,176,175361,1,8,0:0:0
448,292,175676,1,0,0:0:0
448,292,175834,1,0,0:0:0
372,244,175992,2,0,B|352:204|368:160,1,80,8|0,0:0|0:0,0:0:0
436,116,176308,6,0,B|408:160|316:144|304:96,2,160,0|8|0,0:0|0:0|0:0,0:0:0
372,280,177255,2,0,B|332:368,1,80,8|0,0:0|0:0,0:0:0
188,352,177571,2,0,B|253:207,1,160,0|8,0:0|0:0,0:0:0
288,124,178045,1,0,0:0:0
352,64,178203,6,0,B|448:44,1,80,8|0,0:0|0:0,0:0:0
476,168,178519,2,0,B|400:142,1,80,8|0,0:0|0:0,0:0:0
336,200,178834,2,0,B|401:273,1,80,8|0,0:0|0:0,0:0:0
348,340,179150,1,8,0:0:0
348,340,179308,1,0,0:0:0
276,292,179466,6,0,B|244:256|152:260|129:296,1,160,0|8,0:0|0:0,0:0:0
76,364,179940,1,0,0:0:0
76,364,180098,2,0,B|112:332|108:240|71:217,1,160,0|8,0:0|0:0,0:0:0
12,152,180571,1,0,0:0:0
60,76,180729,5,8,0:0:0
224,252,181045,1,8,0:0:0
444,156,181361,1,8,0:0:0
444,156,181676,6,0,B|468:248,1,80,8|0,0:0|0:0,0:0:0
357,339,181992,2,0,B|397:343|432:316,1,80,4|0,0:0|0:0,0:0:0
364,224,182308,2,0,B|324:220|289:247,1,80,8|0,0:0|0:0,0:0:0
216,296,182624,2,0,B|192:204,1,80,0|0,0:0|0:0,0:0:0
176,132,182940,1,8,0:0:0
176,132,183255,6,0,B|72:112,2,80,0|0|8,0:0|0:0|0:0,0:0:0
260,100,183729,2,0,B|364:80,1,80
452,220,184203,1,8,0:0:0
316,332,184519,6,0,B|144:304,1,160,0|8,0:0|0:0,0:0:0
72,292,184992,1,0,0:0:0
48,208,185150,2,0,B|24:128,2,80,0|0|8,0:0|0:0|0:0,0:0:0
72,292,185624,1,0,0:0:0
72,292,185782,6,0,B|112:272|164:292,1,80,8|0,0:0|0:0,0:0:0
297,339,186098,2,0,B|257:359|220:344,1,80,8|0,0:0|0:0,0:0:0
332,256,186413,2,0,B|372:236|424:256,1,80,8|0,0:0|0:0,0:0:0
472,312,186729,1,8,0:0:0
472,312,187045,6,0,B|424:304|400:212|440:172,1,160,0|8,0:0|0:0,0:0:0
424,88,187519,1,0,0:0:0
340,56,187676,2,0,B|176:80,1,160,0|8,0:0|0:0,0:0:0
96,96,188150,1,0,0:0:0
72,180,188308,6,0,B|48:272,1,80,8|0,0:0|0:0,0:0:0
160,341,188624,2,0,B|140:264,1,80,8|0,0:0|0:0,0:0:0
192,144,188940,2,0,B|212:221,1,80,8|0,0:0|0:0,0:0:0
232,308,189255,1,8,0:0:0
436,316,189571,6,0,B|432:372|336:392|296:348,1,160,0|8,0:0|0:0,0:0:0
232,308,190045,1,0,0:0:0
268,228,190203,2,0,B|356:228,1,80
464,140,190519,2,0,B|376:140,1,80,8|0,0:0|0:0,0:0:0
296,140,190834,5,8,0:0:0
72,152,191150,1,8,0:0:0
232,308,191466,1,8,0:0:0
232,308,192098,5,12,0:0:0
