osu file format v14

[General]
AudioFilename: [P1][av731152].mp3
AudioLeadIn: 0
PreviewTime: 71356
Countdown: 0
SampleSet: Normal
StackLeniency: 0.3
Mode: 0
LetterboxInBreaks: 0
EpilepsyWarning: 1
WidescreenStoryboard: 1

[Editor]
Bookmarks: 23219,196401
DistanceSpacing: 1
BeatDivisor: 4
GridSize: 32
TimelineZoom: 2.900002

[Metadata]
Title:Yume Hanabi
TitleUnicode:夢花火
Artist:mafumafu
ArtistUnicode:まふまふ
Creator:OblivioN
Version:Hanabi
Source:
Tags:Vocaloid IA Atrue Irie Miyuki
BeatmapID:585711
BeatmapSetID:235309

[Difficulty]
HPDrainRate:7
CircleSize:4
OverallDifficulty:7
ApproachRate:8
SliderMultiplier:2.2
SliderTickRate:2

[Events]
//Background and Video events
0,0,"hanabi.jpg",0,0
//Break Periods
2,37328,38288
2,39510,40742
2,41692,42651
2,43874,45106
2,46056,47015
2,48238,49469
2,50419,51379
2,107147,108106
2,109329,110560
2,111510,112469
2,113692,114924
2,115874,116833
2,118056,119288
2,120238,121197
2,176965,180106
2,185692,192924
//Storyboard Layer 0 (Background)
//Storyboard Layer 1 (Fail)
//Storyboard Layer 2 (Pass)
//Storyboard Layer 3 (Foreground)
//Storyboard Sound Samples

[TimingPoints]
38,545.454545454546,4,1,2,60,1,0
16401,-100,4,1,2,25,0,0
17492,-100,4,1,1,60,0,0
18038,-100,4,1,1,70,0,0
18583,-100,4,1,1,80,0,0
18856,-181.818181818181,4,1,2,60,0,0
19674,-100,4,1,1,60,0,0
25401,-100,4,1,1,60,0,0
25674,-100,4,1,1,60,0,0
28401,-100,4,1,1,80,0,0
34947,-100,4,1,2,40,0,0
36038,-100,4,1,2,25,0,0
37128,-133.333333333333,4,1,1,20,0,0
39038,-100,4,1,1,20,0,0
39310,-100,4,1,1,30,0,0
41492,-100,4,1,1,40,0,0
43401,-100,4,1,1,20,0,0
43674,-100,4,1,1,30,0,0
45856,-100,4,1,1,40,0,0
47765,-100,4,1,1,20,0,0
48038,-100,4,1,1,30,0,0
50219,-100,4,1,1,40,0,0
52128,-100,4,1,1,20,0,0
52401,-100,4,1,1,30,0,0
53356,-100,4,1,1,50,0,0
53628,-100,4,1,1,25,0,0
54038,-100,4,1,1,40,0,0
54583,-100,4,1,1,60,0,0
59356,-100,4,1,1,65,0,0
61947,-100,4,1,1,25,0,0
62219,-100,4,1,1,60,0,0
63856,-133.333333333333,4,1,1,60,0,0
64128,-100,4,1,1,60,0,0
66310,-100,4,1,1,25,0,0
66583,-100,4,1,1,60,0,0
67674,-100,4,1,1,80,0,0
69038,-100,4,1,1,90,0,0
70401,-200,4,1,1,90,0,0
71492,-100,4,1,1,30,0,0
72038,-100,4,1,1,60,0,1
72583,-133.333333333333,4,1,1,60,0,1
72856,-100,4,1,1,60,0,1
81310,-133.333333333333,4,1,1,60,0,1
81719,-100,4,1,1,60,0,1
87310,-100,4,1,1,60,0,1
87583,-100,4,1,1,60,0,1
88538,-100,4,1,1,25,0,1
88947,-100,4,1,1,60,0,1
89628,-100,4,1,1,60,0,0
104765,-100,4,1,2,20,0,0
106947,-100,4,1,1,20,0,0
109128,-100,4,1,1,30,0,0
111310,-100,4,1,1,40,0,0
113219,-100,4,1,1,20,0,0
113492,-100,4,1,1,30,0,0
115674,-100,4,1,1,40,0,0
117583,-100,4,1,1,20,0,0
117856,-100,4,1,1,30,0,0
120038,-100,4,1,1,40,0,0
121947,-100,4,1,1,20,0,0
122219,-100,4,1,1,30,0,0
123174,-100,4,1,1,50,0,0
123515,-100,4,1,1,25,0,0
123856,-100,4,1,1,60,0,0
131765,-100,4,1,1,25,0,0
132038,-100,4,1,1,60,0,0
136128,-100,4,1,1,25,0,0
136401,-100,4,1,1,60,0,0
137492,-100,4,1,1,90,0,0
140219,-200,4,1,1,20,0,0
140765,-200,4,1,0,40,0,0
141106,-200,4,1,0,60,0,0
141310,-100,4,1,1,90,0,0
141856,-100,4,1,1,80,0,1
142401,-133.333333333333,4,1,1,80,0,1
142674,-100,4,1,1,80,0,1
158765,-100,4,1,1,80,0,1
159310,-100,4,1,1,80,0,1
176765,-100,4,1,2,30,0,0
183038,-100,4,1,2,30,0,0
209219,-100,4,1,2,60,0,0
209492,-100,4,1,1,80,0,0
210038,-100,4,1,1,90,0,0
210583,-100,4,1,1,100,0,0
211128,-200,4,1,2,60,0,0
211401,-200,4,1,1,20,0,0
211674,-133.333333333333,4,1,2,60,0,0
212219,-100,4,1,1,80,0,0
213856,-100,4,1,1,80,0,1
245628,-100,4,1,1,50,0,1
245765,-100,4,1,1,60,0,1
245901,-100,4,1,1,70,0,1
246583,-100,4,1,2,30,0,0
250674,-100,4,1,2,30,0,0
250947,-100,4,1,2,30,0,0
261583,-100,4,1,2,10,0,0

[Colours]
Combo1 : 247,238,128
Combo2 : 255,164,209
Combo3 : 156,226,169
Combo4 : 137,208,239
Combo5 : 232,232,232
SliderBorder : 232,232,232

[HitObjects]
89,192,1674,6,0,P|145:176|200:192,1,110
300,267,2219,5,2,0:0:0:0:
351,274,2765,1,0,0:0:0:0:
403,266,3310,1,2,0:0:0:0:
452,251,3856,2,0,P|460:185|460:137,1,110
387,58,4401,6,0,P|379:124|379:172,1,110,2|0,0:0|0:0,0:0:0:0:
350,275,4947,1,0,0:0:0:0:
300,177,5219,1,0,0:0:0:0:
381,113,5492,2,0,B|351:122|351:73|296:69|236:73|246:120|212:126|180:119|158:109,1,220,2|0,0:0|0:0,0:0:0:0:
87,47,6583,6,0,P|143:37|202:46,1,110,2|0,0:0|0:0,0:0:0:0:
252,191,7128,2,0,P|199:201|135:189,1,110
55,125,7674,2,0,P|36:185|42:232,1,110,2|0,0:0|0:0,0:0:0:0:
121,306,8219,1,0,0:0:0:0:
24,252,8492,1,0,0:0:0:0:
132,272,8765,5,2,0:0:0:0:
23,289,9038,1,0,0:0:0:0:
114,349,9310,2,0,P|165:359|232:349,1,110,0|0,0:0|0:0,0:0:0:0:
381,304,9856,1,2,0:0:0:0:
381,304,10401,2,0,L|376:181,1,110,0|0,0:0|0:0,0:0:0:0:
258,78,10947,5,2,0:0:0:0:
258,126,11492,1,0,0:0:0:0:
259,176,12038,1,2,0:0:0:0:
259,219,12583,1,0,0:0:0:0:
258,53,12856,1,0,0:0:0:0:
132,160,13129,5,2,0:0:0:0:
380,160,13401,1,0,0:0:0:0:
258,53,13674,1,0,0:0:0:0:
132,160,13947,1,0,0:0:0:0:
380,160,14219,1,2,0:0:0:0:
256,192,14356,12,0,16402,0:0:0:0:
376,288,17492,5,0,0:0:0:0:
388,156,17765,1,0,0:0:0:0:
396,24,18038,1,0,0:0:0:0:
280,84,18310,1,0,0:0:0:0:
272,216,18583,1,4,0:0:0:0:
164,140,18856,6,0,L|96:134,2,60.5000018463135,2|2|2,0:0|0:0|0:0,0:0:0:0:
295,151,19674,6,0,P|334:184|334:245,1,110,4|0,0:0|0:0,0:0:0:0:
218,299,20219,2,0,P|179:266|179:205,1,110,8|0,0:0|0:0,0:0:0:0:
213,185,20628,1,8,0:0:0:0:
222,141,20765,2,0,P|228:109|220:79,2,55,0|8|0,0:0|0:0|0:0,0:0:0:0:
97,250,21310,2,0,P|113:311|151:355,1,110,8|0,0:0|0:0,0:0:0:0:
289,271,21856,6,0,P|213:265|164:273,1,110
326,345,22401,2,0,P|358:301|370:247,1,110,8|0,0:0|0:0,0:0:0:0:
365,203,22810,1,8,0:0:0:0:
342,164,22947,1,0,0:0:0:0:
331,121,23083,1,8,0:0:0:0:
343,79,23219,1,0,0:0:0:0:
446,161,23492,2,0,P|465:219|460:277,1,110,8|0,0:0|0:0,0:0:0:0:
436,333,23901,1,8,0:0:0:0:
436,333,24038,6,0,B|363:297|339:382|212:331,1,220,4|8,0:0|0:0,0:0:0:0:
91,290,24856,1,0,0:0:0:0:
91,290,24992,1,8,0:0:0:0:
91,290,25128,2,0,L|149:279,1,55,0|8,0:0|0:0,0:0:0:0:
109,144,25401,2,0,L|43:155,1,55
51,226,25674,2,0,L|166:204,1,110,8|0,0:0|0:0,0:0:0:0:
202,198,26083,1,0,0:0:0:0:
202,198,26219,5,0,0:0:0:0:
135,350,26492,1,0,0:0:0:0:
14,294,26765,1,8,0:0:0:0:
135,350,27038,1,0,0:0:0:0:
178,342,27174,1,8,0:0:0:0:
222,335,27310,1,0,0:0:0:0:
265,327,27447,1,8,0:0:0:0:
308,319,27583,1,0,0:0:0:0:
382,128,27856,2,0,P|379:184|382:238,1,110,8|8,0:0|3:0,0:0:0:0:
462,312,28401,6,0,P|465:256|462:202,1,110,4|0,0:0|0:0,0:0:0:0:
297,50,28947,2,0,P|294:104|297:159,1,110,8|0,0:0|0:0,0:0:0:0:
296,203,29356,1,8,0:0:0:0:
296,203,29492,2,0,L|301:265,1,55,0|8,0:0|0:0,0:0:0:0:
227,365,29765,2,0,L|222:303,1,55
216,266,30038,2,0,P|208:206|211:147,1,110,8|0,0:0|0:0,0:0:0:0:
211,112,30447,1,0,0:0:0:0:
211,112,30583,5,0,0:0:0:0:
300,256,30856,1,0,0:0:0:0:
168,359,31129,2,0,P|127:322|112:266,1,110,8|0,0:0|0:0,0:0:0:0:
107,226,31538,1,8,0:0:0:0:
110,182,31674,1,0,0:0:0:0:
119,139,31810,1,8,0:0:0:0:
140,100,31947,1,0,0:0:0:0:
256,39,32219,1,8,0:0:0:0:
344,178,32492,1,0,0:0:0:0:
344,178,32629,1,8,0:0:0:0:
344,178,32765,5,4,0:0:0:0:
344,178,33310,2,0,P|344:240|324:288,1,110,8|0,0:0|0:0,0:0:0:0:
296,316,33719,1,8,0:0:0:0:
253,326,33856,1,0,0:0:0:0:
209,327,33992,1,8,0:0:0:0:
167,312,34128,1,0,0:0:0:0:
136,280,34265,1,8,0:0:0:0:
122,238,34401,2,0,P|109:184|126:123,1,110,8|0,0:0|0:0,0:0:0:0:
227,52,34947,6,0,P|240:106|223:167,1,110,2|0,0:0|0:0,0:0:0:0:
122,238,35492,2,0,P|109:184|126:123,1,110,8|0,0:0|0:0,0:0:0:0:
227,52,36038,2,0,P|240:106|223:167,1,110,2|0,0:0|0:0,0:0:0:0:
122,238,36583,1,8,0:0:0:0:
122,238,37128,5,0,0:0:0:0:
448,192,39038,5,0,0:0:0:0:
448,192,39310,1,0,0:0:0:0:
256,304,41492,5,0,0:0:0:0:
256,88,43401,5,0,0:0:0:0:
256,88,43674,1,0,0:0:0:0:
256,192,45856,5,0,0:0:0:0:
256,192,47765,5,0,0:0:0:0:
256,192,48038,1,0,0:0:0:0:
256,192,50219,5,0,0:0:0:0:
256,192,52129,5,0,0:0:0:0:
256,192,52401,1,0,0:0:0:0:
256,192,53356,2,0,L|256:269,1,55,8|0,0:3|3:0,0:0:0:0:
256,290,53628,2,0,L|256:320,2,27.5,8|8|8,0:0|0:0|0:0,0:0:0:0:
306,100,54038,1,8,0:0:0:0:
360,191,54310,1,8,0:0:0:0:
360,191,54447,1,8,0:0:0:0:
360,191,54583,6,0,P|304:205|252:189,1,110,0|0,0:0|2:0,0:0:0:0:
464,142,55129,2,0,P|472:200|456:253,1,110,8|0,0:0|0:0,0:0:0:0:
357,334,55674,1,0,0:0:0:0:
357,334,55947,1,0,0:0:0:0:
307,99,56219,1,8,0:0:0:0:
307,99,56765,6,0,P|255:82|203:97,1,110
51,169,57310,1,8,0:0:0:0:
204,199,57583,1,0,0:0:0:0:
211,242,57719,1,8,0:0:0:0:
201,285,57856,1,0,0:0:0:0:
98,368,58129,2,0,P|39:376|-1:350,2,110,0|8|0,0:0|0:0|0:0,0:0:0:0:
201,285,58947,6,0,P|260:277|338:342,1,165,0|0,0:0|2:0,0:0:0:0:
389,384,59492,2,0,L|377:266,1,110,8|0,0:0|2:0,0:0:0:0:
423,76,60038,2,0,L|434:199,1,110
510,292,60583,1,8,0:0:0:0:
378,275,60856,1,0,0:0:0:0:
430,154,61128,6,0,P|373:141|315:162,1,110
205,213,61674,1,8,0:0:0:0:
243,86,61947,2,0,L|232:51,2,27.5,8|8|8,0:0|0:0|0:0,0:0:0:0:
255,129,62219,1,0,0:0:0:0:
129,170,62492,2,0,P|121:233|146:277,1,110,0|8,0:0|0:0,0:0:0:0:
299,323,63038,1,0,0:0:0:0:
299,323,63174,1,8,0:0:0:0:
299,323,63310,6,0,P|226:362|134:351,1,165,0|0,0:0|2:0,0:0:0:0:
176,322,63856,6,0,P|223:322|258:302,1,82.5000031471254,8|0,0:0|0:0,0:0:0:0:
293,252,64265,1,0,0:0:0:0:
293,252,64401,2,0,P|339:264|369:324,1,110
254,382,64947,1,8,0:0:0:0:
191,229,65219,1,0,2:0:0:0:
67,281,65492,6,0,P|50:230|68:179,1,110
168,92,66038,1,8,0:0:0:0:
311,173,66310,2,0,L|341:157,2,27.5,8|8|8,0:0|0:0|0:0,0:0:0:0:
311,173,66583,2,0,P|266:189|197:175,1,110
52,19,67129,1,8,0:0:0:0:
109,137,67401,1,0,0:0:0:0:
176,286,67674,5,4,0:0:0:0:
176,286,68219,2,0,L|293:277,2,110,8|8|8,0:0|0:0|0:0,0:0:0:0:
44,304,69038,1,8,0:0:0:0:
176,286,69310,1,8,0:0:0:0:
340,273,69583,1,8,0:0:0:0:
340,273,70401,6,0,B|339:220|306:204|295:171|315:135|357:129|392:147|390:204|350:207,1,220,0|0,2:0|0:0,0:0:0:0:
241,277,71765,1,0,0:0:0:0:
293,87,72038,6,0,P|379:79|441:131,1,165,4|0,0:0|2:0,0:0:0:0:
448,198,72583,6,0,P|437:234|396:273,1,82.5000031471254,8|0,0:0|0:0,0:0:0:0:
271,361,73129,1,0,0:0:0:0:
257,319,73265,1,8,0:0:0:0:
241,279,73401,1,0,0:0:0:0:
140,145,73674,2,0,L|117:252,1,110,8|0,0:0|0:0,0:0:0:0:
230,184,74219,6,0,P|234:126|203:73,1,110,0|0,0:0|0:0,0:0:0:0:
55,23,74765,2,0,L|176:27,1,110,8|0,0:0|0:0,0:0:0:0:
212,81,75174,1,8,0:0:0:0:
212,81,75310,2,0,L|278:67,1,55,0|8,0:0|0:0,0:0:0:0:
333,22,75583,2,0,P|343:72|399:106,1,110,0|8,0:0|0:0,0:0:0:0:
427,126,75992,1,0,0:0:0:0:
464,149,76129,1,0,0:0:0:0:
480,189,76265,1,8,0:0:0:0:
489,231,76401,6,0,P|481:294|447:334,1,110
320,323,76947,2,0,L|204:301,1,110,8|0,0:0|0:0,0:0:0:0:
169,311,77356,1,0,0:0:0:0:
169,311,77492,2,0,L|98:330,1,55,0|8,0:0|0:0,0:0:0:0:
32,336,77765,2,0,P|16:268|23:215,1,110,0|8,0:0|0:0,0:0:0:0:
87,86,78310,2,0,P|93:119|90:147,1,55
96,214,78583,6,0,P|156:219|212:184,1,110
314,131,79128,2,0,P|263:132|208:161,1,110,8|0,0:0|0:0,0:0:0:0:
198,199,79538,1,8,0:0:0:0:
195,242,79674,1,0,0:0:0:0:
207,284,79810,1,8,0:0:0:0:
233,319,79947,1,0,0:0:0:0:
360,214,80219,1,8,0:0:0:0:
383,176,80356,1,8,0:0:0:0:
394,133,80492,1,8,0:3:0:0:
385,89,80628,1,8,0:3:0:0:
356,55,80765,6,0,P|280:26|192:60,1,165,4|0,0:0|2:0,0:0:0:0:
142,90,81310,6,0,P|176:117|257:98,1,123.750004720688,8|0,0:0|2:0,0:0:0:0:
318,82,81856,2,0,L|299:28,2,55,0|8|0,0:0|0:0|0:0,0:0:0:0:
217,213,82401,2,0,L|255:329,1,110,8|0,0:0|0:0,0:0:0:0:
244,151,82947,6,0,P|185:193|132:201,1,110
211,353,83492,2,0,P|271:320|330:319,1,110,8|0,0:0|0:0,0:0:0:0:
384,329,83901,2,0,L|437:309,1,55,8|0,0:0|0:0,0:0:0:0:
477,183,84174,2,0,L|416:168,1,55,8|0,0:0|0:0,0:0:0:0:
167,117,84583,1,8,0:0:0:0:
90,257,84856,1,0,0:0:0:0:
90,257,84992,1,8,0:0:0:0:
90,257,85128,6,0,P|65:308|77:371,1,110
243,176,85674,2,0,P|263:124|258:67,1,110,8|0,0:0|0:0,0:0:0:0:
259,70,86083,1,8,0:0:0:0:
259,70,86219,2,0,L|323:63,1,55,0|8,0:0|0:0,0:0:0:0:
394,42,86492,1,0,0:0:0:0:
347,200,86765,1,8,0:0:0:0:
512,212,87038,1,0,0:0:0:0:
439,359,87310,5,0,0:0:0:0:
333,331,87583,1,0,0:0:0:0:
223,338,87856,1,8,0:0:0:0:
191,232,88129,2,0,L|135:268,2,55
222,186,88538,2,0,L|202:162,2,27.5,8|8|8,0:0|0:0|0:0,0:0:0:0:
333,331,88947,2,0,P|388:353|446:338,1,110,8|8,0:0|0:0,0:0:0:0:
447,272,89356,1,8,0:0:0:0:
447,272,89492,6,0,L|453:155,1,110,4|0,0:0|0:0,0:0:0:0:
508,46,90038,1,8,0:0:0:0:
453,163,90310,1,8,0:0:0:0:
453,163,90447,1,8,0:0:0:0:
453,162,90583,2,0,L|386:148,1,55,0|8,0:0|0:0,0:0:0:0:
394,289,90856,2,0,L|449:273,1,55
364,221,91129,2,0,B|239:213,1,110,8|0,0:0|0:0,0:0:0:0:
210,211,91538,1,8,0:0:0:0:
166,208,91674,5,0,0:0:0:0:
53,328,91947,1,0,0:0:0:0:
73,164,92219,1,8,0:0:0:0:
182,287,92492,1,0,0:0:0:0:
226,291,92629,1,8,0:0:0:0:
269,295,92765,1,0,0:0:0:0:
312,300,92901,1,8,0:0:0:0:
356,303,93038,1,0,0:0:0:0:
487,204,93310,1,8,0:0:0:0:
329,340,93583,1,0,0:0:0:0:
329,340,93719,1,8,0:0:0:0:
329,340,93856,5,4,0:0:0:0:
329,340,94401,2,0,L|323:213,1,110,8|0,0:0|0:0,0:0:0:0:
376,72,94947,2,0,L|379:136,1,55,0|8,0:0|0:0,0:0:0:0:
241,215,95219,2,0,L|238:160,1,55,0|8,0:0|0:0,0:0:0:0:
304,37,95492,2,0,L|308:162,1,110,8|0,0:0|0:0,0:0:0:0:
212,282,96038,6,0,P|263:285|309:242,1,110
377,71,96583,1,8,0:0:0:0:
238,160,96856,1,0,0:0:0:0:
194,152,96992,1,8,0:0:0:0:
153,163,97128,1,0,0:0:0:0:
121,193,97265,1,8,0:0:0:0:
102,232,97401,1,0,0:0:0:0:
127,361,97674,1,8,0:0:0:0:
225,273,97947,1,8,0:3:0:0:
34,171,98219,6,0,P|16:222|26:275,1,110,4|0,0:0|0:0,0:0:0:0:
127,360,98765,1,8,0:0:0:0:
257,342,99038,1,0,0:0:0:0:
257,342,99174,1,8,0:0:0:0:
257,342,99310,2,0,L|315:332,1,55,0|8,0:0|0:0,0:0:0:0:
252,191,99583,2,0,L|194:201,1,55
225,273,99856,2,0,L|338:254,1,110,8|0,0:0|0:0,0:0:0:0:
287,111,100401,6,0,L|174:130,1,110
57,184,100947,2,0,P|47:130|62:77,1,110,8|0,0:0|0:0,0:0:0:0:
114,28,101356,1,8,0:0:0:0:
114,28,101492,2,0,L|183:21,1,55,0|8,0:0|0:0,0:0:0:0:
177,130,101765,2,0,L|108:137,1,55,0|0,0:0|2:0,0:0:0:0:
27,96,102038,1,8,0:0:0:0:
257,229,102310,1,0,0:0:0:0:
257,229,102447,1,8,0:0:0:0:
257,229,102583,5,4,0:0:0:0:
257,229,103128,2,0,P|310:208|368:227,1,110,8|0,0:0|0:0,0:0:0:0:
302,341,103674,1,0,0:0:0:0:
260,353,103810,1,8,0:0:0:0:
216,357,103947,1,0,0:0:0:0:
172,352,104083,1,8,0:0:0:0:
128,343,104219,2,0,P|95:330|64:308,3,55,8|0|0|0,0:0|0:0|0:0|0:0,0:0:0:0:
38,238,104765,6,0,P|35:182|46:124,1,110,2|0,0:0|0:0,0:0:0:0:
151,51,105310,2,0,P|154:107|143:165,1,110,8|0,0:0|0:0,0:0:0:0:
38,238,105856,2,0,P|35:182|46:124,1,110,2|0,0:0|0:0,0:0:0:0:
151,51,106401,1,8,0:0:0:0:
151,51,106947,5,0,0:0:0:0:
256,144,108856,5,0,0:0:0:0:
256,144,109129,1,0,0:0:0:0:
256,192,111310,5,0,0:0:0:0:
256,256,113219,5,0,0:0:0:0:
256,256,113492,1,0,0:0:0:0:
120,80,115674,5,0,0:0:0:0:
120,160,117583,5,0,0:0:0:0:
120,160,117856,1,0,0:0:0:0:
368,224,120038,5,0,0:0:0:0:
384,136,121947,5,0,0:0:0:0:
384,136,122219,1,0,0:0:0:0:
96,136,123174,6,0,L|45:103,2,55,8|0|0,3:0|3:0|0:0,0:0:0:0:
121,166,123515,2,0,L|101:194,2,27.5,8|8|8,0:0|0:0|0:0,0:0:0:0:
213,83,123856,1,8,0:0:0:0:
336,130,124129,1,8,0:0:0:0:
366,161,124265,1,8,0:0:0:0:
384,200,124401,6,0,P|396:239|382:313,1,110,0|2,0:0|2:0,0:0:0:0:
208,255,124947,2,0,P|259:243|323:260,1,110,8|0,0:0|2:0,0:0:0:0:
441,366,125492,1,0,0:0:0:0:
441,366,125765,1,0,0:0:0:0:
150,336,126038,1,8,0:0:0:0:
132,310,126583,6,0,P|117:255|131:199,1,110,0|2,0:0|2:0,0:0:0:0:
222,68,127129,1,8,0:0:0:0:
218,199,127401,1,0,0:0:0:0:
173,202,127538,1,8,0:0:0:0:
129,204,127674,1,0,0:0:0:0:
279,136,127947,2,0,L|394:131,2,110,0|8|0,0:0|0:0|0:0,0:0:0:0:
426,60,128765,6,0,B|471:81|486:126|475:175|446:191|438:220|459:264,1,220,0|8,0:0|0:0,0:0:0:0:
507,379,129583,1,0,0:0:0:0:
398,303,129856,1,0,0:0:0:0:
470,125,130128,1,0,0:0:0:0:
470,125,130401,2,0,L|360:134,1,110,8|0,0:0|0:0,0:0:0:0:
248,62,130947,6,0,L|357:52,1,110
270,152,131492,1,8,0:0:0:0:
176,244,131765,2,0,L|129:232,2,27.5,8|8|8,0:0|0:0|0:0,0:0:0:0:
212,258,132038,2,0,P|266:272|321:255,1,110
420,175,132583,1,8,0:0:0:0:
342,67,132856,1,0,0:0:0:0:
342,67,132992,1,8,0:0:0:0:
342,67,133128,6,0,P|359:157|336:235,1,165,0|0,0:0|2:0,0:0:0:0:
318,257,133674,2,0,P|259:251|201:216,1,110,8|0,0:0|0:0,0:0:0:0:
203,190,134083,1,0,0:0:0:0:
203,190,134219,2,0,P|243:143|297:127,1,110
462,95,134765,1,8,0:0:0:0:
340,227,135038,1,0,0:0:0:0:
362,49,135310,5,0,0:0:0:0:
448,204,135583,1,0,0:0:0:0:
288,129,135856,1,8,0:0:0:0:
153,224,136129,2,0,L|169:245,2,27.5,8|8|8,0:0|0:0|0:0,0:0:0:0:
127,188,136401,1,0,0:3:0:0:
106,58,136674,1,0,0:3:0:0:
257,126,136947,1,8,0:0:0:0:
257,292,137219,1,8,0:3:0:0:
406,58,137492,5,4,0:0:0:0:
408,97,138038,1,8,0:0:0:0:
304,65,138310,1,8,0:0:0:0:
332,169,138583,1,8,0:0:0:0:
184,41,138856,1,8,0:0:0:0:
234,247,139129,1,8,0:0:0:0:
48,25,139401,1,8,0:0:0:0:
48,25,140219,6,0,B|24:56|24:97|21:155|72:116|72:168|72:200|48:236,1,220,0|8,2:0|0:0,0:0:0:0:
4,320,141583,1,0,2:0:0:0:
116,80,141856,6,0,P|200:60|280:80,1,165,4|0,0:0|2:0,0:0:0:0:
315,139,142401,2,0,P|273:151|230:134,1,82.5000031471254,8|0,0:0|0:0,0:0:0:0:
193,135,142810,1,8,0:0:0:0:
149,143,142947,1,0,0:0:0:0:
110,163,143083,1,8,0:0:0:0:
86,199,143219,1,0,0:0:0:0:
160,346,143492,2,0,P|219:346|274:319,1,110,8|0,0:0|0:0,0:0:0:0:
193,134,144038,6,0,P|171:191|198:243,1,110
345,285,144583,2,0,P|367:228|340:176,1,110,8|0,0:0|0:0,0:0:0:0:
324,148,144992,1,8,0:0:0:0:
309,106,145129,1,0,0:0:0:0:
315,62,145265,1,8,0:0:0:0:
338,24,145401,1,0,0:0:0:0:
350,185,145674,2,0,P|299:204|238:187,1,110,8|0,0:0|0:0,0:0:0:0:
395,121,146219,6,0,P|403:177|404:242,1,110
275,334,146765,2,0,P|267:278|266:213,1,110,8|0,0:0|0:0,0:0:0:0:
314,66,147310,1,0,0:0:0:0:
317,110,147447,1,8,0:0:0:0:
320,153,147583,1,0,0:0:0:0:
212,278,147856,1,8,0:0:0:0:
183,148,148129,1,0,0:0:0:0:
91,242,148401,5,0,0:0:0:0:
53,115,148674,1,0,0:0:0:0:
31,325,148947,2,0,P|85:344|139:331,1,110,8|0,0:0|0:0,0:0:0:0:
211,354,149356,2,0,L|285:350,1,55,8|0,0:0|0:0,0:0:0:0:
310,193,149629,2,0,L|240:197,1,55,8|0,0:0|0:0,0:0:0:0:
143,266,150038,1,8,0:0:0:0:
186,266,150174,1,8,0:3:0:0:
229,266,150310,1,8,0:3:0:0:
420,36,150583,6,0,P|369:51|328:155,1,165,4|0,0:0|2:0,0:0:0:0:
256,180,151129,2,0,L|256:47,1,110,8|0,0:0|0:0,0:0:0:0:
124,36,151674,1,0,0:0:0:0:
150,70,151810,1,8,0:0:0:0:
164,111,151947,1,0,0:0:0:0:
202,236,152219,2,0,P|256:255|306:236,1,110,8|0,0:0|0:0,0:0:0:0:
437,139,152765,6,0,P|383:120|333:139,1,110
381,310,153310,2,0,L|385:194,1,110,8|0,0:0|0:0,0:0:0:0:
260,69,153856,1,0,0:0:0:0:
259,112,153992,1,8,0:0:0:0:
259,155,154128,1,0,0:0:0:0:
255,338,154401,1,8,0:0:0:0:
341,197,154674,1,0,0:0:0:0:
341,197,154810,1,8,0:0:0:0:
341,197,154947,6,0,P|294:242|245:246,1,110
122,217,155492,1,8,0:0:0:0:
211,314,155765,2,0,L|250:355,1,55,0|8,0:0|0:0,0:0:0:0:
270,169,156038,2,0,L|231:127,1,55,0|8,0:0|0:0,0:0:0:0:
252,247,156310,1,0,0:0:0:0:
359,170,156583,1,8,0:0:0:0:
347,361,156856,1,0,0:0:0:0:
460,300,157128,6,0,P|432:252|448:187,1,110
462,161,157538,1,0,0:0:0:0:
491,128,157674,1,8,0:0:0:0:
510,88,157810,1,8,0:0:0:0:
503,44,157947,1,0,0:0:0:0:
471,13,158083,1,8,0:3:0:0:
422,5,158219,5,0,0:0:0:0:
374,18,158356,1,8,0:0:0:0:
349,60,158492,1,8,0:3:0:0:
353,109,158628,1,8,0:3:0:0:
375,153,158765,2,0,P|319:175|252:154,1,110,8|0,0:0|0:0,0:0:0:0:
52,28,159310,6,0,P|76:108|-1:157,1,165,4|0,0:0|2:0,0:0:0:0:
11,86,159856,2,0,L|128:120,1,110,8|0,0:0|0:0,0:0:0:0:
222,243,160401,1,0,0:0:0:0:
178,234,160538,1,8,0:0:0:0:
135,221,160674,1,0,0:0:0:0:
272,182,160947,2,0,P|299:240|285:293,1,110,8|0,0:0|0:0,0:0:0:0:
81,284,161492,6,0,P|54:226|68:173,1,110
149,41,162038,1,8,0:0:0:0:
320,123,162310,2,0,L|336:175,1,55,0|8,0:0|0:0,0:0:0:0:
193,199,162583,2,0,L|176:146,1,55,0|8,0:0|0:0,0:0:0:0:
289,259,162856,1,0,0:0:0:0:
244,77,163128,2,0,P|296:36|345:40,1,110,8|0,0:0|0:0,0:0:0:0:
290,259,163674,6,0,L|249:138,1,110
377,104,164219,2,0,L|412:208,1,110,8|0,0:0|0:0,0:0:0:0:
489,314,164765,2,0,P|505:292|512:266,2,55,0|8|0,0:0|0:0|0:0,0:0:0:0:
359,306,165310,2,0,P|305:302|253:338,1,110,8|0,0:0|0:0,0:0:0:0:
193,364,165719,1,0,0:0:0:0:
193,364,165856,6,0,P|175:289|175:256,1,110
271,98,166401,2,0,P|289:173|289:206,1,110,8|0,0:0|0:0,0:0:0:0:
292,277,166810,1,8,0:0:0:0:
292,277,166947,2,0,L|294:337,2,55,0|8|0,0:0|0:0|0:0,0:0:0:0:
158,102,167492,2,0,L|170:170,1,55,8|8,0:0|0:0,0:0:0:0:
271,97,167765,2,0,L|260:38,1,55,8|8,0:3|0:3,0:0:0:0:
152,23,168038,6,0,P|96:55|94:154,1,165,4|0,0:0|2:0,0:0:0:0:
145,206,168583,2,0,P|167:156|159:103,1,110,8|0,0:0|0:0,0:0:0:0:
66,266,169129,1,0,0:0:0:0:
101,291,169265,1,8,0:0:0:0:
140,310,169401,1,0,0:0:0:0:
372,310,169674,2,0,L|475:248,1,110,8|0,0:0|0:0,0:0:0:0:
301,237,170219,6,0,P|272:282|273:338,1,110
383,213,170765,2,0,P|354:169|297:151,1,110,8|0,0:0|0:0,0:0:0:0:
150,216,171310,1,0,0:0:0:0:
155,172,171447,1,8,0:0:0:0:
160,128,171583,1,0,0:0:0:0:
311,42,171856,2,0,L|301:160,1,110,8|0,0:0|0:0,0:0:0:0:
299,195,172265,1,8,0:0:0:0:
299,195,172401,5,0,0:0:0:0:
399,329,172674,1,0,0:0:0:0:
399,163,172947,1,8,0:0:0:0:
301,297,173219,1,0,0:0:0:0:
459,246,173492,1,0,0:0:0:0:
459,246,173628,1,8,0:0:0:0:
459,246,173765,1,0,0:0:0:0:
299,195,174038,2,0,P|241:218|211:262,1,110,8|0,0:0|0:0,0:0:0:0:
153,372,174583,6,0,L|43:368,1,110
43,368,174992,1,0,0:0:0:0:
42,368,175129,1,8,0:0:0:0:
158,255,175401,2,0,L|220:255,2,55,0|8|0,0:0|0:0|0:0,0:0:0:0:
80,186,175810,2,0,L|38:183,5,27.5,8|8|8|0|8|8,0:0|0:0|0:3|0:0|0:0|0:0,0:0:0:0:
125,178,176219,2,0,L|186:177,1,55,8|8,0:0|0:0,0:0:0:0:
262,178,176492,1,8,3:0:0:0:
262,178,176628,1,8,0:0:0:0:
262,178,176765,5,0,0:0:0:0:
378,181,180856,6,0,B|369:199|299:153|273:177,1,110
273,177,182492,5,0,0:0:0:0:
273,177,183038,1,0,0:0:0:0:
311,73,183310,1,0,0:0:0:0:
205,87,183583,1,0,0:0:0:0:
292,169,183856,1,2,0:0:0:0:
295,60,184129,1,0,0:0:0:0:
199,105,184401,1,4,0:0:0:0:
199,105,185492,5,8,0:0:0:0:
304,109,193674,6,0,P|245:99|195:111,1,110
97,158,194219,1,2,0:0:0:0:
69,201,194765,1,0,0:0:0:0:
79,251,195310,1,2,0:0:0:0:
96,296,195856,2,0,P|148:315|202:303,1,110
307,279,196401,6,0,P|303:217|307:168,1,110,2|0,0:0|0:0,0:0:0:0:
403,115,196947,2,0,P|407:177|403:226,1,110
380,332,197492,1,2,0:0:0:0:
380,332,198583,6,0,P|328:354|268:335,1,110,2|0,0:0|0:0,0:0:0:0:
210,254,199128,2,0,P|262:232|322:251,1,110
421,263,199674,1,2,0:0:0:0:
440,154,199947,1,0,0:0:0:0:
363,75,200219,1,0,0:0:0:0:
252,73,200492,1,0,0:0:0:0:
174,150,200765,5,2,0:0:0:0:
187,259,201038,1,0,0:0:0:0:
168,367,201310,1,0,0:0:0:0:
82,297,201583,1,0,0:0:0:0:
186,259,201856,1,2,0:0:0:0:
326,125,202401,1,0,0:0:0:0:
344,17,202674,1,0,0:0:0:0:
430,87,202947,5,2,0:0:0:0:
433,91,203492,1,0,0:0:0:0:
436,94,204038,1,2,0:0:0:0:
438,98,204583,2,0,P|445:158|438:217,1,110
360,283,205128,6,0,P|353:223|360:164,1,110,2|0,0:0|0:0,0:0:0:0:
343,64,205674,2,0,P|279:58|232:68,1,110
136,117,206219,1,2,0:0:0:0:
130,123,207310,6,0,P|126:185|132:236,1,110,2|0,0:0|0:0,0:0:0:0:
234,272,207856,2,0,P|238:210|232:159,1,110
208,55,208401,1,2,0:0:0:0:
208,55,209219,1,0,0:0:0:0:
310,138,209492,5,4,0:0:0:0:
439,240,209765,1,0,0:0:0:0:
280,339,210038,1,0,0:0:0:0:
118,242,210310,1,0,0:0:0:0:
302,48,210583,1,8,0:0:0:0:
302,48,211128,6,0,P|309:92|304:141,1,82.5,0|0,0:0|2:0,0:0:0:0:
240,151,211674,6,0,P|220:90|237:27,1,123.750004720688,0|0,0:0|2:0,0:0:0:0:
303,48,212219,6,0,L|421:58,1,110,8|0,0:0|2:0,0:0:0:0:
131,109,212765,1,0,0:0:0:0:
131,109,212901,1,8,0:0:0:0:
131,109,213038,1,0,0:0:0:0:
366,55,213310,2,0,P|372:113|366:168,1,110,8|0,0:0|2:0,0:0:0:0:
210,320,213856,5,4,0:0:0:0:
254,104,214129,1,0,0:0:0:0:
418,249,214401,2,0,P|366:231|312:247,1,110,8|0,0:0|0:0,0:0:0:0:
279,271,214810,1,8,0:0:0:0:
249,303,214947,1,0,0:0:0:0:
210,321,215083,1,8,0:0:0:0:
166,315,215219,1,0,0:0:0:0:
30,220,215492,2,0,P|76:196|140:206,1,110,8|0,0:0|0:0,0:0:0:0:
201,221,215901,1,8,0:0:0:0:
201,221,216038,6,0,P|257:237|310:219,1,110
453,148,216583,2,0,P|397:132|344:150,1,110,8|0,0:0|0:0,0:0:0:0:
380,309,217129,1,0,0:0:0:0:
398,269,217265,1,8,0:0:0:0:
416,229,217401,1,0,0:0:0:0:
436,189,217538,1,0,0:0:0:0:
453,148,217674,1,8,0:0:0:0:
503,299,217947,1,0,0:0:0:0:
417,230,218219,5,0,0:0:0:0:
360,347,218492,1,0,0:0:0:0:
246,280,218765,1,8,0:0:0:0:
130,343,219038,2,0,L|65:354,1,55,0|8,0:0|0:0,0:0:0:0:
175,187,219310,2,0,L|243:179,1,55,0|8,0:0|0:0,0:0:0:0:
313,145,219583,1,0,0:0:0:0:
91,256,219856,1,8,0:0:0:0:
83,212,219992,1,8,0:0:0:0:
74,168,220129,1,8,0:3:0:0:
66,124,220265,1,8,0:3:0:0:
59,80,220401,6,0,P|104:38|207:50,1,165,4|0,0:0|2:0,0:0:0:0:
259,89,220947,2,0,P|306:111|411:57,1,165,8|0,0:0|2:0,0:0:0:0:
459,24,221492,1,0,0:0:0:0:
454,67,221629,1,8,0:0:0:0:
450,110,221765,1,0,0:0:0:0:
368,307,222038,2,0,P|352:230|406:167,1,165,8|0,0:0|2:0,0:0:0:0:
451,110,222583,6,0,P|475:159|465:212,1,110,4|0,0:0|0:0,0:0:0:0:
304,249,223128,2,0,L|186:231,1,110,8|0,0:0|0:0,0:0:0:0:
149,176,223538,1,8,0:0:0:0:
149,176,223674,2,0,P|125:214|134:276,1,110
369,307,224219,2,0,P|393:269|384:207,1,110,8|0,0:0|0:0,0:0:0:0:
295,66,224765,6,0,L|319:178,1,110,0|0,0:0|2:0,0:0:0:0:
450,173,225310,2,0,L|475:286,1,110,8|0,0:0|2:0,0:0:0:0:
314,326,225856,2,0,L|242:334,1,55,0|8,0:0|0:0,0:0:0:0:
261,182,226128,2,0,L|333:174,1,55
357,247,226401,2,0,L|227:260,1,110,8|0,0:0|0:0,0:0:0:0:
94,321,226947,6,0,P|123:263|110:210,1,110
90,184,227356,1,0,0:0:0:0:
58,153,227492,1,8,0:0:0:0:
39,112,227628,1,8,0:3:0:0:
49,69,227765,1,0,0:0:0:0:
75,34,227901,1,8,0:3:0:0:
136,89,228038,5,0,0:0:0:0:
177,104,228174,1,8,0:0:0:0:
220,106,228310,1,8,0:3:0:0:
264,102,228447,1,8,0:3:0:0:
305,88,228583,1,8,0:0:0:0:
488,0,228856,1,8,0:0:0:0:
306,156,229128,6,0,P|305:215|392:262,1,165,4|0,0:0|2:0,0:0:0:0:
459,247,229674,2,0,P|436:206|367:193,1,110,8|0,0:0|0:0,0:0:0:0:
261,306,230219,1,0,0:0:0:0:
218,318,230356,1,8,0:0:0:0:
176,304,230492,1,0,0:0:0:0:
69,177,230765,2,0,P|29:224|20:277,1,110,8|0,0:0|0:0,0:0:0:0:
170,201,231310,6,0,P|210:154|219:101,1,110
37,73,231856,2,0,L|138:122,1,110,8|0,0:0|0:0,0:0:0:0:
287,185,232401,1,0,0:0:0:0:
227,31,232674,1,0,0:0:0:0:
380,91,232947,2,0,P|408:138|410:208,1,110,8|0,0:0|0:0,0:0:0:0:
370,317,233492,5,0,0:0:0:0:
240,342,233765,1,0,2:0:0:0:
370,317,234038,1,8,0:0:0:0:
498,345,234310,1,0,2:0:0:0:
421,237,234583,1,0,0:0:0:0:
415,193,234719,1,8,0:0:0:0:
409,149,234856,1,0,0:0:0:0:
260,79,235128,2,0,L|278:211,1,110,8|0,0:0|2:0,0:0:0:0:
217,343,235674,6,0,P|195:271|202:238,1,110
365,214,236219,2,0,P|387:286|380:319,1,110,8|2,0:0|0:2,0:0:0:0:
347,347,236628,1,8,0:0:0:0:
304,360,236765,1,0,0:0:0:0:
260,362,236901,1,8,0:0:0:0:
219,344,237038,1,0,0:0:0:0:
259,86,237310,1,8,0:0:0:0:
233,77,237446,1,8,0:3:0:0:
233,50,237582,1,8,0:3:0:0:
259,42,237719,1,0,0:0:0:0:
274,64,237856,6,0,B|246:86|241:136|263:177,1,110,4|0,0:0|2:0,0:0:0:0:
420,302,238401,2,0,P|430:248|420:195,1,110,8|0,0:0|0:0,0:0:0:0:
92,195,238947,1,0,0:0:0:0:
81,237,239083,1,8,0:0:0:0:
85,281,239219,1,0,0:0:0:0:
232,354,239492,2,0,P|242:300|232:240,1,110,8|0,0:0|0:0,0:0:0:0:
161,97,240038,6,0,P|213:62|265:51,1,110,4|0,0:0|0:0,0:0:0:0:
372,170,240583,2,0,P|320:135|268:124,1,110,8|0,0:0|0:0,0:0:0:0:
176,257,241128,1,0,0:0:0:0:
212,232,241265,1,8,0:0:0:0:
253,218,241401,1,0,0:0:0:0:
370,334,241674,1,8,0:0:0:0:
328,320,241810,1,0,0:0:0:0:
328,276,241947,1,0,0:0:0:0:
370,263,242083,1,8,0:0:0:0:
396,298,242219,5,0,0:0:0:0:
503,220,242492,1,0,2:0:0:0:
396,298,242765,1,8,0:0:0:0:
263,298,243038,1,0,2:0:0:0:
141,246,243310,2,0,L|67:262,2,55,0|8|0,0:0|0:0|0:0,0:0:0:0:
248,168,243856,1,8,0:0:0:0:
262,298,244128,1,0,0:0:0:0:
371,223,244401,5,0,0:0:0:0:
433,339,244674,1,0,0:0:0:0:
451,299,244810,1,0,0:0:0:0:
469,258,244947,1,8,0:0:0:0:
396,137,245219,1,0,0:0:0:0:
393,181,245356,1,8,0:0:0:0:
384,224,245492,1,0,0:0:0:0:
354,257,245629,2,0,L|357:293,2,27.5,8|8|8,0:0|0:0|0:3,0:0:0:0:
310,252,245901,1,8,0:3:0:0:
283,216,246038,1,8,0:3:0:0:
284,172,246174,1,8,0:3:0:0:
305,133,246310,1,8,0:3:0:0:
317,91,246447,1,8,0:0:0:0:
308,48,246583,6,0,P|257:27|201:42,1,110,2|0,0:0|0:0,0:0:0:0:
139,97,247128,2,0,P|190:118|246:103,1,110
389,62,247674,1,2,0:0:0:0:
467,139,247947,1,0,0:0:0:0:
362,172,248219,2,0,L|373:289,1,110
454,355,248765,5,2,0:0:0:0:
479,248,249038,1,0,0:0:0:0:
374,282,249310,2,0,P|309:275|250:294,1,110
190,365,249856,2,0,P|255:372|314:353,1,110,2|0,0:0|0:0,0:0:0:0:
375,282,250401,1,0,0:0:0:0:
305,197,250674,2,0,P|286:142|307:82,1,110,0|2,0:0|0:0,0:0:0:0:
386,27,251219,5,0,0:0:0:0:
477,88,251492,2,0,P|496:143|475:203,1,110
403,268,252038,2,0,L|284:305,1,110,2|0,0:0|0:0,0:0:0:0:
210,233,252583,2,0,L|329:196,1,110
399,128,253129,6,0,P|386:79|416:25,1,110,2|0,0:0|0:0,0:0:0:0:
500,94,253674,1,0,0:0:0:0:
487,203,253947,1,0,0:0:0:0:
290,302,254492,1,0,0:0:0:0:
388,253,254765,2,0,P|373:201|388:141,1,110,2|2,0:0|0:0,0:0:0:0:
424,44,255310,6,0,L|305:64,1,110,2|0,0:0|0:0,0:0:0:0:
277,167,255856,2,0,L|396:145,1,110
388,253,256401,2,0,L|269:275,1,110,2|0,0:0|0:0,0:0:0:0:
241,376,256947,2,0,L|360:354,1,110
388,253,257492,6,0,P|389:183|382:135,1,110,2|0,0:0|0:0,0:0:0:0:
285,193,258038,2,0,P|284:263|291:311,1,110
395,331,258583,2,0,P|450:303|464:247,1,110,2|0,0:0|0:0,0:0:0:0:
358,231,259128,2,0,P|303:259|289:315,1,110
188,349,259674,6,0,L|63:349,1,110,2|0,0:0|0:0,0:0:0:0:
39,245,260219,2,0,L|149:245,1,110
257,264,260765,1,2,0:0:0:0:
215,161,261038,1,0,0:0:0:0:
297,88,261310,2,0,P|322:154|312:196,1,110
