osu file format v14

[General]
AudioFilename: [P1][av731152].mp3
AudioLeadIn: 0
PreviewTime: 71356
Countdown: 0
SampleSet: Normal
StackLeniency: 0.7
Mode: 0
LetterboxInBreaks: 0
EpilepsyWarning: 1
WidescreenStoryboard: 1

[Editor]
Bookmarks: 23219,196401
DistanceSpacing: 1
BeatDivisor: 4
GridSize: 32
TimelineZoom: 1.6

[Metadata]
Title:Yume Hanabi
TitleUnicode:夢花火
Artist:mafumafu
ArtistUnicode:まふまふ
Creator:OblivioN
Version:Easy
Source:
Tags:Vocaloid IA Atrue Irie Miyuki
BeatmapID:659856
BeatmapSetID:235309

[Difficulty]
HPDrainRate:2
CircleSize:2.5
OverallDifficulty:2
ApproachRate:2
SliderMultiplier:1
SliderTickRate:1

[Events]
//Background and Video events
0,0,"hanabi.jpg",0,0
//Break Periods
2,176965,192114
//Storyboard Layer 0 (Background)
//Storyboard Layer 1 (Fail)
//Storyboard Layer 2 (Pass)
//Storyboard Layer 3 (Foreground)
//Storyboard Sound Samples

[TimingPoints]
38,545.454545454546,4,1,2,40,1,0
16401,-100,4,1,2,25,0,0
17492,-100,4,1,1,60,0,0
18038,-100,4,1,1,70,0,0
18583,-100,4,1,1,80,0,0
19674,-100,4,1,1,60,0,0
25674,-100,4,1,1,60,0,0
28401,-100,4,1,1,80,0,0
34947,-100,4,1,2,40,0,0
37128,-100,4,1,1,20,0,0
39038,-100,4,1,1,20,0,0
39310,-100,4,1,1,30,0,0
41492,-100,4,1,1,40,0,0
43401,-100,4,1,1,20,0,0
43674,-100,4,1,1,30,0,0
45856,-100,4,1,1,40,0,0
47765,-100,4,1,1,20,0,0
48038,-100,4,1,1,30,0,0
50219,-100,4,1,1,40,0,0
52128,-100,4,1,1,20,0,0
52401,-100,4,1,1,30,0,0
53765,-100,4,1,1,65,0,0
63856,-100,4,1,1,65,0,0
67674,-100,4,1,1,80,0,0
69038,-100,4,1,1,90,0,0
70401,-100,4,1,1,90,0,0
71492,-100,4,1,1,40,0,0
72038,-100,4,1,1,70,0,1
72583,-100,4,1,1,70,0,1
81310,-100,4,1,1,70,0,1
87310,-100,4,1,1,80,0,1
104765,-100,4,1,2,20,0,0
106947,-100,4,1,1,20,0,0
109128,-100,4,1,1,30,0,0
111310,-100,4,1,1,40,0,0
113219,-100,4,1,1,20,0,0
113492,-100,4,1,1,30,0,0
115674,-100,4,1,1,40,0,0
117583,-100,4,1,1,20,0,0
117856,-100,4,1,1,30,0,0
120038,-100,4,1,1,40,0,0
121947,-100,4,1,1,20,0,0
122219,-100,4,1,1,30,0,0
124401,-100,4,1,1,65,0,0
137492,-100,4,1,1,90,0,0
141310,-100,4,1,1,90,0,0
141856,-100,4,1,1,90,0,1
142401,-100,4,1,1,90,0,1
158765,-100,4,1,1,90,0,1
159310,-100,4,1,1,90,0,1
176765,-100,4,1,2,30,0,0
209492,-100,4,1,1,80,0,0
210583,-100,4,1,1,100,0,0
211128,-100,4,1,2,60,0,0
211401,-100,4,1,1,30,0,0
211674,-100,4,1,2,60,0,0
212219,-100,4,1,1,80,0,0
213856,-100,4,1,1,70,0,1
246583,-100,4,1,2,30,0,0
250674,-100,4,1,2,30,0,0
250947,-100,4,1,2,30,0,0

[Colours]
Combo1 : 247,238,128
Combo2 : 255,164,209
Combo3 : 156,226,169
Combo4 : 137,208,239
Combo5 : 232,232,232
SliderBorder : 232,232,232

[HitObjects]
256,66,1674,5,0,0:0:0:0:
207,153,2219,6,0,P|161:195|116:200,2,100,2|0|2,0:0|0:0|0:0,0:0:0:0:
307,155,3856,2,0,P|353:197|398:202,1,100,0|2,0:0|0:0,0:0:0:0:
475,152,4947,2,0,P|492:208|479:252,1,100,0|2,0:0|0:0,0:0:0:0:
399,304,6038,1,0,0:0:0:0:
306,341,6583,6,0,B|256:377|153:370|112:337,1,200,2|2,0:0|0:0,0:0:0:0:
59,256,8219,1,0,0:0:0:0:
54,155,8765,1,2,0:0:0:0:
99,65,9310,2,0,P|148:31|203:27,1,100,0|2,0:0|0:0,0:0:0:0:
287,26,10401,1,0,0:0:0:0:
335,113,10947,6,0,P|278:124|231:110,2,100,2|0|2,0:0|0:0|0:0,0:0:0:0:
417,55,12583,2,0,L|424:167,1,100,0|2,0:0|0:0,0:0:0:0:
426,254,13674,1,0,0:0:0:0:
345,313,14219,2,0,B|310:284|210:231|174:224|174:224|148:249|101:281|68:296,1,300,2|0,0:0|0:0,0:0:0:0:
294,68,17492,6,0,P|301:129|292:176,2,100,0|0|0,0:0|0:0|0:0,0:0:0:0:
103,130,19674,2,0,P|155:126|212:133,1,100,4|8,0:2|0:0,0:0:0:0:
295,168,20765,2,0,P|347:172|404:165,1,100,0|8,0:0|0:0,0:0:0:0:
437,76,21856,6,0,L|442:301,1,200,0|0,0:0|0:0,0:0:0:0:
445,375,23492,1,8,0:0:0:0:
354,331,24038,1,4,0:2:0:0:
254,342,24583,1,8,0:0:0:0:
156,363,25128,6,0,L|33:373,2,100,0|8|0,0:0|0:0|0:0,0:0:0:0:
222,287,26765,1,8,0:0:0:0:
141,227,27310,2,0,L|72:233,2,50,0|0|8,0:0|0:0|0:0,0:0:0:0:
239,207,28401,6,0,P|284:235|286:334,2,150,4|0|8,0:0|0:0|0:0,0:0:0:0:
164,139,30583,2,0,P|179:87|218:42,1,100,0|8,0:0|0:0,0:0:0:0:
306,56,31674,2,0,P|335:95|348:143,1,100,0|8,0:0|0:0,0:0:0:0:
416,220,32765,6,0,B|384:232|368:272|368:272|336:280|320:304|320:304|288:304|256:324|256:324|224:304|192:304|192:304|176:280|144:272|144:272|128:232|96:220,1,400,4|2,0:0|0:0,0:0:0:0:
457,48,37128,5,0,0:0:0:0:
305,363,39038,2,0,L|306:301,1,50,0|0,0:0|0:0,0:0:0:0:
4,49,41492,5,0,0:0:0:0:
182,349,43401,2,0,L|182:295,1,50,0|0,0:0|0:0,0:0:0:0:
486,38,45856,5,0,0:0:0:0:
345,358,47765,2,0,L|346:298,1,50,0|0,0:0|0:0,0:0:0:0:
115,115,49674,1,2,2:0:0:0:
50,191,50219,5,0,0:0:0:0:
365,342,52128,2,0,L|369:281,1,50,0|0,0:0|0:0,0:0:0:0:
300,51,53765,2,0,L|351:34,2,50,8|8|8,0:0|0:0|0:0,0:0:0:0:
257,78,54583,6,0,L|132:81,1,100,0|8,0:0|0:0,0:0:0:0:
94,158,55674,1,0,0:0:0:0:
142,245,56219,1,8,0:0:0:0:
107,339,56765,2,0,L|225:332,1,100,0|8,0:0|0:0,0:0:0:0:
293,283,57856,1,0,0:0:0:0:
384,324,58401,1,0,0:0:0:0:
426,233,58947,6,0,P|453:157|397:46,1,200,0|0,0:0|0:0,0:0:0:0:
324,110,60583,1,8,0:0:0:0:
239,55,61128,1,0,0:0:0:0:
152,105,61674,1,8,0:0:0:0:
52,98,62219,2,0,L|48:40,2,50,0|0|8,0:0|0:0|0:0,0:0:0:0:
24,194,63310,6,0,P|13:248|26:300,1,100,0|8,0:0|0:0,0:0:0:0:
116,323,64401,2,0,L|171:317,2,50,0|0|8,0:0|0:0|0:0,0:0:0:0:
121,223,65492,2,0,L|258:207,2,100,0|8|0,0:0|0:0|0:0,0:0:0:0:
25,194,67128,6,0,L|17:88,1,100,8|4,0:0|0:0,0:0:0:0:
102,40,68219,2,0,L|163:36,1,50,8|8,0:0|0:0,0:0:0:0:
246,68,69038,2,0,L|302:63,2,50,8|8|8,0:0|0:0|0:0,0:0:0:0:
234,216,70401,6,0,P|294:215|401:118,1,200,0|0,2:0|0:0,0:0:0:0:
495,110,72038,2,0,L|485:3,2,100,4|8|0,0:0|0:0|0:0,0:0:0:0:
481,209,73674,6,0,P|488:265|474:311,1,100,8|0,0:0|0:0,0:0:0:0:
384,346,74765,1,8,0:0:0:0:
284,354,75310,2,0,L|175:352,1,100,0|8,0:0|0:0,0:0:0:0:
84,337,76401,2,0,P|91:280|85:234,1,100,0|8,0:0|0:0,0:0:0:0:
38,149,77492,2,0,P|38:71|50:35,1,100,0|8,0:0|0:0,0:0:0:0:
141,30,78583,5,0,0:0:0:0:
240,40,79128,2,0,L|298:33,2,50,8|0|0,0:0|0:0|0:0,0:0:0:0:
283,130,80219,2,0,L|341:123,1,50,8|8,0:0|0:3,0:0:0:0:
381,113,80765,2,0,P|405:59|453:36,2,100,4|8|0,0:0|0:0|0:0,0:0:0:0:
479,132,82401,2,0,L|476:196,1,50,8|0,0:0|0:0,0:0:0:0:
470,231,82947,6,0,P|470:302|450:350,1,100,0|8,0:0|0:0,0:0:0:0:
377,273,84038,2,0,L|250:277,1,100,0|8,0:0|0:0,0:0:0:0:
181,304,85128,2,0,P|163:326|145:337,2,50,0|0|8,0:0|0:0|0:0,0:0:0:0:
109,234,86219,2,0,L|107:117,1,100,0|8,0:0|0:0,0:0:0:0:
59,46,87310,6,0,B|164:13|160:87|269:46,1,200,0|0,0:0|0:0,0:0:0:0:
451,10,89492,2,0,P|444:70|454:120,1,100,4|8,0:0|0:0,0:0:0:0:
483,205,90583,2,0,P|490:271|483:317,1,100,0|8,0:0|0:0,0:0:0:0:
392,340,91674,6,0,L|293:360,1,100,0|8,0:0|0:0,0:0:0:0:
213,299,92765,2,0,L|103:288,1,100,0|8,0:0|0:0,0:0:0:0:
64,201,93856,2,0,P|101:162|32:32,2,200,4|0|0,0:0|0:0|0:0,0:0:0:0:
14,288,96583,5,8,0:0:0:0:
113,289,97128,2,0,L|213:299,1,100,0|8,0:0|0:0,0:0:0:0:
293,360,98219,2,0,L|392:340,1,100,4|8,0:0|0:0,0:0:0:0:
459,267,99310,2,0,P|469:212|460:161,1,100,0|8,0:0|0:0,0:0:0:0:
424,76,100401,6,0,P|355:55|263:86,2,150,0|0|8,0:0|0:0|0:0,0:0:0:0:
353,147,102583,2,0,L|361:361,2,200,4|0|2,0:0|0:0|0:0,0:0:0:0:
10,354,106947,5,0,0:0:0:0:
172,43,108856,2,0,L|168:108,1,50,0|0,0:0|0:0,0:0:0:0:
480,343,111310,5,0,0:0:0:0:
314,34,113219,2,0,L|315:97,1,50,0|0,0:0|0:0,0:0:0:0:
20,355,115674,5,0,0:0:0:0:
150,30,117583,2,0,L|160:96,1,50
373,287,119492,2,0,P|403:253|421:199,1,100,2|0,2:0|0:0,0:0:0:0:
108,46,121947,2,0,L|105:109,1,50,0|0,0:0|0:0,0:0:0:0:
212,322,123583,2,0,L|211:255,2,50,8|8|8,0:0|0:0|0:0,0:0:0:0:
254,347,124401,6,0,P|339:353|376:344,1,100,0|8,0:0|0:0,0:0:0:0:
442,305,125492,2,0,L|450:359,2,50,0|0|8,0:0|0:0|0:0,0:0:0:0:
402,213,126583,2,0,L|442:104,1,100,0|8,0:0|0:0,0:0:0:0:
375,39,127674,2,0,L|267:76,1,100,0|8,0:0|0:0,0:0:0:0:
242,163,128765,6,0,L|323:252,2,100,0|8|0,0:0|0:0|0:0,0:0:0:0:
202,70,130401,1,8,0:0:0:0:
107,37,130947,1,0,0:0:0:0:
33,104,131492,1,0,0:0:0:0:
107,170,132038,2,0,L|161:138,2,50,0|0|8,0:0|0:0|0:0,0:0:0:0:
43,247,133128,6,0,P|96:319|2:350,2,200
9,152,135856,1,8,0:0:0:0:
80,82,136401,1,0,0:0:0:0:
173,46,136947,2,0,L|234:47,2,50,8|8|4,0:0|0:3|0:0,0:0:0:0:
220,134,138038,6,0,L|333:138,1,100,8|8,0:0|0:0,0:0:0:0:
419,138,139128,1,8,0:0:0:0:
419,138,139401,1,8,0:0:0:0:
89,20,141310,6,0,L|83:80,1,50,0|0,0:0|0:0,0:0:0:0:
57,112,141856,2,0,P|39:161|50:226,2,100,4|8|0,0:0|0:0|0:0,0:0:0:0:
137,172,143492,2,0,L|241:162,1,100,8|0,0:0|0:0,0:0:0:0:
318,104,144583,5,8,0:0:0:0:
404,53,145128,2,0,P|420:100|407:148,1,100,0|8,0:0|0:0,0:0:0:0:
318,194,146219,2,0,P|321:248|354:292,1,100,0|8,0:0|0:0,0:0:0:0:
417,214,147310,1,0,0:0:0:0:
479,292,147856,1,8,0:0:0:0:
416,369,148401,6,0,L|311:370,1,100,0|8,0:0|0:0,0:0:0:0:
216,355,149492,1,0,0:0:0:0:
135,294,150038,2,0,L|135:243,1,50,8|8,0:0|0:3,0:0:0:0:
98,209,150583,2,0,P|81:158|103:104,2,100,4|8|0,0:0|0:0|0:0,0:0:0:0:
187,162,152219,1,8,0:0:0:0:
255,88,152765,5,0,0:0:0:0:
341,137,153310,1,8,0:0:0:0:
415,204,153856,2,0,P|439:158|432:97,1,100,0|8,0:0|0:0,0:0:0:0:
368,38,154947,2,0,L|261:44,1,100,0|8,0:0|0:0,0:0:0:0:
229,135,156038,2,0,L|112:126,1,100,0|8,0:0|0:0,0:0:0:0:
71,45,157128,6,0,P|88:133|91:260,1,200
109,341,158765,2,0,L|169:334,1,50,8|0,0:0|0:0,0:0:0:0:
208,329,159310,2,0,P|260:319|319:333,2,100,4|8|0,0:0|0:0|0:0,0:0:0:0:
109,342,160947,2,0,L|99:287,1,50,8|0,0:0|0:0,0:0:0:0:
89,243,161492,6,0,P|106:189|106:127,1,100,0|8,0:0|0:0,0:0:0:0:
68,54,162583,2,0,B|117:37|169:67,1,100,0|8,0:0|0:0,0:0:0:0:
230,139,163674,2,0,P|301:132|347:106,1,100,0|8,0:0|0:0,0:0:0:0:
370,30,164765,2,0,P|299:37|253:63,1,100,0|8,0:0|0:0,0:0:0:0:
230,139,165856,6,0,L|112:142,2,100,0|8|0,0:0|0:0|0:0,0:0:0:0:
318,185,167492,2,0,L|374:183,1,50,8|8,0:0|0:3,0:0:0:0:
417,177,168038,2,0,P|407:235|421:291,2,100,4|8|0,0:0|0:0|0:0,0:0:0:0:
463,88,169674,1,8,0:0:0:0:
374,41,170219,6,0,L|272:41,1,100,0|8,0:0|0:0,0:0:0:0:
187,91,171310,2,0,P|117:87|82:65,1,100,0|8,0:0|0:0,0:0:0:0:
0,37,172401,1,0,0:0:0:0:
27,235,173492,1,0,0:0:0:0:
192,346,174583,6,0,L|356:347,1,150,0|0,0:0|0:0,0:0:0:0:
392,345,175674,1,0,0:0:0:0:
473,218,176492,1,0,0:0:0:0:
473,218,176765,1,4,0:2:0:0:
443,248,193674,6,0,L|429:193,1,50,0|0,0:0|0:0,0:0:0:0:
421,150,194219,2,0,P|415:97|439:51,2,100,2|0|2,0:0|0:0|0:0,0:0:0:0:
353,223,195856,2,0,P|294:220|245:224,1,100,0|2,0:0|0:0,0:0:0:0:
208,312,196947,2,0,P|149:315|100:311,1,100,0|2,0:0|0:0,0:0:0:0:
124,112,198583,6,0,P|111:58|34:127,2,200,2|2|2,0:0|0:0|0:0,0:0:0:0:
76,199,201310,2,0,L|39:263,2,50,0|0|2,0:0|0:0|0:0,0:0:0:0:
165,153,202401,2,0,L|229:149,1,50,0|0,0:0|0:0,0:0:0:0:
264,140,202947,2,0,P|321:134|380:142,2,100,2|0|2,0:0|0:0|0:0,0:0:0:0:
238,236,204583,6,0,P|235:293|241:340,1,100,0|2,0:0|0:0,0:0:0:0:
332,373,205674,1,0,0:0:0:0:
425,338,206219,2,0,P|430:288|427:238,1,100,2|0,0:0|0:0,0:0:0:0:
453,141,207310,2,0,P|454:87|448:35,1,100,2|0,0:0|0:0,0:0:0:0:
349,38,208401,1,2,0:0:0:0:
149,45,209492,6,0,P|43:73|70:169,1,200,4|8,0:0|0:0,0:0:0:0:
124,208,211128,2,0,L|128:271,1,50,0|0,0:0|0:0,0:0:0:0:
136,307,211674,2,0,L|20:322,2,100,0|8|0,0:0|0:0|0:0,0:0:0:0:
235,313,213310,2,0,L|296:317,1,50,8|0,0:0|2:0,0:0:0:0:
335,316,213856,6,0,P|403:320|451:303,1,100,4|8,0:0|0:0,0:0:0:0:
475,220,214947,2,0,L|472:114,1,100,0|8,0:0|0:0,0:0:0:0:
412,40,216038,2,0,P|337:33|304:45,1,100,0|8,0:0|0:0,0:0:0:0:
214,40,217128,2,0,P|229:93|268:127,1,100,0|8,0:0|0:0,0:0:0:0:
360,132,218219,6,0,P|336:189|287:222,2,100,0|8|0,0:0|0:0|0:0,0:0:0:0:
315,41,219856,1,8,0:0:0:0:
215,40,220401,2,0,L|90:42,2,100,4|8|0,0:0|0:0|0:0,0:0:0:0:
206,140,222038,2,0,L|259:135,1,50,8|0,0:0|0:0,0:0:0:0:
305,129,222583,6,0,L|425:117,2,100,4|8|0,0:0|0:0|0:0,0:0:0:0:
238,204,224219,1,8,0:0:0:0:
252,302,224765,2,0,P|193:317|144:310,1,100,0|8,0:0|0:0,0:0:0:0:
80,245,225856,2,0,P|62:197|72:140,1,100,0|8,0:0|0:0,0:0:0:0:
130,70,226947,6,0,P|177:52|234:62,1,100,0|8,0:0|0:0,0:0:0:0:
303,122,228038,1,0,0:0:0:0:
384,180,228583,2,0,P|411:181|435:176,1,50,8|8,0:0|0:0,0:0:0:0:
480,159,229128,2,0,L|468:37,2,100,4|8|0,0:0|0:0|0:0,0:0:0:0:
442,252,230765,2,0,L|441:305,1,50,8|0,0:0|0:0,0:0:0:0:
400,331,231310,6,0,P|313:365|277:353,2,100,0|8|0,0:0|0:0|0:0,0:0:0:0:
325,264,232947,1,8,0:0:0:0:
225,256,233492,2,0,P|289:166|389:186,2,200,0|0|0,0:0|0:0|0:0,0:0:0:0:
153,325,236219,6,0,L|101:359,2,50,8|2|0,0:0|0:0|0:0,0:0:0:0:
148,225,237310,2,0,L|133:167,1,50,0|8,0:0|0:3,0:0:0:0:
123,127,237856,2,0,P|140:75|105:41,2,100,4|8|0,0:0|0:0|0:0,0:0:0:0:
24,146,239492,2,0,P|47:197|95:220,1,100,8|4,0:0|0:0,0:0:0:0:
183,221,240583,6,0,L|238:215,1,50,8|0,0:0|0:0,0:0:0:0:
282,210,241128,2,0,P|343:209|406:243,1,100,0|8,0:0|0:0,0:0:0:0:
472,187,242219,2,0,P|481:242|460:287,1,100,0|8,0:0|0:0,0:0:0:0:
377,330,243310,2,0,L|257:337,1,100,0|8,0:0|0:0,0:0:0:0:
178,352,244401,6,0,P|116:320|103:189,2,200,0|0|2,0:0|0:0|0:0,0:0:0:0:
256,192,246719,12,0,250947,0:0:0:0:
444,279,253128,6,0,P|396:317|350:333,1,100,2|0,0:0|0:0,0:0:0:0:
268,290,254219,2,0,P|184:283|163:288,2,100,0|2|0,0:0|0:0|0:0,0:0:0:0:
402,141,256401,1,0,0:0:0:0:
235,30,257492,1,0,0:0:0:0:
39,70,258583,1,0,0:0:0:0:
37,270,259674,5,0,0:0:0:0:
256,192,259810,12,0,261583,0:0:0:0:
