osu file format v12

[General]
AudioFilename: IA feat. Kagamine Rin - Super Nuko World.mp3
AudioLeadIn: 1500
PreviewTime: 54777
Countdown: 1
SampleSet: Soft
StackLeniency: 0.7
Mode: 0
LetterboxInBreaks: 1
WidescreenStoryboard: 0

[Editor]
DistanceSpacing: 1
BeatDivisor: 4
GridSize: 4

[Metadata]
Title:Super Nuko World
TitleUnicode:すーぱーぬこわーるど
Artist:mafumafu
ArtistUnicode:まふまふ
Creator:Kyubey
Version:mofumofu
Source:
Tags:IA Kagamine Rin vocaloid3 nicovideo Nico Douga
BeatmapID:350742
BeatmapSetID:140428

[Difficulty]
HPDrainRate:6
CircleSize:4
OverallDifficulty:7
ApproachRate:9
SliderMultiplier:1.8
SliderTickRate:2

[Events]
//Background and Video events
0,0,"bg.jpg",0,0
//Break Periods
//Storyboard Layer 0 (Background)
//Storyboard Layer 1 (Fail)
//Storyboard Layer 2 (Pass)
//Storyboard Layer 3 (Foreground)
//Storyboard Sound Samples
//Background Colour Transformations
3,100,163,162,255

[TimingPoints]
790,315.789473684211,4,2,0,30,1,0
790,-133.333333333333,4,2,0,30,0,0
5842,-100,4,1,0,30,0,0
6316,-100,4,1,0,32,0,0
6632,-100,4,1,0,35,0,0
6948,-100,4,1,0,37,0,0
7264,-100,4,1,0,40,0,0
7579,-100,4,1,0,42,0,0
7895,-100,4,1,0,45,0,0
8211,-100,4,1,0,47,0,0
8527,-100,4,1,0,50,0,0
8843,-100,4,1,0,52,0,0
9158,-100,4,1,0,55,0,0
9474,-133.333333333333,4,2,0,25,0,0
10264,-100,4,1,0,65,0,0
10895,-100,4,1,0,75,0,1
11526,-142.857142857143,4,1,0,45,0,1
11842,-117.647058823529,4,1,0,60,0,1
12158,-100,4,1,0,75,0,1
16579,-142.857142857143,4,1,0,45,0,1
16895,-117.647058823529,4,1,0,60,0,1
17211,-100,4,1,0,75,0,1
19737,-100,4,1,0,75,0,0
20684,-200,4,2,0,35,0,0
21000,-100,4,1,0,75,0,1
21632,-142.857142857143,4,1,0,45,0,1
21947,-117.647058823529,4,1,0,60,0,1
22263,-100,4,1,0,75,0,1
26684,-142.857142857143,4,1,0,45,0,1
27000,-117.647058823529,4,1,0,60,0,1
27316,-100,4,1,0,75,0,1
31105,-100,4,1,0,75,0,0
32053,315.789473684211,4,1,0,65,1,0
36789,-200,4,2,0,35,0,0
37105,-100,4,1,0,65,0,0
39947,-100,4,1,0,25,0,0
40105,-100,4,1,0,35,0,0
40263,-100,4,1,0,45,0,0
40421,-100,4,1,0,55,0,0
40579,-100,4,1,0,65,0,0
47210,-133.333333333333,4,2,0,65,0,0
52263,-100,4,1,0,65,0,0
54158,-200,4,1,0,65,0,0
54474,-100,4,1,0,65,0,0
54789,-80,4,1,0,80,0,1
72474,-80,4,1,0,60,0,0
76105,-100,4,1,0,65,0,0
76895,-100,4,1,0,11,0,0
76974,-100,4,1,0,19,0,0
77053,-100,4,1,0,27,0,0
77131,-100,4,1,0,35,0,0
77210,-100,4,1,0,43,0,0
77289,-100,4,1,0,51,0,0
77368,-100,4,1,0,59,0,0
77447,-100,4,1,0,67,0,0
77526,-100,4,1,0,75,0,1
78158,-142.857142857143,4,1,0,45,0,1
78474,-117.647058823529,4,1,0,60,0,1
78789,-100,4,1,0,75,0,1
83210,-142.857142857143,4,1,0,45,0,1
83526,-117.647058823529,4,1,0,60,0,1
83842,-100,4,1,0,75,0,1
86368,-100,4,1,0,75,0,0
87316,-200,4,2,0,35,0,0
87631,-100,4,1,0,75,0,1
88263,-142.857142857143,4,1,0,45,0,1
88579,-117.647058823529,4,1,0,60,0,1
88895,-100,4,1,0,75,0,1
93316,-142.857142857143,4,1,0,45,0,1
93631,-117.647058823529,4,1,0,60,0,1
93947,-100,4,1,0,75,0,1
97737,-100,4,1,0,75,0,0
98684,315.789473684211,4,1,0,65,1,0
103420,-200,4,2,0,35,0,0
103736,-100,4,1,0,65,0,0
106578,-100,4,1,0,25,0,0
106736,-100,4,1,0,35,0,0
106894,-100,4,1,0,45,0,0
107052,-100,4,1,0,55,0,0
107210,-100,4,1,0,65,0,0
113841,-133.333333333333,4,2,0,65,0,0
118894,-100,4,1,0,65,0,0
120789,-200,4,1,0,65,0,0
121105,-100,4,1,0,65,0,0
121420,-80,4,1,0,80,0,1
139105,-80,4,1,0,60,0,0
141631,-100,4,1,0,70,0,0
143526,-100,4,1,0,35,0,0
144157,-100,4,1,0,70,0,0
146052,-100,4,1,0,35,0,0
146684,-100,4,1,0,70,0,0
151420,-200,4,1,0,70,0,0
151736,-100,4,1,0,55,0,0
161841,-100,4,1,0,65,0,0
166894,-133.333333333333,4,2,0,65,0,0
171947,-100,4,1,0,65,0,0
173841,-200,4,1,0,65,0,0
174473,-200,4,1,0,5,0,0
175105,-100,4,1,0,65,0,0
175420,-66.6666666666667,4,1,0,65,0,0
175736,-80,4,1,0,80,0,1
193420,-80,4,1,0,60,0,0
196578,-80,4,1,0,11,0,0
196657,-80,4,1,0,19,0,0
196736,-80,4,1,0,27,0,0
196815,-80,4,1,0,35,0,0
196894,-80,4,1,0,43,0,0
196973,-80,4,1,0,51,0,0
197052,-80,4,1,0,59,0,0
197131,-80,4,1,0,67,0,0
197210,-100,4,1,0,75,0,1
197841,-142.857142857143,4,1,0,45,0,1
198157,-117.647058823529,4,1,0,60,0,1
198473,-100,4,1,0,75,0,1
202894,-142.857142857143,4,1,0,45,0,1
203210,-117.647058823529,4,1,0,60,0,1
203526,-100,4,1,0,75,0,1
206052,-100,4,1,0,75,0,0
206999,-200,4,2,0,35,0,0
207315,-100,4,1,0,75,0,1
207947,-142.857142857143,4,1,0,45,0,1
208262,-117.647058823529,4,1,0,60,0,1
208578,-100,4,1,0,75,0,1
212999,-142.857142857143,4,1,0,45,0,1
213315,-117.647058823529,4,1,0,60,0,1
213631,-100,4,1,0,75,0,1
217420,-100,4,2,0,50,0,0

[Colours]
Combo1 : 240,241,226
Combo2 : 68,183,177
Combo3 : 208,102,164
Combo4 : 240,240,132

[HitObjects]
112,160,790,1,2,0:0:0:0:
176,104,947,1,0,0:0:0:0:
196,100,1026,1,0,0:0:0:0:
216,104,1105,1,0,0:0:0:0:
280,160,1263,5,2,0:0:0:0:
292,164,1579,1,2,0:0:0:0:
304,168,1895,1,2,0:0:0:0:
316,172,2211,2,0,P|359:173|392:168,2,67.5000025749207,0|0|2,0:0|0:0|0:0,0:0:0:0:
316,172,2842,1,2,0:0:0:0:
476,220,3158,5,0,0:0:0:0:
448,300,3316,1,2,0:0:0:0:
384,356,3474,1,0,0:0:0:0:
364,360,3553,1,0,0:0:0:0:
344,356,3632,1,0,0:0:0:0:
280,300,3790,5,2,0:0:0:0:
232,352,4105,1,2,0:0:0:0:
184,300,4421,1,2,0:0:0:0:
136,352,4737,2,0,P|104:372|72:376,2,67.5000025749207,0|0|2,0:0|0:0|0:0,0:0:0:0:
136,352,5368,5,0,0:0:0:0:
144,336,5447,1,0,0:0:0:0:
136,320,5526,1,0,0:0:0:0:
144,304,5605,1,0,0:0:0:0:
136,288,5684,1,0,0:0:0:0:
108,160,5842,5,6,1:0:0:0:
172,84,6000,2,0,L|145:34,2,45,2|2|10,0:1|0:1|1:0,0:0:0:0:
272,88,6316,2,0,L|294:42,2,45,2|0|8,0:1|0:0|1:0,0:0:0:0:
348,152,6632,2,0,L|420:120,2,45,2|0|8,0:1|0:0|1:0,0:0:0:0:
372,248,6947,5,2,0:1:0:0:
360,268,7026,1,0,0:0:0:0:
340,280,7105,1,8,1:0:0:0:
240,272,7263,1,2,0:1:0:0:
220,268,7342,1,0,0:0:0:0:
200,272,7421,1,10,1:0:0:0:
108,308,7579,1,2,0:1:0:0:
88,320,7658,1,0,0:0:0:0:
64,324,7737,1,8,1:0:0:0:
0,248,7895,1,2,0:1:0:0:
16,232,7974,1,2,0:1:0:0:
36,224,8053,1,10,1:0:0:0:
120,172,8211,6,0,L|88:128,2,45,2|0|10,0:1|0:0|1:0,0:0:0:0:
220,168,8526,2,0,L|256:204,2,45,2|2|10,0:1|0:1|1:0,0:0:0:0:
270,81,8842,1,2,0:0:0:0:
288,68,8921,1,0,0:0:0:0:
309,60,9000,1,0,0:0:0:0:
331,57,9079,1,0,0:0:0:0:
353,59,9158,1,2,0:0:0:0:
373,67,9237,1,0,0:0:0:0:
391,79,9316,1,0,0:0:0:0:
498,175,9474,6,0,P|497:247|455:306,1,135.000005149841
448,305,9868,1,0,0:0:0:0:
431,309,9947,1,0,0:0:0:0:
414,309,10026,1,0,0:0:0:0:
397,305,10105,1,0,0:0:0:0:
382,297,10184,1,0,0:0:0:0:
355,280,10263,5,4,0:0:0:0:
324,273,10342,1,0,0:0:0:0:
292,272,10421,1,0,0:0:0:0:
261,278,10500,1,0,0:0:0:0:
229,273,10579,1,0,0:0:0:0:
206,251,10658,1,0,0:0:0:0:
199,220,10737,1,0,0:0:0:0:
204,188,10816,1,0,0:0:0:0:
214,158,10895,6,0,P|239:117|282:83,1,90,6|0,0:0|0:0,0:0:0:0:
382,30,11211,1,8,0:0:0:0:
496,83,11368,1,0,0:0:0:0:
488,208,11526,6,0,P|493:246|481:290,1,62.9999980773926,2|0,0:0|0:0,0:0:0:0:
488,208,11842,6,0,P|474:251|443:279,1,76.5000014591217,10|0,0:0|0:0,0:0:0:0:
488,208,12158,6,0,P|450:242|391:259,1,90,2|0,0:0|0:0,0:0:0:0:
335,346,12474,1,8,0:0:0:0:
219,294,12632,1,2,0:0:0:0:
103,345,12790,1,0,0:0:0:0:
14,255,12947,1,0,0:0:0:0:
5,215,13026,1,0,0:0:0:0:
11,174,13105,2,0,P|21:126|41:84,1,90,10|0,0:0|0:0,0:0:0:0:
148,27,13421,6,0,P|172:68|183:121,1,90,2|0,0:0|0:0,0:0:0:0:
178,312,13737,2,0,P|154:271|143:218,1,90,10|0,0:0|0:0,0:0:0:0:
182,108,14053,1,0,0:0:0:0:
304,139,14211,1,0,0:0:0:0:
414,199,14368,6,0,P|457:219|522:228,1,90,10|0,0:0|0:0,0:0:0:0:
368,82,14684,2,0,P|325:62|260:53,1,90,2|0,0:0|0:0,0:0:0:0:
159,33,15000,2,0,P|111:47|70:95,1,90,10|0,0:0|0:0,0:0:0:0:
26,187,15316,5,0,0:0:0:0:
16,226,15395,1,0,0:0:0:0:
19,266,15474,1,0,0:0:0:0:
33,303,15553,1,0,0:0:0:0:
62,331,15632,1,8,0:0:0:0:
186,309,15790,1,0,0:0:0:0:
221,288,15868,1,0,0:0:0:0:
260,280,15947,6,0,P|305:276|363:292,1,90,6|0,0:0|0:0,0:0:0:0:
463,338,16263,1,8,0:0:0:0:
471,212,16421,1,0,0:0:0:0:
378,109,16579,6,0,P|373:70|353:41,1,62.9999980773926,2|0,0:0|0:0,0:0:0:0:
378,109,16895,6,0,P|346:73|301:47,1,76.5000014591217,10|0,0:0|0:0,0:0:0:0:
378,109,17211,6,0,P|332:86|271:86,1,90,2|0,0:0|0:0,0:0:0:0:
193,113,17526,1,8,0:0:0:0:
78,60,17684,1,2,0:0:0:0:
87,185,17842,1,0,0:0:0:0:
120,305,18000,1,0,0:0:0:0:
153,327,18079,1,0,0:0:0:0:
192,336,18158,1,10,0:0:0:0:
300,271,18316,1,0,0:0:0:0:
340,272,18395,1,0,0:0:0:0:
379,279,18474,6,0,P|418:296|459:331,1,90,2|0,0:0|0:0,0:0:0:0:
421,243,18790,2,0,P|442:280|455:332,1,90,10|0,0:0|0:0,0:0:0:0:
474,227,19105,1,0,0:0:0:0:
442,105,19263,1,0,0:0:0:0:
335,39,19421,2,0,P|292:64|267:100,1,90,10|0,0:0|0:0,0:0:0:0:
344,114,19737,5,10,0:0:0:0:
241,22,19895,1,8,0:0:0:0:
220,158,20053,1,8,0:0:0:0:
323,250,20211,1,10,0:0:0:0:
344,114,20368,1,8,0:0:0:0:
344,114,20684,6,0,B|366:113|366:113|393:119|393:119|426:114,1,67.5,6|0,0:0|0:0,0:0:0:0:
436,123,21000,6,0,B|374:183|374:183|344:193|344:193|299:238,1,180,6|8,0:0|0:0,0:0:0:0:
384,265,21474,1,0,0:0:0:0:
344,114,21632,6,0,P|301:86|267:87,1,62.9999980773926,2|0,0:0|0:0,0:0:0:0:
292,136,21947,6,0,P|246:126|208:144,1,76.5000014591217,10|0,0:0|0:0,0:0:0:0:
253,178,22263,6,0,P|230:125|155:127,1,135,2|0,0:0|2:0,0:0:0:0:
159,124,22579,1,8,0:0:0:0:
105,238,22737,1,2,0:0:0:0:
205,313,22895,1,0,0:0:0:0:
329,291,23053,2,0,L|356:343,2,45,0|0|10,0:0|0:0|0:0,0:0:0:0:
407,190,23368,1,0,0:0:0:0:
420,151,23447,1,0,0:0:0:0:
429,111,23526,6,0,P|440:60|434:14,1,90,2|0,0:0|0:0,0:0:0:0:
336,204,23842,2,0,P|325:255|331:301,1,90,10|0,0:0|0:0,0:0:0:0:
425,254,24158,1,0,0:0:0:0:
219,230,24316,1,0,0:0:0:0:
94,213,24474,6,0,P|39:192|-9:158,1,90,10|0,0:0|0:0,0:0:0:0:
0,36,24790,2,0,P|55:57|103:91,1,90,2|0,0:0|0:0,0:0:0:0:
170,168,25105,2,0,P|216:167|281:147,1,90,10|0,0:0|0:0,0:0:0:0:
327,34,25421,1,0,0:0:0:0:
288,21,25500,1,0,0:0:0:0:
249,33,25579,1,0,0:0:0:0:
219,61,25658,1,0,0:0:0:0:
206,99,25737,1,10,0:0:0:0:
227,245,25895,1,0,0:0:0:0:
245,281,25974,1,0,0:0:0:0:
271,311,26053,6,0,P|297:342|364:363,1,90,6|0,0:0|0:0,0:0:0:0:
462,327,26368,1,8,0:0:0:0:
368,242,26526,1,0,0:0:0:0:
216,147,26684,6,0,P|184:154|139:141,1,62.9999980773926,2|0,0:0|0:0,0:0:0:0:
216,147,27000,6,0,P|234:103|268:83,1,76.5000014591217,10|0,0:0|0:0,0:0:0:0:
216,147,27316,6,0,P|243:188|242:229,1,90,2|0,0:0|0:0,0:0:0:0:
150,315,27632,1,8,0:0:0:0:
121,192,27790,1,2,0:0:0:0:
297,90,27947,5,0,0:0:0:0:
413,40,28105,1,0,0:0:0:0:
405,165,28263,1,10,0:0:0:0:
320,258,28421,1,0,0:0:0:0:
281,270,28500,1,0,0:0:0:0:
240,271,28579,6,0,P|190:266|139:248,1,90,2|0,0:0|0:0,0:0:0:0:
243,351,28895,2,0,P|293:356|344:374,1,90,10|0,0:0|0:0,0:0:0:0:
457,377,29211,1,0,0:0:0:0:
499,259,29368,1,0,0:0:0:0:
253,96,29526,6,0,P|271:136|297:173,1,90,10|0,0:0|0:0,0:0:0:0:
425,250,29842,2,0,P|406:209|380:172,1,90,2|0,0:0|0:0,0:0:0:0:
253,96,30158,1,8,0:0:0:0:
132,51,30316,1,2,0:0:0:0:
16,100,30474,1,0,0:0:0:0:
3,138,30553,1,0,0:0:0:0:
3,178,30632,1,0,0:0:0:0:
9,218,30711,1,0,0:0:0:0:
22,256,30790,1,10,0:0:0:0:
118,289,30947,1,0,0:0:0:0:
118,289,31026,1,0,0:0:0:0:
118,289,31105,6,0,L|145:215,1,45,8|0,0:2|0:0,0:0:0:0:
224,314,31263,2,0,L|252:362,1,45,8|0,0:2|0:0,0:0:0:0:
312,262,31421,2,0,L|281:197,1,45,8|0,0:2|0:0,0:0:0:0:
412,247,31579,2,0,L|478:286,1,45,8|0,0:2|0:0,0:0:0:0:
411,158,31737,1,8,0:2:0:0:
411,158,32053,6,2,B|346:162|346:162|291:177|291:177|224:180,1,180,6|0,0:0|0:0,0:0:0:0:
157,85,32526,1,0,0:0:0:0:
277,106,32684,2,2,B|297:167|297:167|301:218|301:218|330:301,1,180,2|0,0:0|0:0,0:0:0:0:
247,375,33158,1,0,0:0:0:0:
141,315,33316,5,2,0:2:0:0:
128,295,33395,1,2,0:2:0:0:
119,274,33474,1,2,0:2:0:0:
115,251,33553,1,2,0:2:0:0:
113,228,33631,1,2,0:2:0:0:
169,21,33789,2,2,P|183:64|183:116,1,90
184,109,34579,6,0,P|206:153|249:198,1,90,6|0,0:0|0:0,0:0:0:0:
424,257,34895,2,0,P|402:213|359:168,1,90,2|0,0:0|0:0,0:0:0:0:
274,109,35210,1,0,0:0:0:0:
152,207,35368,1,0,0:0:0:0:
274,109,35526,1,0,0:0:0:0:
430,91,35684,1,0,0:0:0:0:
512,249,35842,5,0,0:0:0:0:
508,271,35921,1,0,0:0:0:0:
500,292,36000,1,2,0:2:0:0:
487,310,36079,1,2,0:2:0:0:
468,322,36158,1,2,0:2:0:0:
448,332,36237,1,2,0:2:0:0:
426,337,36316,1,2,0:2:0:0:
403,339,36395,1,2,0:2:0:0:
380,338,36474,1,2,0:2:0:0:
210,332,36789,6,0,B|179:324|179:324|159:326|159:326|128:318,1,67.5,6|0,0:0|0:0,0:0:0:0:
121,335,37105,6,2,B|140:272|140:272|138:222|138:222|166:150,1,180,6|8,0:0|0:0,0:0:0:0:
43,129,37579,1,0,0:0:0:0:
52,251,37737,2,2,B|122:258|122:258|170:247|170:247|238:254,1,180,2|8,0:0|0:0,0:0:0:0:
352,250,38210,1,0,0:0:0:0:
397,137,38368,5,2,0:0:0:0:
205,43,38526,1,2,0:0:0:0:
230,253,38684,1,10,0:0:0:0:
342,31,38842,1,10,0:0:0:0:
141,157,39000,1,10,0:0:0:0:
141,157,39316,6,2,B|129:224|129:224|116:282|159:330,1,180,10|0,0:0|0:0,0:0:0:0:
230,253,39789,1,2,0:2:0:0:
307,175,39947,2,0,L|284:131,1,45,8|0,0:0|2:0,0:0:0:0:
415,135,40105,2,0,L|436:175,1,45,8|0,0:0|2:0,0:0:0:0:
436,288,40263,2,0,L|415:248,1,45,8|0,0:0|2:0,0:0:0:0:
309,249,40421,2,0,L|329:288,1,45,8|0,0:0|2:0,0:0:0:0:
405,375,40579,2,0,L|384:335,1,45,8|0,0:0|2:0,0:0:0:0:
277,334,40737,6,2,L|256:373,1,45,8|0,0:0|2:0,0:2:0:0:
122,335,40895,1,2,0:2:0:0:
89,157,41053,1,2,0:2:0:0:
248,56,41210,1,2,0:2:0:0:
396,191,41368,1,2,0:2:0:0:
250,190,41526,6,0,L|251:143,1,45
249,208,41684,1,0,2:0:0:0:
249,225,41763,1,0,2:0:0:0:
249,243,41842,1,0,2:0:0:0:
249,261,41921,1,0,2:0:0:0:
249,278,42000,1,2,2:2:0:0:
249,295,42079,1,0,2:0:0:0:
251,312,42158,6,2,P|344:340|428:267,1,180,6|0,0:0|2:0,0:0:0:0:
328,243,42631,1,0,0:0:0:0:
250,190,42789,2,2,B|274:146|329:146|329:146|365:118|367:57,1,180,2|0,0:0|2:0,0:0:0:0:
270,59,43263,1,0,0:0:0:0:
454,62,43421,6,0,P|445:132|410:192,1,135,2|0,0:0|2:0,0:0:0:0:
302,241,43737,2,0,P|372:250|432:285,1,135,2|0,0:0|2:0,0:0:0:0:
343,330,44053,2,0,B|326:320|286:328|286:328|208:302,1,135,2|0,0:0|2:0,0:0:0:0:
157,321,44368,2,0,B|214:303|214:303|203:260|251:200,1,135,2|0,0:0|2:0,0:0:0:0:
145,250,44684,6,0,B|150:207|183:175|183:175|195:117,1,135,2|0,0:0|2:0,0:0:0:0:
174,77,45000,2,0,P|190:122|293:154,1,135,2|0,0:0|2:0,0:0:0:0:
252,80,45316,2,0,B|166:47|107:133,1,135,2|0,0:0|2:0,0:0:0:0:
112,182,45631,2,0,P|57:155|50:95,1,90,2|0,0:0|0:0,0:0:0:0:
39,114,45868,1,0,0:0:0:0:
30,98,45947,6,2,L|30:291,1,180,2|8,0:0|0:0,0:0:0:0:
30,296,46342,1,0,0:0:0:0:
31,313,46421,1,0,0:0:0:0:
135,381,46579,1,8,0:0:0:0:
257,350,46737,1,8,0:0:0:0:
272,340,46816,1,0,0:0:0:0:
285,328,46895,1,8,0:0:0:0:
265,203,47053,1,0,0:0:0:0:
255,111,47210,6,0,P|195:129|168:200,1,135.000005149842,4|0,0:0|0:0,0:0:0:0:
265,203,47684,1,2,0:0:0:0:
359,218,47842,2,0,P|333:278|271:298,1,135.000005149842,0|0,0:0|0:0,0:0:0:0:
265,203,48316,1,2,0:0:0:0:
255,111,48474,2,0,P|301:118|365:103,1,101.250003862381,2|0,0:0|0:0,0:0:0:0:
431,94,48789,2,0,P|400:130|382:193,1,101.250003862381,2|0,0:0|0:0,0:0:0:0:
355,255,49105,2,0,P|338:210|293:163,1,101.250003862381,2|0,0:0|0:0,0:0:0:0:
276,184,49421,2,0,P|272:220|291:259,1,67.5000025749208
88,116,49737,6,0,P|64:164|72:232,1,101.250003862381,0|0,1:0|0:0,0:0:0:0:
108,272,50053,2,0,P|132:224|124:156,1,101.250003862381,0|0,1:0|0:0,0:0:0:0:
204,97,50368,2,0,P|204:147|228:192,1,101.250003862381,0|0,1:0|0:0,0:0:0:0:
272,132,50684,2,0,P|271:81|248:37,1,101.250003862381,0|0,1:0|0:0,0:0:0:0:
248,37,51000,1,0,1:0:0:0:
436,256,51316,5,0,1:0:0:0:
436,256,51474,1,0,1:0:0:0:
392,168,51631,2,0,P|348:204|340:276,1,101.250003862381,2|0,0:0|0:0,0:0:0:0:
383,320,51947,2,0,P|335:334|288:320,1,101.250003862381,2|0,0:0|0:0,0:0:0:0:
287,319,52263,5,4,0:0:0:0:
172,248,52421,1,0,0:0:0:0:
72,152,52579,2,0,P|104:120|160:108,1,90,8|8,0:0|0:0,0:0:0:0:
276,148,52895,1,0,0:0:0:0:
244,16,53053,1,0,0:0:0:0:
120,28,53210,5,8,0:0:0:0:
120,28,53289,1,0,0:0:0:0:
120,28,53368,1,8,0:0:0:0:
120,28,53447,1,0,0:0:0:0:
104,48,53526,5,8,0:0:0:0:
88,72,53605,1,0,0:0:0:0:
80,96,53684,1,0,0:0:0:0:
73,122,53763,1,0,0:0:0:0:
69,148,53842,1,8,0:0:0:0:
68,175,53921,1,0,0:0:0:0:
68,202,54000,1,0,0:0:0:0:
68,229,54079,1,0,0:0:0:0:
69,255,54158,6,0,B|69:280|69:280|77:296|77:296|78:329,1,67.5,8|0,0:0|2:0,0:0:0:0:
69,334,54474,6,0,P|145:329|223:287,1,135,4|0,0:2|2:0,0:0:0:0:
321,186,54789,6,0,B|381:170|381:170|427:194,1,112.5,14|0,0:0|0:0,0:0:0:0:
190,199,55105,2,0,B|130:215|130:215|84:191,1,112.5,10|0,0:0|0:0,0:0:0:0:
317,217,55421,6,0,B|377:231|377:231|407:274,1,112.5,10|0,0:0|0:0,0:0:0:0:
195,167,55737,2,0,B|135:153|135:153|105:110,1,112.5,10|0,0:0|0:0,0:0:0:0:
220,28,56053,5,10,0:0:0:0:
356,156,56210,1,0,0:0:0:0:
180,239,56368,1,8,0:0:0:0:
280,116,56526,1,2,0:0:0:0:
384,276,56684,2,0,P|364:336|316:384,1,112.5,8|0,0:0|0:0,0:0:0:0:
300,376,56921,1,0,0:0:0:0:
268,376,57000,6,0,P|208:364|160:336,1,112.5,8|0,0:0|0:0,0:0:0:0:
56,136,57316,2,2,P|36:184|28:260,1,112.5,14|0,0:0|0:0,0:0:0:0:
55,358,57631,2,2,P|111:356|187:326,1,112.5,8|0,0:0|0:0,0:0:0:0:
390,214,57947,6,2,P|397:158|384:98,1,112.5,10|0,0:0|0:0,0:0:0:0:
368,74,58184,1,0,0:0:0:0:
341,52,58263,2,2,P|297:28|230:17,1,112.5,8|0,0:0|0:0,0:0:0:0:
97,197,58579,6,0,P|104:251|150:342,1,112.5,10|0,0:0|0:0,0:0:0:0:
144,324,58816,1,0,0:0:0:0:
168,340,58895,1,8,0:0:0:0:
336,332,59053,2,0,P|341:280|332:215,1,112.5,10|0,0:0|0:0,0:0:0:0:
324,192,59289,1,0,0:0:0:0:
312,168,59368,1,8,0:0:0:0:
188,12,59526,2,0,P|178:67|188:125,1,112.5,0|8,0:0|0:0,0:0:0:0:
297,117,59842,5,14,0:0:0:0:
214,266,60000,1,0,0:0:0:0:
329,148,60158,1,10,0:0:0:0:
180,236,60316,1,0,0:0:0:0:
341,190,60474,1,10,0:0:0:0:
170,193,60632,1,0,0:0:0:0:
330,233,60789,1,10,0:0:0:0:
181,150,60947,1,0,0:0:0:0:
34,237,61105,5,10,0:0:0:0:
181,150,61263,1,0,0:0:0:0:
330,233,61421,1,8,0:0:0:0:
181,150,61579,1,2,0:0:0:0:
33,64,61737,2,0,P|12:120|3:178,1,112.5,8|0,0:0|0:0,0:0:0:0:
55,329,62053,6,0,P|109:348|183:358,1,112.5,10|0,0:0|0:0,0:0:0:0:
416,44,62368,2,2,P|454:133|436:271,1,225,14|8,0:0|0:0,0:0:0:0:
337,363,62842,1,0,0:0:0:0:
118,61,63000,2,2,P|103:172|144:276,1,225,10|8,0:0|0:0,0:0:0:0:
184,384,63474,1,0,0:0:0:0:
336,260,63631,6,2,P|360:208|356:144,1,112.5,10|0,0:0|0:0,0:0:0:0:
236,180,63947,1,8,0:0:0:0:
336,260,64105,1,10,0:0:0:0:
436,160,64263,2,2,P|424:88|388:44,1,112.5,2|8,0:0|0:0,0:0:0:0:
244,0,64579,2,0,P|172:12|128:48,1,112.5,0|8,0:0|0:0,0:0:0:0:
294,303,64895,6,0,L|321:185,1,112.5,14|0,0:0|0:0,0:0:0:0:
217,80,65210,2,0,L|190:198,1,112.5,10|0,0:0|0:0,0:0:0:0:
353,258,65526,6,0,L|303:147,1,112.5,10|0,0:0|0:0,0:0:0:0:
157,125,65842,2,0,L|207:236,1,112.5,10|0,0:0|0:0,0:0:0:0:
312,371,66158,6,0,P|375:372|431:341,1,112.5,10|0,0:0|0:0,0:0:0:0:
494,239,66474,2,0,P|483:176|442:127,1,112.5,8|2,0:0|0:0,0:0:0:0:
344,68,66789,1,8,0:0:0:0:
320,44,66868,1,0,0:0:0:0:
288,32,66947,1,0,0:0:0:0:
200,168,67105,5,10,0:0:0:0:
112,260,67263,1,0,0:0:0:0:
0,168,67421,2,2,P|20:108|92:48,1,112.5,14|0,0:0|0:0,0:0:0:0:
80,56,67658,1,0,0:0:0:0:
112,44,67737,1,8,0:0:0:0:
226,46,67895,1,0,0:0:0:0:
226,46,67974,1,0,0:0:0:0:
226,46,68053,6,2,P|262:90|290:138,1,112.5,10|0,0:0|0:0,0:0:0:0:
302,170,68289,1,0,0:0:0:0:
310,202,68368,1,8,0:0:0:0:
296,372,68526,1,0,0:0:0:0:
86,275,68684,6,2,P|66:182|75:122,1,112.5,10|0,0:0|0:0,0:0:0:0:
66,165,68921,1,0,0:0:0:0:
66,165,69000,1,8,0:0:0:0:
164,18,69158,1,10,0:0:0:0:
426,109,69316,6,0,P|446:202|437:262,1,112.5,0|8,0:0|0:0,0:0:0:0:
446,219,69553,1,0,0:0:0:0:
446,219,69632,1,0,0:0:0:0:
348,366,69790,1,8,0:0:0:0:
172,300,69947,5,14,0:0:0:0:
256,192,70105,1,0,0:0:0:0:
340,84,70263,1,10,0:0:0:0:
256,192,70421,1,0,0:0:0:0:
120,208,70579,5,10,0:0:0:0:
256,192,70737,1,0,0:0:0:0:
391,175,70895,1,10,0:0:0:0:
256,192,71053,1,0,0:0:0:0:
148,108,71210,5,10,0:0:0:0:
256,192,71368,1,0,0:0:0:0:
340,84,71526,2,0,P|302:34|247:6,1,112.5,8|2,0:0|0:0,0:0:0:0:
110,22,71842,1,8,0:0:0:0:
9,131,72000,5,0,0:0:0:0:
9,131,72079,1,0,0:0:0:0:
9,131,72158,2,0,P|7:189|32:251,1,112.5,10|0,0:0|0:0,0:0:0:0:
138,308,72474,5,14,0:0:0:0:
385,200,72631,1,12,0:0:0:0:
138,308,72947,5,8,0:0:0:0:
138,308,73026,1,0,0:0:0:0:
138,308,73105,1,14,0:0:0:0:
273,108,73263,1,12,0:0:0:0:
273,108,73579,5,0,0:0:0:0:
407,31,73737,2,2,P|426:84|431:159,1,112.5,10|0,0:0|0:0,0:0:0:0:
334,262,74053,1,8,0:0:0:0:
273,108,74210,1,2,0:0:0:0:
432,139,74368,1,10,0:0:0:0:
432,139,74684,6,2,B|300:213|333:151|226:249,1,225,0|12,0:0|0:0,0:0:0:0:
214,252,75316,1,0,0:0:0:0:
193,261,75631,1,12,0:0:0:0:
172,269,75947,2,0,P|105:242|61:204,1,112.5
83,191,76263,5,8,0:0:0:0:
80,168,76421,1,0,0:0:0:0:
108,188,76579,1,8,0:0:0:0:
108,164,76737,1,0,0:0:0:0:
150,130,76895,21,8,1:0:0:0:
179,109,76974,1,0,1:0:0:0:
213,97,77053,1,0,1:0:0:0:
248,97,77131,1,0,1:0:0:0:
281,108,77210,1,0,1:0:0:0:
306,133,77289,1,0,1:0:0:0:
319,166,77368,1,0,1:0:0:0:
320,201,77447,1,0,2:0:0:0:
316,236,77526,6,0,P|304:284|312:348,1,90,6|0,0:0|0:0,0:0:0:0:
341,333,77763,1,0,0:0:0:0:
376,330,77842,1,8,0:0:0:0:
464,239,78000,1,0,0:0:0:0:
437,102,78158,6,0,P|408:77|361:69,1,62.9999980773926,2|0,0:0|0:0,0:0:0:0:
375,142,78474,6,0,P|332:126|310:75,1,76.5000014591217,10|0,0:0|0:0,0:0:0:0:
384,69,78789,6,0,P|352:39|301:27,1,90,2|0,0:0|0:0,0:0:0:0:
182,26,79105,1,8,0:0:0:0:
65,73,79263,1,2,0:0:0:0:
68,332,79421,2,0,P|88:277|90:221,1,90
96,204,79658,1,0,0:0:0:0:
92,164,79737,1,10,0:0:0:0:
65,73,79895,1,0,0:0:0:0:
102,87,79974,1,0,0:0:0:0:
140,98,80053,6,0,P|183:120|261:100,1,90,2|0,0:0|0:0,0:0:0:0:
438,54,80368,2,0,P|395:32|317:52,1,90,10|0,0:0|0:0,0:0:0:0:
196,44,80684,1,0,0:0:0:0:
378,108,80842,1,0,0:0:0:0:
460,203,81000,6,0,L|465:316,1,90,10|0,0:0|0:0,0:0:0:0:
466,334,81237,1,0,0:0:0:0:
467,374,81316,2,0,P|420:359|356:354,1,90,2|0,0:0|0:0,0:0:0:0:
253,348,81631,2,0,P|224:325|216:242,1,90,8|0,0:0|0:0,0:0:0:0:
207,149,81947,5,0,0:0:0:0:
216,96,82026,1,0,0:0:0:0:
268,80,82105,1,0,0:0:0:0:
312,112,82184,1,0,0:0:0:0:
308,164,82263,1,8,0:0:0:0:
284,276,82421,1,0,0:0:0:0:
276,316,82500,1,0,0:0:0:0:
264,356,82579,6,0,P|224:340|176:296,1,90,6|0,0:0|0:0,0:0:0:0:
68,72,82895,2,0,P|108:88|156:132,1,90,8|0,0:0|0:0,0:0:0:0:
72,252,83210,6,0,P|84:280|84:316,1,62.9999980773926,2|0,0:0|0:0,0:0:0:0:
72,252,83526,6,0,P|32:248|-8:220,1,76.5000014591217,10|0,0:0|0:0,0:0:0:0:
72,252,83842,6,0,P|104:216|148:192,1,90,2|0,0:0|0:0,0:0:0:0:
252,132,84158,1,8,0:0:0:0:
364,188,84316,1,2,0:0:0:0:
264,268,84474,1,0,0:0:0:0:
252,132,84631,1,0,0:0:0:0:
264,92,84710,1,0,0:0:0:0:
296,68,84789,1,10,0:0:0:0:
420,56,84947,1,0,0:0:0:0:
460,68,85026,1,0,0:0:0:0:
500,80,85105,6,0,L|472:176,1,90,2|0,0:0|0:0,0:0:0:0:
324,352,85421,2,0,L|352:256,1,90,10|0,0:0|0:0,0:0:0:0:
432,328,85737,1,0,0:0:0:0:
248,280,85895,1,0,0:0:0:0:
100,228,86053,2,0,P|68:184|56:132,1,90,8|0,0:0|0:0,0:0:0:0:
168,8,86368,5,8,0:0:0:0:
268,96,86526,1,8,0:0:0:0:
236,228,86684,1,8,0:0:0:0:
100,228,86842,1,10,0:0:0:0:
68,96,87000,1,8,0:0:0:0:
68,96,87316,6,0,P|104:96|144:76,1,67.5,6|0,0:0|0:0,0:0:0:0:
132,68,87631,6,0,B|156:128|156:128|208:168|196:240,1,180,6|8,0:0|0:0,0:0:0:0:
112,204,88105,1,0,0:0:0:0:
228,80,88263,6,0,P|236:44|256:16,1,62.9999980773926,2|0,0:0|0:0,0:0:0:0:
228,80,88579,6,0,P|252:64|304:48,1,76.5000014591217,10|0,0:0|0:0,0:0:0:0:
228,80,88895,6,0,P|276:80|336:100,1,90,2|0,0:0|0:0,0:0:0:0:
432,144,89210,1,8,0:0:0:0:
372,288,89368,2,0,P|296:328|212:280,1,180,2|0,0:0|0:0,0:0:0:0:
244,256,89763,1,0,0:0:0:0:
268,224,89842,1,10,0:0:0:0:
348,128,90000,1,0,0:0:0:0:
360,88,90079,1,0,0:0:0:0:
364,48,90158,6,0,P|313:43|240:60,1,90,2|0,0:0|0:0,0:0:0:0:
76,144,90474,2,0,P|126:148|200:132,1,90,10|0,0:0|0:0,0:0:0:0:
180,104,90710,1,0,0:0:0:0:
184,64,90789,1,0,0:0:0:0:
60,76,90947,1,0,0:0:0:0:
32,200,91105,6,0,P|25:247|40:316,1,90,10|0,0:0|0:0,0:0:0:0:
152,384,91421,2,0,P|158:336|144:268,1,90,2|0,0:0|0:0,0:0:0:0:
140,168,91737,1,8,0:0:0:0:
244,100,91895,1,0,0:0:0:0:
292,80,91974,1,0,0:0:0:0:
344,88,92053,1,0,0:0:0:0:
444,164,92210,1,0,0:0:0:0:
476,208,92289,1,0,0:0:0:0:
448,256,92368,1,8,0:0:0:0:
344,328,92526,1,0,0:0:0:0:
308,288,92605,1,0,0:0:0:0:
316,236,92684,6,0,P|320:188|296:148,1,90,2|0,0:0|0:0,0:0:0:0:
180,116,93000,1,8,0:0:0:0:
104,216,93158,1,0,0:0:0:0:
228,236,93316,6,0,P|272:252|320:232,1,94.499997116089,2|0,0:0|0:0,0:0:0:0:
380,264,93631,6,0,P|340:292|320:356,1,114.750002188683,10|0,0:0|0:0,0:0:0:0:
260,384,93947,6,0,P|244:328|168:300,1,135,2|0,0:0|2:0,0:0:0:0:
177,298,94263,1,8,0:0:0:0:
184,372,94421,2,0,P|108:320|136:236,1,180,2|0,0:0|0:0,0:0:0:0:
160,224,94816,1,0,0:0:0:0:
196,208,94895,1,10,0:0:0:0:
320,188,95053,1,0,0:0:0:0:
356,168,95131,1,0,0:0:0:0:
392,148,95210,6,0,L|284:144,1,90,2|0,0:0|0:0,0:0:0:0:
196,76,95526,2,0,L|88:72,1,90,10|0,0:0|0:0,0:0:0:0:
16,164,95842,1,0,0:0:0:0:
32,288,96000,1,0,0:0:0:0:
132,368,96158,6,0,L|136:260,1,90,10|0,0:0|0:0,0:0:0:0:
192,164,96474,2,0,L|196:56,1,90,2|0,0:0|0:0,0:0:0:0:
304,12,96789,1,8,0:0:0:0:
420,64,96947,1,2,0:0:0:0:
452,188,97105,1,0,0:0:0:0:
472,240,97184,1,0,0:0:0:0:
452,292,97263,1,0,0:0:0:0:
400,304,97342,1,0,0:0:0:0:
352,280,97421,1,10,0:0:0:0:
248,208,97579,1,0,0:0:0:0:
248,208,97658,1,0,0:0:0:0:
248,208,97737,6,0,L|212:160,1,45,8|0,0:2|0:0,0:0:0:0:
80,0,97895,2,0,L|116:48,1,45,8|0,0:2|0:0,0:0:0:0:
60,188,98053,2,0,L|108:152,1,45,8|0,0:2|0:2,0:0:0:0:
268,20,98210,2,0,L|220:56,1,45,8|0,0:2|0:0,0:0:0:0:
168,104,98368,1,8,0:2:0:0:
168,104,98684,6,2,P|136:184|188:288,1,180,6|0,0:0|0:0,0:0:0:0:
220,188,99157,1,0,0:0:0:0:
269,268,99315,2,2,P|300:186|268:104,1,180,2|0,0:0|0:0,0:0:0:0:
220,188,99789,1,0,0:0:0:0:
132,180,99947,5,2,0:2:0:0:
151,220,100025,1,2,0:2:0:0:
184,250,100104,1,2,0:2:0:0:
226,267,100183,1,2,0:2:0:0:
270,268,100262,1,2,0:2:0:0:
444,184,100420,2,2,L|352:164,1,90,2|2,0:0|0:0,0:0:0:0:
356,164,101210,6,0,P|352:115|364:72,1,90,2|0,0:0|0:0,0:0:0:0:
448,264,101526,2,0,P|451:313|440:356,1,90,2|0,0:0|0:0,0:0:0:0:
332,288,101841,1,0,0:0:0:0:
356,164,101999,1,0,0:0:0:0:
252,92,102157,2,0,P|220:56|176:40,2,90,0|0|2,0:0|0:0|0:2,0:0:0:0:
264,112,102552,1,2,0:2:0:0:
272,132,102631,1,2,0:2:0:0:
276,152,102710,1,2,0:2:0:0:
284,172,102789,2,0,L|296:240,1,45
212,232,102947,2,0,L|208:288,1,45
128,260,103105,1,2,0:2:0:0:
128,260,103420,6,0,L|88:336,1,67.5,6|0,0:0|0:0,0:0:0:0:
80,336,103736,6,2,L|96:152,1,180,6|8,0:0|0:0,0:0:0:0:
148,40,104210,1,0,0:0:0:0:
248,0,104368,2,2,L|232:184,1,180,6|8,0:0|0:0,0:0:0:0:
272,300,104841,1,0,0:0:0:0:
392,344,104999,5,2,0:0:0:0:
468,180,105157,1,2,0:0:0:0:
368,32,105315,1,10,0:0:0:0:
204,104,105473,1,10,0:0:0:0:
192,284,105631,1,10,0:0:0:0:
192,284,105947,6,2,B|140:296|140:296|56:272|44:188,1,180,10|0,0:0|0:0,0:0:0:0:
144,200,106420,1,2,0:2:0:0:
204,120,106578,2,0,L|252:152,1,45,8|0,0:0|2:0,0:0:0:0:
356,232,106736,2,0,L|308:200,1,45,8|0,0:0|2:0,0:0:0:0:
200,72,106894,6,0,L|235:117,1,45,8|0,0:0|2:0,0:0:0:0:
360,280,107052,2,0,L|324:234,1,45,8|0,0:0|2:0,0:0:0:0:
244,28,107210,6,0,L|257:84,1,45,8|0,0:0|2:0,0:0:0:0:
316,324,107368,2,0,L|302:267,1,45,8|0,0:0|2:0,0:0:0:0:
280,180,107526,5,2,0:2:0:0:
450,128,107684,1,2,0:2:0:0:
433,304,107841,1,2,0:2:0:0:
262,356,107999,1,2,0:2:0:0:
152,296,108157,5,0,2:0:0:0:
144,284,108236,1,0,2:0:0:0:
136,272,108315,1,0,2:0:0:0:
132,260,108394,1,0,2:0:0:0:
128,248,108473,1,0,2:0:0:0:
124,236,108552,1,0,2:0:0:0:
120,224,108631,1,2,2:0:0:0:
116,212,108710,1,0,2:0:0:0:
112,200,108789,6,2,P|114:104|156:28,1,180,6|0,0:0|2:0,0:0:0:0:
204,132,109262,1,0,0:0:0:0:
224,224,109420,2,2,B|280:208|301:130|301:130|372:100,1,180,2|0,0:0|2:0,0:0:0:0:
380,208,109894,1,0,0:0:0:0:
360,344,110052,6,0,P|292:324|224:328,1,135,2|0,0:0|2:0,0:0:0:0:
40,284,110368,2,0,P|108:264|176:268,1,135,2|0,0:0|2:0,0:0:0:0:
368,232,110684,2,0,P|300:212|232:216,1,135,2|0,0:0|2:0,0:0:0:0:
48,172,111000,2,0,P|116:152|184:156,1,135,2|0,0:0|2:0,0:0:0:0:
248,88,111315,6,0,P|328:84|384:24,1,135,2|0,0:0|2:0,0:0:0:0:
408,20,111631,2,0,P|371:91|395:169,1,135,2|0,0:0|2:0,0:0:0:0:
396,188,111947,2,0,P|352:120|272:102,1,135,2|0,0:0|2:0,0:0:0:0:
304,80,112262,2,0,P|304:128|272:172,1,90,2|0,0:0|0:0,0:0:0:0:
272,172,112499,1,0,0:0:0:0:
260,180,112578,6,2,P|168:172|76:216,1,180,2|8,0:0|0:0,0:0:0:0:
80,216,112973,1,0,0:0:0:0:
72,228,113052,1,0,0:0:0:0:
44,344,113210,1,8,0:0:0:0:
164,360,113368,1,8,0:0:0:0:
180,356,113447,1,0,0:0:0:0:
196,348,113526,1,8,0:0:0:0:
288,272,113684,1,0,0:0:0:0:
344,164,113841,6,0,P|326:93|284:40,1,135.000005149842,4|0,0:0|0:0,0:0:0:0:
176,16,114315,1,0,0:0:0:0:
116,116,114473,2,0,P|133:186|176:240,1,135.000005149842,0|0,0:0|0:0,0:0:0:0:
228,136,114947,1,0,0:0:0:0:
304,48,115105,6,0,P|348:80|380:132,1,101.250003862381,2|0,0:0|0:0,0:0:0:0:
300,128,115420,2,0,P|329:169|370:198,1,101.250003862381,2|0,0:0|0:0,0:0:0:0:
448,236,115736,2,0,P|442:290|413:343,1,101.250003862381,2|0,0:0|0:0,0:0:0:0:
376,272,116052,2,0,P|354:317|349:367,1,101.250003862381,2|0,0:0|0:0,0:0:0:0:
252,372,116368,6,0,L|136:332,1,101.250003862381,0|0,1:0|0:0,0:0:0:0:
196,292,116684,2,0,L|80:252,1,101.250003862381,0|0,1:0|0:0,0:0:0:0:
76,181,116999,2,0,L|120:67,1,101.250003862381,0|0,1:0|0:0,0:0:0:0:
158,128,117315,2,0,L|202:14,1,101.250003862381,0|0,1:0|0:0,0:0:0:0:
240,72,117631,1,0,1:0:0:0:
301,344,117947,5,0,1:0:0:0:
301,344,118105,1,0,1:0:0:0:
216,296,118262,2,0,P|254:253|326:249,1,101.250003862381,2|0,0:0|0:0,0:0:0:0:
368,294,118578,2,0,P|384:246|372:199,1,101.250003862381,2|0,0:0|0:0,0:0:0:0:
372,198,118894,5,4,0:0:0:0:
312,76,119052,1,0,0:0:0:0:
228,184,119210,2,0,P|192:216|136:236,1,90,8|8,0:0|0:0,0:0:0:0:
24,196,119526,1,0,0:0:0:0:
108,92,119684,1,0,0:0:0:0:
232,40,119841,1,8,0:0:0:0:
232,40,119920,1,0,0:0:0:0:
232,40,119999,1,8,0:0:0:0:
232,40,120078,1,0,0:0:0:0:
252,60,120157,5,8,0:0:0:0:
264,84,120236,1,0,0:0:0:0:
272,108,120315,1,0,0:0:0:0:
280,132,120394,1,0,0:0:0:0:
284,160,120473,1,8,0:0:0:0:
292,184,120552,1,0,0:0:0:0:
308,208,120631,1,0,0:0:0:0:
324,228,120710,1,0,0:0:0:0:
340,244,120789,6,0,B|356:252|356:252|368:268|368:268|368:272|404:292,1,67.5,8|0,0:0|2:0,0:0:0:0:
412,280,121105,6,0,P|359:311|280:308,1,135,4|0,0:2|2:0,0:0:0:0:
192,232,121420,6,0,P|156:188|76:148,1,112.5,14|0,0:0|0:0,0:0:0:0:
320,152,121736,2,0,P|356:196|436:236,1,112.5,10|0,0:0|0:0,0:0:0:0:
204,184,122052,6,0,P|154:155|65:147,1,112.5,10|0,0:0|0:0,0:0:0:0:
308,200,122368,2,0,P|357:228|446:236,1,112.5,10|0,0:0|0:0,0:0:0:0:
392,104,122684,5,10,0:0:0:0:
228,272,122841,1,0,0:0:0:0:
460,316,122999,1,8,0:0:0:0:
308,200,123157,1,2,0:0:0:0:
144,368,123315,2,0,P|80:368|0:328,1,112.5,8|0,0:0|0:0,0:0:0:0:
28,344,123552,1,0,0:0:0:0:
20,336,123631,6,0,L|16:204,1,112.5,10|0,0:0|0:0,0:0:0:0:
80,16,123947,2,2,L|84:148,1,112.5,12|0,0:0|0:0,0:0:0:0:
88,296,124262,2,2,P|144:304|240:280,1,112.5,8|0,0:0|0:0,0:0:0:0:
452,308,124578,2,2,P|439:252|382:171,1,112.5,8|0,0:0|0:0,0:0:0:0:
392,176,124815,1,0,0:0:0:0:
368,152,124894,2,2,P|312:144|216:168,1,112.5,8|0,0:0|0:0,0:0:0:0:
16,248,125210,6,2,P|16:176|32:104,1,112.5,10|0,0:0|0:0,0:0:0:0:
36,104,125447,1,0,0:0:0:0:
56,76,125526,1,8,0:0:0:0:
244,24,125684,1,10,0:0:0:0:
396,144,125841,2,0,P|396:216|380:288,1,112.5,0|8,0:0|0:0,0:0:0:0:
376,288,126078,1,0,0:0:0:0:
356,316,126157,1,0,0:0:0:0:
188,344,126315,1,8,0:0:0:0:
128,184,126473,5,14,0:0:0:0:
264,64,126631,1,0,0:0:0:0:
384,200,126789,1,10,0:0:0:0:
248,320,126947,1,0,0:0:0:0:
139,138,127105,5,10,0:0:0:0:
309,75,127263,1,0,0:0:0:0:
372,245,127421,1,10,0:0:0:0:
202,308,127579,1,0,0:0:0:0:
166,100,127736,5,10,0:0:0:0:
382,213,127894,1,0,0:0:0:0:
141,249,128052,1,8,0:0:0:0:
315,78,128210,1,2,0:0:0:0:
274,318,128368,1,8,0:0:0:0:
56,280,128526,1,0,0:0:0:0:
56,280,128605,1,0,0:0:0:0:
56,280,128684,6,0,P|64:216|92:164,1,112.5,10|0,0:0|0:0,0:0:0:0:
244,64,128999,2,2,P|384:68|472:108,1,225,12|8,0:0|0:0,0:0:0:0:
472,308,129473,1,0,0:0:0:0:
268,320,129631,2,2,P|128:316|40:276,1,225,8|8,0:0|0:0,0:0:0:0:
188,136,130105,1,0,0:0:0:0:
300,244,130262,6,2,P|351:270|432:268,1,112.5,10|0,0:0|0:0,0:0:0:0:
424,244,130499,1,0,0:0:0:0:
428,212,130578,1,8,0:0:0:0:
384,48,130736,1,10,0:0:0:0:
384,48,130815,1,0,0:0:0:0:
384,48,130894,2,2,P|320:40|248:60,1,112.5,2|8,0:0|0:0,0:0:0:0:
240,60,131131,1,0,0:0:0:0:
212,76,131210,1,0,0:0:0:0:
128,216,131368,1,8,0:0:0:0:
240,340,131526,6,0,B|284:288|284:288|284:240,1,112.5,14|0,0:0|0:0,0:0:0:0:
272,44,131841,2,0,B|227:95|227:95|228:144,1,112.5,10|0,0:0|0:0,0:0:0:0:
323,324,132157,6,0,B|332:257|332:257|305:217,1,112.5,10|0,0:0|0:0,0:0:0:0:
189,60,132473,2,0,B|180:127|180:127|207:167,1,112.5,10|0,0:0|0:0,0:0:0:0:
360,228,132789,6,0,P|412:236|480:228,1,112.5,10|0,0:0|0:0,0:0:0:0:
480,224,133026,1,0,0:0:0:0:
488,216,133105,2,0,P|479:281|448:332,1,112.5,8|2,0:0|0:0,0:0:0:0:
288,340,133420,2,0,P|228:328|168:300,1,112.5,8|0,0:0|0:0,0:0:0:0:
184,272,133657,1,0,0:0:0:0:
200,240,133736,1,8,0:0:0:0:
272,84,133894,1,0,0:0:0:0:
440,40,134052,6,0,P|436:120|404:176,1,112.5,14|0,0:0|0:0,0:0:0:0:
396,168,134289,1,0,0:0:0:0:
364,180,134368,1,10,0:0:0:0:
208,172,134526,1,0,0:0:0:0:
176,168,134605,1,0,0:0:0:0:
144,180,134684,2,2,P|94:209|56:256,1,112.5,8|0,0:0|0:0,0:0:0:0:
40,280,134920,1,0,0:0:0:0:
24,312,134999,2,2,P|68:340|148:360,1,112.5,8|0,0:0|0:0,0:0:0:0:
272,320,135315,5,10,0:0:0:0:
284,300,135394,1,0,0:0:0:0:
296,280,135473,1,0,0:0:0:0:
364,320,135631,5,8,0:0:0:0:
376,300,135710,1,0,0:0:0:0:
388,280,135789,1,10,0:0:0:0:
448,320,135947,5,0,0:0:0:0:
460,300,136026,1,0,0:0:0:0:
472,280,136105,1,8,0:0:0:0:
396,188,136262,5,0,0:0:0:0:
372,188,136341,1,0,0:0:0:0:
348,188,136420,1,8,0:0:0:0:
207,115,136578,5,14,0:0:0:0:
214,272,136736,1,0,0:0:0:0:
348,188,136894,1,10,0:0:0:0:
153,129,137052,5,0,0:0:0:0:
253,312,137210,1,10,0:0:0:0:
361,134,137368,1,0,0:0:0:0:
99,142,137526,5,10,0:0:0:0:
291,352,137684,1,0,0:0:0:0:
376,80,137842,5,10,0:0:0:0:
207,115,137999,1,0,0:0:0:0:
324,236,138157,1,8,0:0:0:0:
353,153,138315,1,2,0:0:0:0:
184,188,138472,1,8,0:0:0:0:
108,304,138631,1,0,0:0:0:0:
88,332,138710,1,0,0:0:0:0:
68,360,138789,6,0,L|72:248,1,112.5,8|0,0:0|0:0,0:0:0:0:
76,80,139105,1,14,0:0:0:0:
76,80,139262,1,12,0:0:0:0:
228,44,139578,5,8,0:0:0:0:
212,48,139657,1,0,0:0:0:0:
196,52,139736,1,14,0:0:0:0:
76,80,139894,1,12,0:0:0:0:
76,80,140210,5,0,0:0:0:0:
68,228,140368,2,2,P|110:264|188:288,1,112.5,10|0,0:0|0:0,0:0:0:0:
172,164,140684,1,8,0:0:0:0:
68,348,140841,1,2,0:0:0:0:
280,328,140999,1,10,0:0:0:0:
280,328,141315,6,0,P|352:288|436:208,1,168.75,0|0,0:0|2:0,0:0:0:0:
416,231,141631,6,0,P|412:177|400:124,1,90,6|0,0:0|0:0,0:0:0:0:
300,236,141947,2,0,P|295:181|283:128,1,90,10|0,0:0|0:0,0:0:0:0:
184,240,142262,2,0,P|179:185|167:132,1,90,2|0,0:0|0:0,0:0:0:0:
52,168,142578,1,8,0:0:0:0:
56,48,142736,1,2,0:0:0:0:
56,48,142815,1,0,0:0:0:0:
56,48,142894,2,0,P|92:64|140:100,1,90,2|0,0:0|0:0,0:0:0:0:
188,24,143210,2,0,P|224:40|272:76,1,90,10|0,0:0|0:0,0:0:0:0:
344,132,143526,5,2,0:2:0:0:
428,132,143684,1,2,0:2:0:0:
428,132,143762,1,2,0:2:0:0:
428,132,143841,1,2,0:2:0:0:
404,212,143999,1,2,0:2:0:0:
432,348,144157,6,0,P|388:356|344:348,1,90,6|0,0:0|0:0,0:0:0:0:
388,284,144473,2,0,P|344:276|300:284,1,90,10|0,0:0|0:0,0:0:0:0:
252,348,144789,2,0,P|230:308|224:264,1,90,2|0,0:0|0:0,0:0:0:0:
260,160,145105,1,8,0:0:0:0:
200,72,145262,1,2,0:0:0:0:
200,72,145341,1,0,0:0:0:0:
200,72,145420,2,0,P|160:84|112:120,1,90,2|0,0:0|0:0,0:0:0:0:
112,188,145736,2,0,P|152:176|200:140,1,90,10|0,0:0|0:0,0:0:0:0:
200,72,146052,5,2,0:2:0:0:
272,52,146210,1,2,0:2:0:0:
272,52,146289,1,2,0:2:0:0:
272,52,146368,1,2,0:2:0:0:
292,124,146526,1,2,0:2:0:0:
344,236,146684,6,0,P|300:268|264:320,1,90,6|0,0:0|0:0,0:0:0:0:
144,308,146999,2,0,P|188:276|224:224,1,90,10|0,0:0|0:0,0:0:0:0:
224,124,147315,2,0,P|180:156|144:208,1,90,2|0,0:0|0:0,0:0:0:0:
144,308,147631,1,8,0:0:0:0:
248,376,147789,1,2,0:0:0:0:
248,376,147868,1,0,0:0:0:0:
248,376,147947,2,0,P|289:362|336:316,1,90,2|0,0:0|0:0,0:0:0:0:
352,216,148262,2,0,P|311:230|264:276,1,90,10|0,0:0|0:0,0:0:0:0:
248,376,148578,5,0,0:0:0:0:
112,368,148736,1,2,0:0:0:0:
112,368,148815,1,0,0:0:0:0:
112,368,148894,2,0,P|76:324|56:272,1,90,8|2,0:0|0:0,0:0:0:0:
62,294,149131,1,0,0:0:0:0:
62,294,149210,6,0,P|76:248|112:192,1,90,6|0,0:0|0:0,0:0:0:0:
132,100,149526,2,0,P|165:134|195:194,1,90,10|0,0:0|0:0,0:0:0:0:
264,256,149841,2,0,P|217:267|150:263,1,90,2|0,0:0|0:0,0:0:0:0:
96,211,150157,1,8,0:0:0:0:
186,170,150315,1,2,0:0:0:0:
186,170,150394,1,0,0:0:0:0:
186,170,150473,6,0,P|236:160|296:124,1,90,2|0,0:0|0:0,0:0:0:0:
360,160,150789,2,0,P|349:110|313:50,1,90,10|0,0:0|0:0,0:0:0:0:
200,76,151105,1,0,0:0:0:0:
80,128,151262,1,2,0:0:0:0:
80,128,151341,1,0,0:0:0:0:
80,128,151420,6,0,B|80:152|80:152|72:176|72:176|72:212,1,67.5,8|0,0:0|0:0,0:0:0:0:
48,192,151736,6,0,P|96:264|216:304,1,180,4|8,0:0|0:0,0:0:0:0:
372,252,152210,2,0,P|324:180|204:140,1,180
276,228,152684,2,0,P|348:180|380:104,1,135,8|0,0:0|0:0,0:0:0:0:
380,116,152999,5,2,0:2:0:0:
384,92,153078,1,0,0:0:0:0:
376,72,153157,1,0,0:0:0:0:
360,56,153236,1,0,0:0:0:0:
340,48,153315,1,8,0:0:0:0:
316,48,153394,1,0,0:0:0:0:
296,52,153473,1,0,0:0:0:0:
276,64,153552,1,0,0:0:0:0:
260,80,153631,5,2,0:2:0:0:
248,108,153710,1,0,0:0:0:0:
236,136,153789,1,0,0:0:0:0:
220,164,153868,1,0,0:0:0:0:
196,184,153947,1,8,0:0:0:0:
168,196,154026,1,0,0:0:0:0:
136,196,154105,1,0,0:0:0:0:
108,184,154184,1,0,0:0:0:0:
84,164,154262,6,2,L|56:124,1,45,2|0,0:0|0:0,0:0:0:0:
120,16,154420,1,0,0:0:0:0:
160,16,154499,1,0,0:0:0:0:
196,36,154578,2,2,L|240:72,1,45,10|0,0:0|0:0,0:0:0:0:
352,180,154736,1,0,0:0:0:0:
356,220,154815,1,0,0:0:0:0:
352,260,154894,2,2,L|336:308,1,45,2|0,0:0|0:0,0:0:0:0:
212,372,155052,1,0,0:0:0:0:
208,332,155131,1,0,0:0:0:0:
212,292,155210,2,2,L|228:244,1,45,10|0,0:0|0:0,0:0:0:0:
276,116,155368,5,0,0:0:0:0:
288,92,155447,1,0,0:0:0:0:
308,76,155526,1,2,0:2:0:0:
332,68,155605,1,0,0:0:0:0:
360,64,155684,1,0,0:0:0:0:
388,64,155762,1,0,0:0:0:0:
412,76,155841,1,8,0:0:0:0:
428,96,155920,1,0,0:0:0:0:
444,120,155999,1,0,0:0:0:0:
444,148,156078,2,0,L|440:212,1,45,0|2,0:0|0:2,0:0:0:0:
392,336,156236,5,0,0:0:0:0:
372,356,156315,1,0,0:0:0:0:
344,352,156394,1,0,0:0:0:0:
324,332,156473,2,0,P|276:272|256:212,1,135,8|0,0:0|0:0,0:0:0:0:
216,84,156789,5,4,0:0:0:0:
196,52,156868,1,0,0:0:0:0:
164,36,156947,1,0,0:0:0:0:
128,32,157026,1,0,0:0:0:0:
92,40,157105,1,8,0:0:0:0:
40,168,157262,5,0,0:0:0:0:
44,204,157341,1,0,0:0:0:0:
60,236,157420,1,2,0:2:0:0:
88,260,157499,1,0,0:0:0:0:
120,272,157578,1,0,0:0:0:0:
248,240,157736,2,0,L|296:224,1,45,8|0,0:0|0:0,0:0:0:0:
344,292,157894,2,0,L|392:312,1,45
392,196,158052,5,2,0:2:0:0:
408,176,158131,1,0,0:0:0:0:
420,152,158210,1,0,0:0:0:0:
424,124,158289,1,0,0:0:0:0:
420,96,158368,2,0,L|408:28,1,45,8|0,0:0|0:0,0:0:0:0:
272,64,158526,2,0,L|280:116,1,45
348,72,158684,2,0,L|336:4,1,45,2|0,0:2|0:0,0:0:0:0:
200,40,158842,2,0,L|208:92,1,45
244,156,158999,1,8,0:0:0:0:
264,172,159078,1,0,0:0:0:0:
280,196,159157,1,0,0:0:0:0:
292,220,159236,1,0,0:0:0:0:
296,248,159315,6,0,L|304:304,1,45,8|0,0:0|0:0,0:0:0:0:
208,300,159473,2,0,L|160:336,1,45,8|0,0:0|0:0,0:0:0:0:
56,284,159631,1,0,0:0:0:0:
44,240,159710,1,0,0:0:0:0:
44,196,159789,2,0,L|40:144,1,45,8|0,0:0|0:0,0:0:0:0:
120,88,159947,2,0,L|132:144,1,45,8|0,0:0|0:0,0:0:0:0:
204,104,160105,2,0,L|240:48,1,45,8|0,0:0|0:0,0:0:0:0:
316,48,160262,5,0,0:0:0:0:
360,48,160341,1,0,0:0:0:0:
404,60,160420,1,0,0:0:0:0:
436,92,160499,1,0,0:0:0:0:
452,136,160578,2,0,L|460:208,1,45,8|0,0:0|0:0,0:0:0:0:
404,300,160736,5,0,0:0:0:0:
244,348,160894,1,8,0:0:0:0:
196,188,161052,1,0,0:0:0:0:
360,144,161210,2,0,B|378:174|360:222|360:222|390:218|428:196|428:196|421:223|420:252|458:308,1,270,8|0,0:0|0:0,0:0:0:0:
332,332,161841,6,2,P|240:348|144:332,1,180,6|0,0:0|2:0,0:0:0:0:
88,248,162315,1,0,0:0:0:0:
108,140,162473,2,2,B|168:120|168:120|216:60|288:92,1,180,2|0,0:0|2:0,0:0:0:0:
252,184,162947,1,0,0:0:0:0:
252,184,163026,1,0,0:0:0:0:
252,184,163105,6,0,P|304:208|396:204,1,135,2|0,0:0|0:0,0:0:0:0:
400,116,163420,2,0,P|448:152|480:228,1,135,2|0,0:0|0:0,0:0:0:0:
404,356,163736,2,0,P|364:296|292:288,1,135,2|0,0:0|0:0,0:0:0:0:
324,360,164052,2,0,P|260:344|225:288,1,135,2|0,0:0|0:0,0:0:0:0:
136,128,164368,6,0,P|128:200|100:264,1,135,2|0,0:0|0:0,0:0:0:0:
0,344,164684,2,0,P|8:272|36:208,1,135,2|0,0:0|0:0,0:0:0:0:
136,128,164999,6,0,P|208:136|272:164,1,135,2|0,0:0|0:0,0:0:0:0:
352,264,165315,2,0,P|300:264|244:236,1,90,2|0,0:0|0:0,0:0:0:0:
260,236,165552,1,0,0:0:0:0:
256,224,165631,6,2,P|350:195|464:148,1,180,0|10,0:0|0:0,0:0:0:0:
428,152,166026,1,0,0:0:0:0:
424,140,166105,1,0,0:0:0:0:
332,56,166262,1,8,0:0:0:0:
208,72,166420,1,8,0:0:0:0:
208,72,166499,1,0,0:0:0:0:
208,72,166578,1,8,0:0:0:0:
160,188,166736,1,0,0:0:0:0:
144,308,166894,6,0,B|200:320|200:320|224:332|224:332|300:344,1,135.000005149842,4|0,0:0|0:0,0:0:0:0:
356,280,167368,1,0,0:0:0:0:
456,276,167526,2,0,P|420:204|356:180,1,135.000005149842
356,280,167999,1,0,0:0:0:0:
272,224,168157,6,0,P|256:168|280:116,1,101.250003862381,2|0,0:0|0:0,0:0:0:0:
168,132,168473,2,0,P|184:188|160:240,1,101.250003862381,2|0,0:0|0:0,0:0:0:0:
92,256,168789,2,0,P|116:288|192:312,1,101.250003862381,2|0,0:0|0:0,0:0:0:0:
100,384,169105,2,0,P|76:352|0:328,1,101.250003862381,2|0,0:0|0:0,0:0:0:0:
0,224,169420,6,0,P|24:180|88:160,1,101.250003862381,0|0,1:0|0:0,0:0:0:0:
156,136,169736,2,0,P|132:92|68:72,1,101.250003862381,0|0,1:0|0:0,0:0:0:0:
144,8,170052,2,0,L|232:80,1,101.250003862381,0|0,1:0|0:0,0:0:0:0:
260,40,170368,2,0,L|348:112,1,101.250003862381,0|0,1:0|0:0,0:0:0:0:
376,72,170684,1,0,1:0:0:0:
324,244,170999,5,0,1:0:0:0:
324,244,171157,1,0,1:0:0:0:
292,156,171315,2,0,P|252:184|232:240,1,101.250003862381,4|0,0:0|0:0,0:0:0:0:
152,256,171631,1,0,0:0:0:0:
168,285,171709,1,0,0:0:0:0:
195,305,171788,1,0,0:0:0:0:
227,315,171867,1,0,0:0:0:0:
260,311,171946,5,4,0:0:0:0:
392,252,172105,1,0,0:0:0:0:
360,112,172262,2,0,P|328:76|268:56,1,90,8|8,0:0|0:0,0:0:0:0:
148,84,172578,1,0,0:0:0:0:
68,204,172736,1,0,0:0:0:0:
148,324,172894,1,8,0:0:0:0:
148,324,172973,1,0,0:0:0:0:
148,324,173052,1,8,0:0:0:0:
148,324,173131,1,0,0:0:0:0:
164,300,173210,5,8,0:0:0:0:
188,284,173289,1,0,0:0:0:0:
216,276,173368,1,0,0:0:0:0:
240,264,173447,1,0,0:0:0:0:
256,244,173526,1,8,0:0:0:0:
260,216,173605,1,0,0:0:0:0:
252,192,173684,1,0,0:0:0:0:
236,172,173762,1,0,0:0:0:0:
212,160,173841,6,0,B|144:136|144:136|100:136|100:136|24:104,1,180,12|0,0:0|2:0,0:0:0:0:
41,111,175105,1,0,0:0:0:0:
64,104,175184,1,0,0:0:0:0:
84,100,175262,1,0,0:0:0:0:
104,92,175341,1,0,0:0:0:0:
120,88,175420,6,2,P|200:76|344:96,1,202.500007724762,2|0,0:0|0:0,0:0:0:0:
312,248,175736,6,0,P|256:260|200:248,1,112.5,14|0,0:0|0:0,0:0:0:0:
200,136,176052,2,0,P|256:124|312:136,1,112.5,10|0,0:0|0:0,0:0:0:0:
200,248,176368,6,0,P|188:192|200:136,1,112.5,10|0,0:0|0:0,0:0:0:0:
312,136,176684,2,0,P|324:192|312:248,1,112.5,10|0,0:0|0:0,0:0:0:0:
256,192,176999,5,10,0:0:0:0:
452,136,177157,1,0,0:0:0:0:
288,16,177315,2,0,P|228:16|168:36,1,112.5,8|2,0:0|0:0,0:0:0:0:
12,132,177631,2,0,P|4:180|16:256,1,112.5,8|0,0:0|0:0,0:0:0:0:
11,242,177868,1,0,0:0:0:0:
11,242,177947,6,0,L|128:300,1,112.5,10|2,0:0|0:0,0:0:0:0:
316,328,178262,2,2,P|256:228|124:224,1,225,14|8,0:0|0:0,0:0:0:0:
196,324,178736,1,0,0:0:0:0:
316,128,178894,2,2,P|196:92|72:108,1,225,10|8,0:0|0:0,0:0:0:0:
192,212,179368,1,0,0:0:0:0:
368,272,179526,6,0,P|396:220|400:152,1,112.5,10|0,0:0|0:0,0:0:0:0:
380,152,179762,1,0,0:0:0:0:
356,140,179841,1,8,0:0:0:0:
136,108,179999,2,0,L|84:72,1,56.25,10|0,0:0|0:0,0:0:0:0:
148,100,180157,2,0,P|144:164|120:244,1,112.5,0|8,0:0|0:0,0:0:0:0:
112,232,180394,1,0,0:0:0:0:
88,248,180473,1,0,0:0:0:0:
40,140,180631,1,8,0:0:0:0:
220,104,180789,5,14,0:0:0:0:
292,280,180947,1,0,0:0:0:0:
168,228,181105,1,10,0:0:0:0:
344,156,181262,1,0,0:0:0:0:
208,52,181420,5,10,0:0:0:0:
304,332,181578,1,0,0:0:0:0:
116,240,181736,1,10,0:0:0:0:
396,144,181893,1,0,0:0:0:0:
192,8,182052,6,0,P|132:0|72:16,1,112.5,10|0,0:0|0:0,0:0:0:0:
0,200,182368,2,0,P|60:208|120:192,1,112.5,8|2,0:0|0:0,0:0:0:0:
252,112,182684,1,8,0:0:0:0:
400,52,182841,1,0,0:0:0:0:
444,60,182920,1,0,0:0:0:0:
480,88,182999,2,0,P|500:156|500:216,1,112.5,10|2,0:0|0:0,0:0:0:0:
308,344,183315,6,0,P|272:288|256:196,1,112.5,14|0,0:0|0:0,0:0:0:0:
260,200,183552,1,0,0:0:0:0:
280,160,183631,1,8,0:0:0:0:
304,28,183789,1,0,0:0:0:0:
264,8,183868,1,0,0:0:0:0:
220,16,183947,2,0,P|156:24|100:48,1,112.5,10|0,0:0|0:0,0:0:0:0:
76,68,184184,1,0,0:0:0:0:
56,108,184262,1,8,0:0:0:0:
24,252,184420,1,0,0:0:0:0:
112,372,184578,6,2,P|228:392|364:360,1,225,10|8,0:0|0:0,0:0:0:0:
352,332,184973,1,0,0:0:0:0:
356,288,185052,1,10,0:0:0:0:
344,152,185210,2,0,P|324:88|280:32,1,112.5,2|8,0:0|0:0,0:0:0:0:
256,60,185447,1,0,0:0:0:0:
224,92,185526,1,0,0:0:0:0:
160,224,185684,1,8,0:0:0:0:
332,328,185841,6,0,P|320:272|288:224,1,112.5,14|0,0:0|0:0,0:0:0:0:
352,36,186157,2,0,P|309:74|283:126,1,112.5,10|0,0:0|0:0,0:0:0:0:
56,192,186473,2,0,P|110:209|168:205,1,112.5,10|0,0:0|0:0,0:0:0:0:
364,376,186789,2,0,P|351:320|320:272,1,112.5,10|0,0:0|0:0,0:0:0:0:
268,100,187105,5,10,0:0:0:0:
141,235,187262,1,0,0:0:0:0:
322,276,187420,1,8,0:0:0:0:
204,164,187578,1,2,0:0:0:0:
77,299,187735,1,8,0:0:0:0:
258,340,187893,1,0,0:0:0:0:
258,340,187973,1,0,0:0:0:0:
258,340,188052,6,0,L|380:304,1,112.5,10|2,0:0|0:0,0:0:0:0:
512,116,188368,2,0,L|390:152,1,112.5,14|0,0:0|0:0,0:0:0:0:
360,160,188605,1,0,0:0:0:0:
316,172,188684,1,8,0:0:0:0:
172,208,188841,1,0,0:0:0:0:
24,172,188999,2,2,P|112:84|260:80,1,225,10|8,0:0|0:0,0:0:0:0:
344,88,189473,1,0,0:0:0:0:
476,256,189631,6,0,P|494:192|496:136,1,112.5,10|0,0:0|0:0,0:0:0:0:
488,112,189868,1,0,0:0:0:0:
472,84,189947,1,8,0:0:0:0:
332,16,190105,1,10,0:0:0:0:
232,80,190262,2,0,P|213:143|212:200,1,112.5,0|8,0:0|0:0,0:0:0:0:
220,224,190499,1,0,0:0:0:0:
236,252,190578,1,8,0:0:0:0:
376,320,190736,1,8,0:0:0:0:
408,176,190894,5,14,0:0:0:0:
372,108,191052,1,0,0:0:0:0:
272,344,191210,1,10,0:0:0:0:
340,308,191368,1,0,0:0:0:0:
104,208,191526,1,10,0:0:0:0:
140,276,191684,1,0,0:0:0:0:
240,40,191841,1,10,0:0:0:0:
172,76,191999,1,0,0:0:0:0:
408,176,192157,6,0,P|396:244|348:288,1,112.5,10|0,0:0|0:0,0:0:0:0:
216,308,192473,1,8,0:0:0:0:
72,240,192631,1,2,0:0:0:0:
72,240,192710,1,0,0:0:0:0:
72,240,192789,2,0,P|64:184|80:128,1,112.5,8|0,0:0|0:0,0:0:0:0:
244,24,193105,2,0,P|252:80|236:136,1,112.5,10|2,0:0|0:0,0:0:0:0:
156,216,193420,6,0,L|128:332,1,112.5,10|8,0:0|0:0,0:0:0:0:
268,200,193894,5,8,0:0:0:0:
268,200,193973,1,0,0:0:0:0:
268,200,194052,2,0,L|240:316,1,112.5,10|8,0:0|0:0,0:0:0:0:
376,180,194526,5,0,0:0:0:0:
376,180,194684,2,2,P|440:168|472:120,1,112.5,10|0,0:0|0:0,0:0:0:0:
340,280,194999,1,8,0:0:0:0:
388,92,195157,1,2,0:0:0:0:
512,248,195315,1,10,0:0:0:0:
512,248,195631,6,0,P|440:260|340:240,1,168.75,2|0,0:0|0:0,0:0:0:0:
346,242,195947,5,10,0:0:0:0:
152,204,196105,5,10,0:0:0:0:
332,121,196262,5,2,0:0:0:0:
235,293,196420,5,2,0:0:0:0:
212,97,196578,5,2,0:0:0:0:
224,72,196657,1,0,0:0:0:0:
244,52,196736,1,0,0:0:0:0:
272,48,196815,1,0,0:0:0:0:
300,60,196894,1,0,0:0:0:0:
320,80,196973,1,0,0:0:0:0:
332,104,197052,1,0,0:0:0:0:
332,132,197131,1,0,0:0:0:0:
328,156,197210,6,0,P|324:200|304:248,1,90,6|0,0:0|0:0,0:0:0:0:
232,344,197526,1,8,0:0:0:0:
108,336,197684,1,0,0:0:0:0:
64,220,197841,6,0,L|16:168,1,62.9999980773926,2|0,0:0|0:0,0:0:0:0:
64,220,198157,6,0,L|48:308,1,76.5000014591217,10|0,0:0|0:0,0:0:0:0:
64,220,198473,6,0,L|168:168,1,90,2|0,0:0|0:0,0:0:0:0:
260,124,198789,1,8,0:0:0:0:
300,104,198868,1,0,0:0:0:0:
340,84,198947,2,2,P|416:72|496:136,1,180,2|0,0:0|0:0,0:0:0:0:
508,176,199341,1,0,0:0:0:0:
512,220,199420,2,0,L|412:160,1,90,10|0,0:0|0:0,0:0:0:0:
244,156,199736,6,0,P|200:168|156:204,1,90,2|0,0:0|0:0,0:0:0:0:
252,372,200052,2,0,P|273:331|276:274,1,90,10|0,0:0|0:0,0:0:0:0:
244,156,200368,1,0,0:0:0:0:
184,44,200526,1,0,0:0:0:0:
184,44,200605,1,0,0:0:0:0:
184,44,200684,6,0,P|141:16|72:0,1,90,10|0,0:0|0:0,0:0:0:0:
60,204,200999,2,0,P|87:161|104:92,1,90,2|0,0:0|0:0,0:0:0:0:
152,232,201315,2,0,P|124:274|108:344,1,90,8|2,0:0|0:0,0:0:0:0:
224,372,201631,1,0,0:0:0:0:
264,344,201710,1,0,0:0:0:0:
308,368,201789,1,0,0:0:0:0:
344,336,201868,1,0,0:0:0:0:
392,352,201947,1,10,0:0:0:0:
496,280,202105,1,0,0:0:0:0:
512,232,202184,1,0,0:0:0:0:
508,184,202262,6,0,P|492:132|464:88,1,90,6|0,0:0|0:0,0:0:0:0:
492,4,202578,1,8,0:0:0:0:
412,176,202736,1,0,0:0:0:0:
344,256,202894,6,0,P|307:264|270:261,1,62.9999980773926,2|0,0:0|0:0,0:0:0:0:
199,360,203210,6,0,P|201:317|247:266,1,76.5000014591217,10|0,0:0|0:0,0:0:0:0:
165,157,203526,6,0,P|213:199|241:244,1,90,2|0,0:0|0:0,0:0:0:0:
292,328,203841,1,8,0:0:0:0:
228,220,203999,2,2,P|266:144|224:48,1,180,0|0,0:0|0:0,0:0:0:0:
192,40,204394,1,0,0:0:0:0:
144,36,204473,1,10,0:0:0:0:
24,44,204631,1,0,0:0:0:0:
4,288,204789,6,0,P|8:232|-8:176,1,90,2|0,0:0|0:0,0:0:0:0:
96,112,205105,2,0,P|92:168|108:224,1,90,10|0,0:0|0:0,0:0:0:0:
4,288,205420,1,0,0:0:0:0:
96,112,205578,1,0,0:0:0:0:
252,56,205736,2,0,P|296:52|372:72,1,90,10|0,0:0|0:0,0:0:0:0:
400,180,206052,5,10,0:0:0:0:
226,257,206210,1,8,0:0:0:0:
411,302,206368,1,8,0:0:0:0:
295,152,206526,1,10,0:0:0:0:
293,343,206684,1,8,0:0:0:0:
293,343,206999,6,0,B|264:340|264:340|248:344|248:344|208:336,1,67.5,6|0,0:0|0:0,0:0:0:0:
224,360,207315,6,0,P|216:256|128:220,1,180,6|8,0:0|0:0,0:0:0:0:
144,316,207789,1,0,0:0:0:0:
276,200,207947,6,0,P|256:164|224:136,1,62.9999980773926,2|0,0:0|0:0,0:0:0:0:
276,200,208262,6,0,P|316:196|360:208,1,76.5000014591217,10|0,0:0|0:0,0:0:0:0:
276,200,208578,6,0,L|332:96,1,90,2|0,0:0|0:0,0:0:0:0:
408,28,208894,1,8,0:0:0:0:
512,80,209052,2,2,P|512:168|440:272,1,180,2|0,0:0|0:0,0:0:0:0:
448,244,209447,1,0,0:0:0:0:
424,240,209526,1,10,0:0:0:0:
296,240,209684,1,0,0:0:0:0:
84,200,209841,6,0,L|176:244,1,90,2|0,0:0|0:0,0:0:0:0:
288,384,210157,2,0,L|196:340,1,90,10|0,0:0|0:0,0:0:0:0:
84,200,210473,2,0,P|92:152|116:112,1,90
260,28,210789,6,0,P|296:56|324:120,1,90,10|0,0:0|0:0,0:0:0:0:
272,168,211105,2,0,P|316:177|383:157,1,90,2|0,0:0|0:0,0:0:0:0:
388,88,211420,2,0,P|424:116|452:180,1,90,8|2,0:0|0:0,0:0:0:0:
456,280,211736,2,0,L|460:336,1,45
376,312,211894,2,0,L|352:352,1,45
280,312,212052,1,10,0:0:0:0:
124,272,212210,5,0,0:0:0:0:
156,304,212289,1,0,0:0:0:0:
188,332,212368,6,0,L|176:216,1,90,6|0,0:0|0:0,0:0:0:0:
160,116,212684,1,8,0:0:0:0:
264,240,212841,1,0,0:0:0:0:
56,208,212999,6,0,P|16:196|-20:172,1,62.9999980773926,2|0,0:0|0:0,0:0:0:0:
56,208,213315,6,0,P|25:180|0:128,1,76.5000014591217,10|0,0:0|0:0,0:0:0:0:
56,208,213631,6,0,P|42:155|48:88,1,90,2|0,0:0|0:0,0:0:0:0:
128,28,213947,1,8,0:0:0:0:
176,144,214105,2,2,P|228:216|328:216,1,180,2|0,0:0|0:0,0:0:0:0:
324,212,214499,1,0,0:0:0:0:
332,204,214578,2,0,P|332:264|344:308,1,90,10|0,0:0|0:0,0:0:0:0:
432,380,214894,6,0,P|452:344|468:284,1,90,2|0,0:0|0:0,0:0:0:0:
500,176,215210,2,0,P|480:120|452:80,1,90,10|0,0:0|0:0,0:0:0:0:
348,44,215526,1,0,0:0:0:0:
400,160,215684,1,0,0:0:0:0:
404,200,215762,1,0,0:0:0:0:
396,240,215841,6,0,P|376:280|336:308,1,90,10|0,0:0|0:0,0:0:0:0:
112,300,216157,2,0,P|132:260|172:232,1,90,2|0,0:0|0:0,0:0:0:0:
192,312,216473,1,8,0:0:0:0:
68,204,216631,1,2,0:0:0:0:
12,92,216789,1,0,0:0:0:0:
12,48,216868,1,0,0:0:0:0:
40,12,216947,1,0,0:0:0:0:
84,8,217026,1,0,0:0:0:0:
128,24,217105,1,10,0:0:0:0:
156,60,217184,1,0,0:0:0:0:
172,100,217262,1,0,0:0:0:0:
208,196,217420,5,0,0:0:0:0:
252,272,217578,1,0,0:0:0:0:
252,272,217657,1,0,0:0:0:0:
252,272,217736,1,0,0:0:0:0:
320,308,217894,1,0,0:0:0:0:
396,324,218052,1,0,0:0:0:0:
348,188,218368,5,2,0:0:0:0:
