osu file format v14

[General]
AudioFilename: kimiro iro utsuri.mp3
AudioLeadIn: 0
PreviewTime: -1
Countdown: 0
SampleSet: Normal
StackLeniency: 0.7
Mode: 0
LetterboxInBreaks: 1
WidescreenStoryboard: 0

[Editor]
DistanceSpacing: 1.2
BeatDivisor: 4
GridSize: 8
TimelineZoom: 1.4

[Metadata]
Title:Kimiro Iro Utsuri
TitleUnicode:Kimiro Iro Utsuri
Artist:mafumafu
ArtistUnicode:mafumafu
Creator:FluffyHope
Version:aaaaa idk
Source:
Tags:MafuMafu FluffyHope
BeatmapID:1747255
BeatmapSetID:834110

[Difficulty]
HPDrainRate:6
CircleSize:4
OverallDifficulty:8
ApproachRate:9
SliderMultiplier:1.1
SliderTickRate:1

[Events]
//Background and Video events
0,0,"Shiraishi Urara Fantastica works.jpg",0,0
//Break Periods
//Storyboard Layer 0 (Background)
//Storyboard Layer 1 (Fail)
//Storyboard Layer 2 (Pass)
//Storyboard Layer 3 (Foreground)
//Storyboard Sound Samples

[TimingPoints]
12797.759489366,405.405405405405,4,1,0,100,1,0

[HitObjects]
256,104,12397,6,0,B|312:88|312:88|376:128,1,110
256,280,13203,2,0,L|200:264,3,55
240,208,14013,2,0,L|224:152,1,55
296,72,14419,1,0,0:0:0:0:
160,304,14824,1,0,0:0:0:0:
424,176,15230,1,0,0:0:0:0:
56,72,15635,6,0,P|88:56|120:72,1,55
176,288,16041,1,0,0:0:0:0:
456,312,16446,2,0,P|424:328|392:312,1,55
336,96,16851,1,0,0:0:0:0:
152,192,17257,6,0,P|128:144|152:96,1,110
384,152,18068,2,0,L|344:104,1,55
344,224,18473,2,0,L|400:192,2,55
296,136,19284,5,0,0:0:0:0:
120,144,19689,2,0,L|72:112,1,55
248,112,20095,2,0,L|288:160,1,55
192,328,20500,2,0,L|144:280,1,55
424,64,20905,2,0,L|384:104,1,55
88,320,21311,2,0,L|128:280,1,55
408,80,21716,1,0,0:0:0:0:
80,72,22122,5,0,0:0:0:0:
432,312,22324,1,0,0:0:0:0:
144,264,22527,1,0,0:0:0:0:
464,160,22932,5,0,0:0:0:0:
160,304,23135,1,0,0:0:0:0:
256,80,23338,1,0,0:0:0:0:
416,144,23946,5,0,0:0:0:0:
176,224,24149,1,0,0:0:0:0:
240,256,25770,6,0,L|312:240,1,55
344,176,26176,2,0,L|400:168,1,55
240,176,26581,1,0,0:0:0:0:
192,48,26987,2,0,L|160:112,1,55
216,136,27392,2,0,L|280:128,3,55
368,152,28203,2,0,P|352:168|328:152,1,55
160,64,28608,5,0,0:0:0:0:
72,192,28811,1,0,0:0:0:0:
280,104,29014,1,0,0:0:0:0:
104,280,29216,1,0,0:0:0:0:
104,280,29318,1,0,0:0:0:0:
104,280,29419,1,0,0:0:0:0:
456,112,29622,1,0,0:0:0:0:
320,296,29824,1,0,0:0:0:0:
224,248,32257,5,0,0:0:0:0:
392,304,32662,2,0,L|432:264,3,55
320,248,33473,2,0,L|344:184,1,55
88,240,33878,1,0,0:0:0:0:
320,248,34284,6,0,L|344:184,1,55
144,88,34689,2,0,L|120:152,1,55
232,224,35095,2,0,L|216:168,1,55
136,320,35500,5,0,0:0:0:0:
400,232,35703,1,0,0:0:0:0:
400,232,35804,1,0,0:0:0:0:
400,232,35905,2,0,L|448:288,1,55
184,312,36311,1,0,0:0:0:0:
112,72,37933,5,0,0:0:0:0:
400,312,38338,1,0,0:0:0:0:
272,328,38743,6,0,L|312:264,1,55
288,136,39149,2,0,L|248:176,1,55
224,336,39554,2,0,L|272:304,1,55
248,216,39960,1,0,0:0:0:0:
80,264,40365,6,0,L|144:288,1,55
240,200,40770,2,0,L|280:152,1,55
384,168,41176,2,0,L|392:224,1,55
160,136,41581,2,0,L|128:184,1,55
280,120,41986,5,0,0:0:0:0:
280,304,42392,2,0,L|320:256,1,55
320,112,42797,2,0,L|280:160,1,55
176,176,43203,1,0,0:0:0:0:
304,184,43608,6,0,L|264:128,1,55
400,120,44013,2,0,L|440:72,1,55
392,256,44419,2,0,L|432:208,1,55
248,256,44824,2,0,L|208:200,1,55
48,264,45230,6,0,P|88:208|144:216,1,110
224,304,46041,2,0,L|280:288,2,55
304,88,46851,5,0,0:0:0:0:
192,280,47257,1,0,0:0:0:0:
168,120,47662,2,0,L|224:112,1,55
336,72,48068,2,0,L|392:64,1,55
64,48,48473,5,0,0:0:0:0:
440,216,48879,1,0,0:0:0:0:
128,296,49284,2,0,L|184:256,1,55
112,152,49689,2,0,L|176:112,1,55
296,232,50095,2,0,L|344:200,1,55
96,112,50500,2,0,L|152:80,1,55
336,256,50906,1,0,0:0:0:0:
200,216,51311,1,0,0:0:0:0:
112,104,51716,6,0,L|184:72,1,55
304,40,52122,2,0,L|352:72,1,55
328,248,52527,1,0,0:0:0:0:
144,184,52933,1,0,0:0:0:0:
168,288,53338,2,0,L|224:256,1,55
256,144,53743,2,0,L|320:120,1,55
336,296,54149,1,0,0:0:0:0:
40,80,54959,6,0,L|96:56,1,55
152,208,55365,2,0,L|208:176,1,55
152,120,55770,1,0,0:0:0:0:
296,264,56176,2,0,L|352:240,2,55
272,104,56784,2,0,L|328:96,1,55
88,88,57189,2,0,L|144:80,1,55
176,248,58203,6,0,L|224:216,1,55
152,104,58608,2,0,L|216:88,1,55
328,152,59013,1,0,0:0:0:0:
296,256,59419,1,0,0:0:0:0:
432,176,59622,1,0,0:0:0:0:
264,104,59825,2,0,L|320:72,3,55
432,128,60635,1,0,0:0:0:0:
264,248,61041,6,0,L|320:216,1,55
112,144,61446,2,0,L|168:112,1,55
376,240,61851,2,0,L|432:208,1,55
352,64,62257,2,0,L|408:32,3,55
208,152,63068,2,0,P|272:104|384:168,1,220
320,272,64284,5,0,0:0:0:0:
80,128,64689,2,0,L|136:96,1,55
136,264,65095,1,0,0:0:0:0:
304,40,65298,1,0,0:0:0:0:
344,200,65500,2,0,P|384:248|360:288,1,110
144,192,66311,6,0,L|192:160,1,55
200,272,66716,2,0,L|240:224,1,55
192,112,67122,2,0,L|248:80,1,55
160,72,67730,5,0,0:0:0:0:
160,72,67831,1,0,0:0:0:0:
160,72,67932,1,0,0:0:0:0:
48,336,68338,1,0,0:0:0:0:
448,40,68744,1,0,0:0:0:0:
40,240,69149,1,0,0:0:0:0:
480,104,69554,1,0,0:0:0:0:
224,216,69959,2,0,L|280:184,2,55
112,104,71176,5,0,0:0:0:0:
176,208,71581,2,0,L|208:152,1,55
272,272,71986,1,0,0:0:0:0:
224,160,72392,2,0,P|264:112|312:144,1,110
392,208,73203,2,0,L|352:256,1,55
224,168,73608,2,0,B|296:160|296:96|296:96,1,110
152,112,74419,5,0,0:0:0:0:
320,136,74824,2,0,L|264:184,1,55
160,256,75230,2,0,P|184:272|216:256,1,55
296,160,75635,1,0,0:0:0:0:
304,88,76041,6,0,P|312:168|272:248,1,165
168,224,76851,1,0,0:0:0:0:
248,144,77257,2,0,L|192:176,1,55
96,96,77662,1,0,0:0:0:0:
176,104,78068,5,0,0:0:0:0:
360,104,78473,2,0,L|312:160,1,55
96,192,78878,2,0,L|160:240,1,55
440,264,79284,1,0,0:0:0:0:
312,96,79689,6,0,P|288:96|264:120,1,55
408,208,80095,1,0,0:0:0:0:
216,208,80500,2,0,L|176:160,1,55
352,128,80905,2,0,L|336:184,1,55
64,56,81311,5,0,0:0:0:0:
448,216,81716,2,0,L|384:248,1,55
104,184,82122,2,0,L|168:224,1,55
304,144,82527,1,0,0:0:0:0:
440,56,82932,6,0,L|384:96,1,55
112,280,83338,1,0,0:0:0:0:
176,296,84149,5,0,0:0:0:0:
80,144,84554,2,0,L|120:104,1,55
200,80,84959,1,0,0:0:0:0:
432,208,85365,2,0,L|376:216,1,55
240,136,85770,1,0,0:0:0:0:
376,112,86176,6,0,L|320:160,1,55
120,96,86581,2,0,L|80:152,1,55
320,256,86986,1,0,0:0:0:0:
416,56,87392,1,0,0:0:0:0:
40,80,87797,6,0,L|120:80,1,55
480,296,88203,2,0,L|408:296,1,55
344,40,88608,2,0,L|296:88,1,55
120,288,89013,1,0,0:0:0:0:
80,64,90635,5,0,0:0:0:0:
80,64,90736,1,0,0:0:0:0:
80,64,90838,1,0,0:0:0:0:
328,256,91041,1,0,0:0:0:0:
432,48,91446,5,0,0:0:0:0:
432,48,91547,1,0,0:0:0:0:
432,48,91649,1,0,0:0:0:0:
208,216,91851,1,0,0:0:0:0:
128,72,92257,5,0,0:0:0:0:
128,72,92358,1,0,0:0:0:0:
128,72,92459,1,0,0:0:0:0:
392,216,92662,2,0,P|320:192|272:200,1,110
464,72,93473,6,0,L|400:80,1,55
352,256,93878,1,0,0:0:0:0:
112,96,94284,2,0,L|56:128,1,55
352,208,94689,1,0,0:0:0:0:
424,64,95095,5,0,0:0:0:0:
24,184,95500,1,0,0:0:0:0:
480,320,95905,2,0,L|424:272,1,55
288,96,96311,1,0,0:0:0:0:
448,136,96513,5,0,0:0:0:0:
248,240,96716,1,0,0:0:0:0:
392,88,97122,5,0,0:0:0:0:
392,88,97223,1,0,0:0:0:0:
392,88,97324,1,0,0:0:0:0:
184,272,97527,1,0,0:0:0:0:
72,72,97932,5,0,0:0:0:0:
72,72,98034,1,0,0:0:0:0:
72,72,98135,1,0,0:0:0:0:
280,216,98338,1,0,0:0:0:0:
464,56,98743,5,0,0:0:0:0:
32,120,99149,1,0,0:0:0:0:
416,296,99554,2,0,P|416:264|400:240,1,55
240,120,99959,1,0,0:0:0:0:
480,104,100365,6,0,L|424:88,1,55
288,256,100770,1,0,0:0:0:0:
64,256,101176,2,0,L|120:272,1,55
264,104,101581,1,0,0:0:0:0:
392,88,101986,5,0,0:0:0:0:
104,128,102189,1,0,0:0:0:0:
104,128,102291,1,0,0:0:0:0:
104,128,102392,2,0,L|144:168,1,55
400,144,103000,5,0,0:0:0:0:
224,240,103203,1,0,0:0:0:0:
456,40,103608,6,0,P|384:40|344:56,1,110
312,168,104419,1,0,0:0:0:0:
192,152,104824,2,0,L|144:112,1,55
24,216,105230,1,0,0:0:0:0:
512,48,105635,5,0,0:0:0:0:
256,120,106041,2,0,P|312:152|336:192,1,110
200,232,106851,2,0,L|232:176,1,55
384,120,107257,1,0,0:0:0:0:
80,96,107662,6,0,L|120:160,1,55
304,168,108068,2,0,L|336:120,1,55
216,104,108473,2,0,P|168:144|168:192,1,110
440,288,109284,1,0,0:0:0:0:
432,72,109689,5,0,0:0:0:0:
56,312,110095,1,0,0:0:0:0:
72,80,110500,6,0,P|112:88|128:104,1,55
128,192,110905,2,0,L|192:176,1,55
312,80,111311,1,0,0:0:0:0:
208,256,111716,1,0,0:0:0:0:
376,112,112122,6,0,L|312:144,1,55
216,232,112527,1,0,0:0:0:0:
104,152,112730,1,0,0:0:0:0:
104,152,112831,1,0,0:0:0:0:
104,152,112932,2,0,L|144:200,1,55
304,96,113338,2,0,L|240:128,1,55
152,120,113743,5,0,0:0:0:0:
440,304,114149,1,0,0:0:0:0:
400,72,114554,6,0,L|368:136,1,55
320,200,114959,2,0,L|280:152,1,55
320,56,115365,1,0,0:0:0:0:
80,240,115770,1,0,0:0:0:0:
416,96,116581,6,0,L|344:72,1,55
152,240,116986,1,0,0:0:0:0:
456,272,117392,2,0,L|520:296,1,55
184,160,117797,1,0,0:0:0:0:
224,248,118203,6,0,L|256:192,1,55
88,64,118608,1,0,0:0:0:0:
80,192,119013,2,0,L|120:152,1,55
256,208,119419,2,0,L|192:184,1,55
392,96,119824,5,0,0:0:0:0:
168,200,120027,1,0,0:0:0:0:
168,200,120128,1,0,0:0:0:0:
168,200,120230,2,0,P|224:184|288:208,1,110
464,56,121041,5,0,0:0:0:0:
272,256,121446,1,0,0:0:0:0:
432,88,121851,2,0,L|360:72,1,55
440,184,122257,2,0,L|376:208,1,55
296,104,122662,6,0,L|240:72,1,55
288,216,123068,2,0,L|224:232,1,55
128,152,123473,1,0,0:0:0:0:
288,144,123878,2,0,P|224:104|184:112,1,110
432,296,124689,1,0,0:0:0:0:
408,112,125095,6,0,P|344:88|288:104,1,110
328,216,125905,2,0,L|272:176,1,55
200,128,126311,1,0,0:0:0:0:
96,248,126716,1,0,0:0:0:0:
304,136,127122,2,0,L|240:128,2,55
448,72,127932,5,0,0:0:0:0:
96,128,128338,2,0,L|136:176,1,55
160,232,128743,2,0,L|208:184,1,55
288,96,129149,1,0,0:0:0:0:
448,80,129554,5,0,0:0:0:0:
64,240,129959,1,0,0:0:0:0:
304,128,130162,1,0,0:0:0:0:
296,272,130365,2,0,L|256:224,1,55
368,200,130770,1,0,0:0:0:0:
424,72,131176,5,0,0:0:0:0:
208,128,131581,2,0,L|248:176,1,55
368,176,131986,1,0,0:0:0:0:
392,240,132392,2,0,P|320:224|280:240,1,110
56,80,133203,6,0,L|112:64,1,55
56,152,133608,2,0,L|136:152,1,55
56,232,134013,2,0,L|112:248,1,55
256,184,134419,1,0,0:0:0:0:
512,40,134824,5,0,0:0:0:0:
168,256,135230,1,0,0:0:0:0:
208,88,135635,6,0,L|272:120,1,55
328,144,136041,2,0,L|264:176,1,55
176,168,136446,2,0,B|216:224|264:232|336:216,1,165
400,176,137257,2,0,L|344:144,1,55
184,104,137662,1,0,0:0:0:0:
440,88,138068,6,0,L|400:128,1,55
304,200,138473,2,0,L|272:144,1,55
224,88,138878,1,0,0:0:0:0:
216,160,139284,2,0,L|160:192,3,55
352,224,140095,2,0,L|408:192,3,55
88,152,140905,2,0,P|192:88|288:104,1,220
88,240,142122,6,0,L|136:200,1,55
112,96,142527,1,0,0:0:0:0:
184,160,142730,1,0,0:0:0:0:
200,176,142831,1,0,0:0:0:0:
216,192,142932,2,0,L|272:224,1,55
408,176,143541,5,0,0:0:0:0:
392,168,143642,1,0,0:0:0:0:
376,160,143743,2,0,L|320:128,1,55
160,216,144149,1,0,0:0:0:0:
448,56,144554,5,0,0:0:0:0:
168,200,144959,2,0,L|200:152,1,55
400,256,145365,2,0,L|320:256,1,55
240,80,145770,1,0,0:0:0:0:
104,72,146176,6,0,P|88:144|104:176,1,110
232,232,146784,1,0,0:0:0:0:
328,176,146986,2,0,L|376:144,1,55
288,96,147392,1,0,0:0:0:0:
376,256,147595,5,0,0:0:0:0:
368,248,147696,1,0,0:0:0:0:
360,240,147797,2,0,L|312:208,1,55
128,208,148203,2,0,P|160:144|208:136,1,110
144,104,149013,5,0,0:0:0:0:
160,224,149419,2,0,L|216:192,1,55
320,88,149824,1,0,0:0:0:0:
344,264,150027,1,0,0:0:0:0:
104,272,150230,2,0,L|112:216,1,55
304,96,150635,5,0,0:0:0:0:
416,304,151041,1,0,0:0:0:0:
240,224,151243,2,0,P|208:176|208:120,1,110
320,80,151851,1,0,0:0:0:0:
368,88,152257,5,0,0:0:0:0:
224,232,152459,1,0,0:0:0:0:
336,272,152662,2,0,P|304:208|320:176,1,110
96,216,153270,2,0,L|144:184,1,55
224,120,153676,1,0,0:0:0:0:
120,48,153878,5,0,0:0:0:0:
472,272,154284,1,0,0:0:0:0:
248,224,154486,1,0,0:0:0:0:
320,304,154892,1,0,0:0:0:0:
304,112,155095,1,0,0:0:0:0:
64,224,155500,6,0,P|80:160|128:136,1,110
168,224,156108,1,0,0:0:0:0:
256,184,156311,2,0,L|288:136,1,55
400,224,156716,1,0,0:0:0:0:
192,112,157122,5,0,0:0:0:0:
248,216,157324,2,0,L|296:176,1,55
440,160,157730,2,0,P|408:224|376:216,1,110
208,256,158338,1,0,0:0:0:0:
224,48,158743,5,0,0:0:0:0:
72,192,159149,1,0,0:0:0:0:
176,248,159351,2,0,P|240:256|272:224,1,110
272,96,159959,1,0,0:0:0:0:
432,168,160365,5,0,0:0:0:0:
264,232,160770,2,0,L|224:176,1,55
248,80,161176,2,0,L|192:120,1,55
320,240,161581,2,0,L|336:176,1,55
120,280,161986,5,0,0:0:0:0:
280,264,162189,1,0,0:0:0:0:
288,256,162291,1,0,0:0:0:0:
296,248,162392,2,0,L|336:200,1,55
168,144,163000,5,0,0:0:0:0:
160,152,163102,1,0,0:0:0:0:
152,160,163203,2,0,L|112:208,1,55
288,248,163608,1,0,0:0:0:0:
448,208,163811,6,0,P|408:152|352:136,1,110
248,144,164419,1,0,0:0:0:0:
184,176,164622,2,0,L|144:224,1,55
288,280,165027,1,0,0:0:0:0:
376,120,165230,5,0,0:0:0:0:
128,224,165635,2,0,P|96:192|96:168,1,55
288,144,166041,2,0,P|320:176|320:200,1,55
88,88,166446,1,0,0:0:0:0:
56,240,166851,6,0,P|96:176|128:152,1,110
416,296,167662,1,0,0:0:0:0:
360,88,168473,5,0,0:0:0:0:
160,288,168676,1,0,0:0:0:0:
136,120,169284,5,0,0:0:0:0:
272,240,169486,1,0,0:0:0:0:
384,88,170095,5,0,0:0:0:0:
144,184,170500,1,0,0:0:0:0:
368,272,170905,1,0,0:0:0:0:
400,176,171108,1,0,0:0:0:0:
376,96,171716,6,0,L|328:144,1,55
80,240,172122,1,0,0:0:0:0:
368,208,172527,2,0,L|304:240,1,55
128,120,172932,1,0,0:0:0:0:
424,96,173338,1,0,0:0:0:0:
112,288,174959,6,0,P|104:208|128:184,1,110
256,256,175568,1,0,0:0:0:0:
264,248,175669,1,0,0:0:0:0:
272,240,175770,2,0,P|312:208|368:176,1,110
48,64,176581,5,0,0:0:0:0:
400,216,176986,1,0,0:0:0:0:
96,280,177392,1,0,0:0:0:0:
368,144,177797,1,0,0:0:0:0:
216,336,178203,1,0,0:0:0:0:
112,120,178608,5,0,0:0:0:0:
216,272,178811,2,0,L|280:232,1,55
328,96,179216,1,0,0:0:0:0:
344,248,179419,2,0,L|392:192,1,55
176,208,179824,6,0,L|216:168,1,55
360,240,180230,1,0,0:0:0:0:
392,160,180432,2,0,L|424:104,1,55
232,232,180838,1,0,0:0:0:0:
96,216,181041,2,0,L|144:168,1,55
32,288,181446,5,0,0:0:0:0:
44,263,181547,1,0,0:0:0:0:
59,240,181648,1,0,0:0:0:0:
76,218,181750,1,0,0:0:0:0:
95,198,181851,1,0,0:0:0:0:
115,180,181952,1,0,0:0:0:0:
137,163,182054,1,0,0:0:0:0:
160,148,182155,1,0,0:0:0:0:
184,135,182256,1,0,0:0:0:0:
210,124,182358,1,0,0:0:0:0:
236,116,182459,1,0,0:0:0:0:
263,110,182560,1,0,0:0:0:0:
290,106,182662,1,0,0:0:0:0:
317,104,182763,1,0,0:0:0:0:
345,105,182864,1,0,0:0:0:0:
372,108,182966,1,0,0:0:0:0:
392,120,183068,2,0,L|416:136,12,27.5
368,200,184689,5,0,0:0:0:0:
216,200,185095,2,0,L|256:160,1,55
152,88,185500,1,0,0:0:0:0:
408,168,185703,2,0,P|352:128|288:136,1,110
128,184,186311,5,0,0:0:0:0:
168,272,186513,2,0,L|224:240,1,55
272,152,186919,1,0,0:0:0:0:
336,224,187122,2,0,P|400:208|424:152,1,110
312,72,187932,5,0,0:0:0:0:
120,144,188338,2,0,L|144:208,1,55
320,256,188743,2,0,L|272:296,1,55
400,184,189149,1,0,0:0:0:0:
176,112,189554,1,0,0:0:0:0:
136,256,190162,5,0,0:0:0:0:
344,128,190365,1,0,0:0:0:0:
168,144,190568,5,0,0:0:0:0:
296,264,190770,1,0,0:0:0:0:
176,288,191176,6,0,P|112:248|104:200,1,110
152,112,191784,1,0,0:0:0:0:
232,64,191986,2,0,L|304:80,1,55
400,96,192392,1,0,0:0:0:0:
296,152,192595,1,0,0:0:0:0:
424,184,192797,1,0,0:0:0:0:
112,288,193203,6,0,L|144:224,1,55
240,200,193608,1,0,0:0:0:0:
224,96,193811,2,0,P|264:72|344:72,1,110
432,192,194419,1,0,0:0:0:0:
256,320,194824,6,0,L|200:264,1,55
320,136,195230,1,0,0:0:0:0:
376,256,195635,2,0,L|384:184,1,55
200,144,196041,1,0,0:0:0:0:
160,248,197662,6,0,P|112:192|128:152,1,110
248,264,198270,1,0,0:0:0:0:
264,240,198372,1,0,0:0:0:0:
280,208,198473,2,0,L|304:152,1,55
160,144,198878,2,0,L|104:176,1,55
152,72,199284,5,0,0:0:0:0:
240,152,199486,1,0,0:0:0:0:
144,192,199689,2,0,L|184:248,1,55
352,208,200095,2,0,L|304:264,1,55
120,256,200905,5,0,0:0:0:0:
168,128,201311,2,0,L|136:176,1,55
264,184,201716,2,0,L|296:136,1,55
264,312,202122,2,0,L|312:272,1,55
312,104,202527,5,0,0:0:0:0:
464,200,202730,1,0,0:0:0:0:
368,248,203135,2,0,L|296:240,1,55
224,280,203541,2,0,L|208:224,1,55
104,248,204149,6,0,P|152:192|208:168,1,110
304,176,204757,1,0,0:0:0:0:
408,224,204959,2,0,L|376:288,1,55
208,304,205365,1,0,0:0:0:0:
120,144,205770,5,0,0:0:0:0:
160,192,205973,2,0,P|232:192|280:176,1,110
344,112,206581,2,0,L|384:160,1,55
264,272,206986,1,0,0:0:0:0:
336,64,207392,5,0,0:0:0:0:
112,192,207797,2,0,L|144:240,1,55
288,296,208203,2,0,L|328:232,1,55
176,152,208608,2,0,L|240:152,1,55
400,120,209013,1,0,0:0:0:0:
64,288,210635,6,0,P|72:216|120:192,1,110
176,256,211243,1,0,0:0:0:0:
248,192,211446,2,0,L|304:168,1,55
336,96,211851,2,0,L|392:56,1,55
432,208,212257,5,0,0:0:0:0:
320,256,212459,2,0,L|280:208,1,55
312,128,212865,1,0,0:0:0:0:
64,248,213068,2,0,B|176:192|48:192|200:136,1,165
304,264,213878,1,0,0:0:0:0:
192,224,215500,5,0,0:0:0:0:
296,112,215703,1,0,0:0:0:0:
448,144,215905,2,0,L|400:104,1,55
344,224,216311,1,0,0:0:0:0:
256,144,216513,2,0,L|192:176,1,55
408,280,216919,5,0,0:0:0:0:
440,168,217122,1,0,0:0:0:0:
