osu file format v12

[General]
AudioFilename: Idol.mp3
AudioLeadIn: 0
PreviewTime: 46650
Countdown: 0
SampleSet: Normal
StackLeniency: 0.7
Mode: 1
LetterboxInBreaks: 0

[Editor]
Bookmarks: 10950,30150,49350,68550,87750,106950,126150,145350,159750,178950,189750,208950,230550,240150
DistanceSpacing: 0.1
BeatDivisor: 4
GridSize: 16

[Metadata]
Title:Kasyokusei:Idol Syoukougun
TitleUnicode:過食性:アイドル症候群
Artist:mafumafu & amatsuki
ArtistUnicode:まふまふ & 天月
Creator:Haruka
Version:Oni Collab
Source:Nico Nico Douga
Tags:Sweet_Serenitee Makar Makar8000 MMzz MittenMasterzz Megpoid Gumi Mayu Indulging: Idol Syndrome Vocaloid Suzumu Saine
BeatmapID:235145
BeatmapSetID:85642

[Difficulty]
HPDrainRate:5
CircleSize:5
OverallDifficulty:5
ApproachRate:5
SliderMultiplier:1.4
SliderTickRate:1

[Events]
//Background and Video events
0,0,"bg.png",0,251
//Break Periods
//Storyboard Layer 0 (Background)
//Storyboard Layer 1 (Fail)
//Storyboard Layer 2 (Pass)
//Storyboard Layer 3 (Foreground)
Sprite,Foreground,Centre,"haru.png",460,395 S,0,10350,,1,0.8 F,0,10350,10950,0,1 F,0,10950,29550,1 F,0,29550,30150,1,0
Sprite,Foreground,Centre,"maku.png",460,395 S,0,29550,,1,0.8 F,0,29550,30150,0,1 F,0,30150,48750,1 F,0,48750,49350,1,0
Sprite,Foreground,Centre,"mmzz.png",460,395 S,0,48750,,1,0.8 F,0,48750,49350,0,1 F,0,49350,67950,1 F,0,67950,68550,1,0
Sprite,Foreground,Centre,"maku.png",460,395 S,0,67950,,1,0.8 F,0,67950,68550,0,1 F,0,68550,87150,1 F,0,87150,87750,1,0
Sprite,Foreground,Centre,"mmzz.png",460,395 S,0,87150,,1,0.8 F,0,87150,87750,0,1 F,0,87750,106350,1 F,0,106350,106950,1,0
Sprite,Foreground,Centre,"haru.png",460,395 S,0,106350,,1,0.8 F,0,106350,106950,0,1 F,0,106950,125550,1 F,0,125550,126150,1,0
Sprite,Foreground,Centre,"mmzz.png",460,395 S,0,125550,,1,0.8 F,0,125550,126150,0,1 F,0,126150,144750,1 F,0,144750,145350,1,0
Sprite,Foreground,Centre,"maku.png",460,395 S,0,144750,,1,0.8 F,0,144750,145350,0,1 F,0,145350,159150,1 F,0,159150,159750,1,0
Sprite,Foreground,Centre,"haru.png",460,395 S,0,159150,,1,0.8 F,0,159150,159750,0,1 F,0,159750,178350,1 F,0,178350,178950,1,0
Sprite,Foreground,Centre,"mmzz.png",460,395 S,0,178350,,1,0.8 F,0,178350,178950,0,1 F,0,178950,189150,1 F,0,189150,189750,1,0
Sprite,Foreground,Centre,"maku.png",460,395 S,0,189150,,1,0.8 F,0,189150,189750,0,1 F,0,189750,208350,1 F,0,208350,208950,1,0
Sprite,Foreground,Centre,"haru.png",460,395 S,0,208350,,1,0.8 F,0,208350,208950,0,1 F,0,229950,230550,1,0 F,0,230550,229950,1
Sprite,Foreground,Centre,"mmzz.png",460,395 S,0,229950,,1,0.8 F,0,229950,230550,0,1 F,0,230550,239550,1 F,0,239550,240150,1,0
//Storyboard Sound Samples
//Background Colour Transformations
3,100,163,162,255

[TimingPoints]
1350,300,4,1,0,80,1,0
49350,-100,4,1,0,80,0,1
68550,-100,4,1,0,80,0,0
106950,-100,4,1,0,80,0,1
126150,-100,4,1,0,80,0,0
178950,-100,4,1,0,40,0,0
189750,-100,4,1,0,80,0,1
208950,-100,4,1,0,80,0,0

[HitObjects]
256,192,10950,1,4,0:0:0:0:
256,192,11100,1,0,0:0:0:0:
256,192,11250,1,8,0:0:0:0:
256,192,11550,1,0,0:0:0:0:
256,192,11700,1,0,0:0:0:0:
256,192,11850,1,8,0:0:0:0:
256,192,12000,1,0,0:0:0:0:
256,192,12075,1,0,0:0:0:0:
256,192,12150,1,0,0:0:0:0:
256,192,12450,1,12,0:0:0:0:
256,192,12750,1,12,0:0:0:0:
256,192,13050,1,12,0:0:0:0:
256,192,13350,1,0,0:0:0:0:
256,192,13500,1,0,0:0:0:0:
256,192,13650,1,8,0:0:0:0:
256,192,13950,1,0,0:0:0:0:
256,192,14100,1,0,0:0:0:0:
256,192,14250,1,8,0:0:0:0:
256,192,14400,1,8,0:0:0:0:
256,192,14475,1,8,0:0:0:0:
256,192,14550,1,0,0:0:0:0:
256,192,14850,1,12,0:0:0:0:
256,192,15000,1,0,0:0:0:0:
256,192,15075,1,0,0:0:0:0:
256,192,15150,1,0,0:0:0:0:
256,192,15300,1,8,0:0:0:0:
256,192,15450,1,0,0:0:0:0:
256,192,15600,1,8,0:0:0:0:
256,192,15750,1,4,0:0:0:0:
256,192,15900,1,0,0:0:0:0:
256,192,16050,1,8,0:0:0:0:
256,192,16350,1,0,0:0:0:0:
256,192,16500,1,0,0:0:0:0:
256,192,16650,1,8,0:0:0:0:
256,192,16800,1,0,0:0:0:0:
256,192,16875,1,0,0:0:0:0:
256,192,16950,1,0,0:0:0:0:
256,192,17250,1,12,0:0:0:0:
256,192,17550,1,12,0:0:0:0:
256,192,17850,1,12,0:0:0:0:
256,192,18150,1,0,0:0:0:0:
256,192,18300,1,0,0:0:0:0:
256,192,18450,1,8,0:0:0:0:
256,192,18750,1,0,0:0:0:0:
256,192,18900,1,0,0:0:0:0:
256,192,19050,1,8,0:0:0:0:
256,192,19200,1,8,0:0:0:0:
256,192,19275,1,8,0:0:0:0:
256,192,19350,1,0,0:0:0:0:
256,192,19650,1,12,0:0:0:0:
256,192,19800,1,0,0:0:0:0:
256,192,19875,1,0,0:0:0:0:
256,192,19950,1,0,0:0:0:0:
256,192,20100,1,8,0:0:0:0:
256,192,20250,1,0,0:0:0:0:
256,192,20400,1,8,0:0:0:0:
256,192,20550,1,4,0:0:0:0:
256,192,20850,1,0,0:0:0:0:
256,192,21150,1,0,0:0:0:0:
256,192,21450,1,0,0:0:0:0:
256,192,21600,1,8,0:0:0:0:
256,192,21750,1,0,0:0:0:0:
256,192,22050,1,8,0:0:0:0:
256,192,22350,1,0,0:0:0:0:
256,192,22500,1,8,0:0:0:0:
256,192,22650,1,0,0:0:0:0:
256,192,22800,1,8,0:0:0:0:
256,192,22950,1,0,0:0:0:0:
256,192,23250,1,0,0:0:0:0:
256,192,23550,1,0,0:0:0:0:
256,192,23850,1,0,0:0:0:0:
256,192,24000,1,8,0:0:0:0:
256,192,24150,1,0,0:0:0:0:
256,192,24450,1,8,0:0:0:0:
256,192,24750,1,0,0:0:0:0:
256,192,24900,1,8,0:0:0:0:
256,192,25050,1,8,0:0:0:0:
256,192,25200,1,8,0:0:0:0:
256,192,25275,1,8,0:0:0:0:
256,192,25350,1,0,0:0:0:0:
256,192,25650,1,0,0:0:0:0:
256,192,25950,1,0,0:0:0:0:
256,192,26250,1,0,0:0:0:0:
256,192,26400,1,8,0:0:0:0:
256,192,26550,1,0,0:0:0:0:
256,192,26850,1,8,0:0:0:0:
256,192,27150,1,0,0:0:0:0:
256,192,27300,1,8,0:0:0:0:
256,192,27450,1,0,0:0:0:0:
256,192,27600,1,8,0:0:0:0:
256,192,27750,1,0,0:0:0:0:
256,192,27900,1,0,0:0:0:0:
256,192,28050,1,8,0:0:0:0:
256,192,28200,1,0,0:0:0:0:
256,192,28350,1,0,0:0:0:0:
256,192,28500,1,8,0:0:0:0:
256,192,28650,1,8,0:0:0:0:
256,192,28800,1,8,0:0:0:0:
256,192,28950,1,0,0:0:0:0:
256,192,29100,1,8,0:0:0:0:
256,192,29175,1,8,0:0:0:0:
256,192,29250,1,8,0:0:0:0:
256,192,29400,1,0,0:0:0:0:
256,192,29550,1,8,0:0:0:0:
256,192,29700,1,0,0:0:0:0:
256,192,29775,1,0,0:0:0:0:
256,192,29850,1,8,0:0:0:0:
256,192,29925,1,8,0:0:0:0:
256,192,30000,1,8,0:0:0:0:
256,192,30150,5,4,0:0:0:0:
256,192,30300,1,0,0:0:0:0:
256,192,30450,1,8,0:0:0:0:
256,192,30600,1,0,0:0:0:0:
256,192,30675,1,0,0:0:0:0:
256,192,30750,1,0,0:0:0:0:
256,192,30900,1,0,0:0:0:0:
256,192,31050,1,8,0:0:0:0:
256,192,31350,1,0,0:0:0:0:
256,192,31500,1,0,0:0:0:0:
256,192,31575,1,0,0:0:0:0:
256,192,31650,1,8,0:0:0:0:
256,192,31800,1,8,0:0:0:0:
256,192,31950,1,0,0:0:0:0:
256,192,32100,1,0,0:0:0:0:
256,192,32250,1,8,0:0:0:0:
256,192,32400,1,0,0:0:0:0:
256,192,32550,1,0,0:0:0:0:
256,192,32700,1,0,0:0:0:0:
256,192,32775,1,0,0:0:0:0:
256,192,32850,1,8,0:0:0:0:
256,192,33000,1,0,0:0:0:0:
256,192,33150,1,0,0:0:0:0:
256,192,33225,1,0,0:0:0:0:
256,192,33300,1,0,0:0:0:0:
256,192,33450,1,8,0:0:0:0:
256,192,33750,1,0,0:0:0:0:
256,192,33900,1,0,0:0:0:0:
256,192,33975,1,0,0:0:0:0:
256,192,34050,1,8,0:0:0:0:
256,192,34200,1,0,0:0:0:0:
256,192,34350,1,8,0:0:0:0:
256,192,34425,1,8,0:0:0:0:
256,192,34500,1,0,0:0:0:0:
256,192,34650,1,8,0:0:0:0:
256,192,34800,1,8,0:0:0:0:
256,192,34950,1,4,0:0:0:0:
256,192,35100,1,0,0:0:0:0:
256,192,35250,1,8,0:0:0:0:
256,192,35400,1,0,0:0:0:0:
256,192,35475,1,0,0:0:0:0:
256,192,35550,1,0,0:0:0:0:
256,192,35700,1,0,0:0:0:0:
256,192,35850,1,8,0:0:0:0:
256,192,36150,1,0,0:0:0:0:
256,192,36300,1,0,0:0:0:0:
256,192,36375,1,0,0:0:0:0:
256,192,36450,1,8,0:0:0:0:
256,192,36600,1,8,0:0:0:0:
256,192,36750,1,0,0:0:0:0:
256,192,36900,1,0,0:0:0:0:
256,192,37050,1,8,0:0:0:0:
256,192,37200,1,0,0:0:0:0:
256,192,37350,1,0,0:0:0:0:
256,192,37500,1,0,0:0:0:0:
256,192,37575,1,0,0:0:0:0:
256,192,37650,1,8,0:0:0:0:
256,192,37800,1,0,0:0:0:0:
256,192,37950,1,0,0:0:0:0:
256,192,38025,1,0,0:0:0:0:
256,192,38100,1,0,0:0:0:0:
256,192,38250,1,8,0:0:0:0:
256,192,38400,1,0,0:0:0:0:
256,192,38550,1,8,0:0:0:0:
256,192,38700,1,0,0:0:0:0:
256,192,38775,1,0,0:0:0:0:
256,192,38850,1,8,0:0:0:0:
256,192,39000,1,0,0:0:0:0:
256,192,39150,1,8,0:0:0:0:
256,192,39225,1,8,0:0:0:0:
256,192,39300,1,0,0:0:0:0:
256,192,39375,1,0,0:0:0:0:
256,192,39450,1,8,0:0:0:0:
256,192,39600,1,8,0:0:0:0:
256,192,39750,1,4,0:0:0:0:
256,192,40050,1,0,0:0:0:0:
256,192,40350,1,0,0:0:0:0:
256,192,40650,1,0,0:0:0:0:
256,192,40950,1,0,0:0:0:0:
256,192,41100,1,8,0:0:0:0:
256,192,41250,1,0,0:0:0:0:
256,192,41550,1,0,0:0:0:0:
256,192,41850,1,0,0:0:0:0:
256,192,42000,1,8,0:0:0:0:
256,192,42075,1,8,0:0:0:0:
256,192,42150,1,0,0:0:0:0:
256,192,42450,1,0,0:0:0:0:
256,192,42750,1,0,0:0:0:0:
256,192,42900,1,8,0:0:0:0:
256,192,43050,1,0,0:0:0:0:
256,192,43200,1,0,0:0:0:0:
256,192,43350,1,0,0:0:0:0:
256,192,43650,1,0,0:0:0:0:
256,192,43800,1,8,0:0:0:0:
256,192,44100,1,8,0:0:0:0:
256,192,44250,1,0,0:0:0:0:
256,192,44550,1,12,0:0:0:0:
256,192,44850,1,0,0:0:0:0:
256,192,45150,1,0,0:0:0:0:
256,192,45450,1,0,0:0:0:0:
256,192,45750,1,0,0:0:0:0:
256,192,45900,1,8,0:0:0:0:
256,192,46050,1,0,0:0:0:0:
256,192,46350,1,0,0:0:0:0:
256,192,46500,1,0,0:0:0:0:
256,192,46575,1,0,0:0:0:0:
256,192,46650,1,8,0:0:0:0:
256,192,46950,1,12,0:0:0:0:
256,192,47100,1,4,0:0:0:0:
256,192,47250,1,12,0:0:0:0:
256,192,47400,1,4,0:0:0:0:
256,192,47700,1,12,0:0:0:0:
256,192,47850,1,4,0:0:0:0:
256,192,48000,1,12,0:0:0:0:
256,192,48150,1,4,0:0:0:0:
256,192,48450,12,4,49200,0:0:0:0:
256,192,49350,5,4,0:0:0:0:
256,192,49500,1,8,0:0:0:0:
256,192,49575,1,8,0:0:0:0:
256,192,49650,1,0,0:0:0:0:
256,192,49800,1,8,0:0:0:0:
256,192,49950,1,0,0:0:0:0:
256,192,50025,1,0,0:0:0:0:
256,192,50100,1,0,0:0:0:0:
256,192,50250,1,8,0:0:0:0:
256,192,50400,1,0,0:0:0:0:
256,192,50550,1,8,0:0:0:0:
256,192,50700,1,8,0:0:0:0:
256,192,50775,1,8,0:0:0:0:
256,192,50850,1,0,0:0:0:0:
256,192,51000,1,8,0:0:0:0:
256,192,51150,1,0,0:0:0:0:
256,192,51300,1,0,0:0:0:0:
256,192,51375,1,0,0:0:0:0:
256,192,51450,1,8,0:0:0:0:
256,192,51600,1,0,0:0:0:0:
256,192,51750,1,8,0:0:0:0:
256,192,51900,1,8,0:0:0:0:
256,192,51975,1,8,0:0:0:0:
256,192,52050,1,0,0:0:0:0:
256,192,52200,1,8,0:0:0:0:
256,192,52350,5,0,0:0:0:0:
256,192,52425,1,0,0:0:0:0:
256,192,52500,1,8,0:0:0:0:
256,192,52575,1,0,0:0:0:0:
256,192,52650,1,8,0:0:0:0:
256,192,52800,1,0,0:0:0:0:
256,192,52950,1,8,0:0:0:0:
256,192,53100,1,8,0:0:0:0:
256,192,53250,1,0,0:0:0:0:
256,192,53400,1,8,0:0:0:0:
256,192,53550,1,4,0:0:0:0:
256,192,53850,1,12,0:0:0:0:
256,192,54150,1,4,0:0:0:0:
256,192,54300,1,8,0:0:0:0:
256,192,54375,1,8,0:0:0:0:
256,192,54450,1,0,0:0:0:0:
256,192,54600,1,8,0:0:0:0:
256,192,54750,1,0,0:0:0:0:
256,192,54900,1,8,0:0:0:0:
256,192,54975,1,8,0:0:0:0:
256,192,55050,1,0,0:0:0:0:
256,192,55125,1,0,0:0:0:0:
256,192,55200,1,8,0:0:0:0:
256,192,55350,1,0,0:0:0:0:
256,192,55500,1,8,0:0:0:0:
256,192,55575,1,8,0:0:0:0:
256,192,55650,1,0,0:0:0:0:
256,192,55800,1,0,0:0:0:0:
256,192,55950,1,8,0:0:0:0:
256,192,56025,1,8,0:0:0:0:
256,192,56100,1,8,0:0:0:0:
256,192,56250,1,0,0:0:0:0:
256,192,56400,1,8,0:0:0:0:
256,192,56550,1,0,0:0:0:0:
256,192,56625,1,0,0:0:0:0:
256,192,56700,1,0,0:0:0:0:
256,192,56775,1,0,0:0:0:0:
256,192,56850,1,8,0:0:0:0:
256,192,57000,1,0,0:0:0:0:
256,192,57150,1,0,0:0:0:0:
256,192,57225,1,0,0:0:0:0:
256,192,57300,1,0,0:0:0:0:
256,192,57375,1,0,0:0:0:0:
256,192,57450,1,8,0:0:0:0:
256,192,57600,1,0,0:0:0:0:
256,192,57750,1,8,0:0:0:0:
256,192,57825,1,0,0:0:0:0:
256,192,57900,1,0,0:0:0:0:
256,192,57975,1,0,0:0:0:0:
256,192,58050,1,8,0:0:0:0:
256,192,58125,1,0,0:0:0:0:
256,192,58200,1,0,0:0:0:0:
256,192,58275,1,0,0:0:0:0:
256,192,58350,1,8,0:0:0:0:
256,192,58425,1,8,0:0:0:0:
256,192,58500,1,0,0:0:0:0:
256,192,58575,1,0,0:0:0:0:
256,192,58650,1,8,0:0:0:0:
256,192,58725,1,8,0:0:0:0:
256,192,58800,1,8,0:0:0:0:
256,192,58875,1,8,0:0:0:0:
256,192,58950,1,0,0:0:0:0:
256,192,59100,1,8,0:0:0:0:
256,192,59175,1,8,0:0:0:0:
256,192,59250,1,0,0:0:0:0:
256,192,59400,1,8,0:0:0:0:
256,192,59550,1,0,0:0:0:0:
256,192,59625,1,0,0:0:0:0:
256,192,59700,1,0,0:0:0:0:
256,192,59850,1,8,0:0:0:0:
256,192,60000,1,0,0:0:0:0:
256,192,60150,1,8,0:0:0:0:
256,192,60300,1,8,0:0:0:0:
256,192,60375,1,8,0:0:0:0:
256,192,60450,1,0,0:0:0:0:
256,192,60600,1,8,0:0:0:0:
256,192,60675,1,8,0:0:0:0:
256,192,60750,1,0,0:0:0:0:
256,192,60825,1,0,0:0:0:0:
256,192,60900,1,0,0:0:0:0:
256,192,61050,1,8,0:0:0:0:
256,192,61200,1,0,0:0:0:0:
256,192,61350,1,8,0:0:0:0:
256,192,61500,1,8,0:0:0:0:
256,192,61575,1,8,0:0:0:0:
256,192,61650,1,0,0:0:0:0:
256,192,61800,1,8,0:0:0:0:
256,192,61950,5,0,0:0:0:0:
256,192,62025,1,0,0:0:0:0:
256,192,62100,1,8,0:0:0:0:
256,192,62175,1,0,0:0:0:0:
256,192,62250,1,8,0:0:0:0:
256,192,62400,1,0,0:0:0:0:
256,192,62550,1,8,0:0:0:0:
256,192,62700,1,8,0:0:0:0:
256,192,62850,1,0,0:0:0:0:
256,192,63000,1,8,0:0:0:0:
256,192,63150,1,4,0:0:0:0:
256,192,63450,1,12,0:0:0:0:
256,192,63750,1,4,0:0:0:0:
256,192,63900,1,8,0:0:0:0:
256,192,63975,1,8,0:0:0:0:
256,192,64050,1,0,0:0:0:0:
256,192,64200,1,8,0:0:0:0:
256,192,64350,1,0,0:0:0:0:
256,192,64500,1,8,0:0:0:0:
256,192,64575,1,8,0:0:0:0:
256,192,64650,1,0,0:0:0:0:
256,192,64725,1,0,0:0:0:0:
256,192,64800,1,8,0:0:0:0:
256,192,64950,1,0,0:0:0:0:
256,192,65100,1,8,0:0:0:0:
256,192,65175,1,8,0:0:0:0:
256,192,65250,1,0,0:0:0:0:
256,192,65400,1,0,0:0:0:0:
256,192,65550,1,8,0:0:0:0:
256,192,65625,1,8,0:0:0:0:
256,192,65700,1,8,0:0:0:0:
256,192,65850,1,0,0:0:0:0:
256,192,66000,1,8,0:0:0:0:
256,192,66150,1,0,0:0:0:0:
256,192,66225,1,0,0:0:0:0:
256,192,66300,1,0,0:0:0:0:
256,192,66450,1,12,0:0:0:0:
256,192,66600,1,0,0:0:0:0:
256,192,66750,1,0,0:0:0:0:
256,192,66825,1,0,0:0:0:0:
256,192,66900,1,0,0:0:0:0:
256,192,67050,1,12,0:0:0:0:
256,192,67200,1,0,0:0:0:0:
256,192,67350,1,12,0:0:0:0:
256,192,67500,1,12,0:0:0:0:
256,192,68250,1,12,0:0:0:0:
256,192,68550,5,4,0:0:0:0:
256,192,68850,1,8,0:0:0:0:
256,192,69000,1,0,0:0:0:0:
256,192,69150,1,0,0:0:0:0:
256,192,69300,1,0,0:0:0:0:
256,192,69450,1,8,0:0:0:0:
256,192,69750,1,0,0:0:0:0:
256,192,70050,1,8,0:0:0:0:
256,192,70200,1,0,0:0:0:0:
256,192,70275,1,0,0:0:0:0:
256,192,70350,1,0,0:0:0:0:
256,192,70500,1,0,0:0:0:0:
256,192,70650,1,8,0:0:0:0:
256,192,70800,1,8,0:0:0:0:
256,192,70950,1,0,0:0:0:0:
256,192,71250,1,8,0:0:0:0:
256,192,71400,1,0,0:0:0:0:
256,192,71550,1,0,0:0:0:0:
256,192,71700,1,0,0:0:0:0:
256,192,71850,1,8,0:0:0:0:
256,192,72150,1,0,0:0:0:0:
256,192,72300,1,0,0:0:0:0:
256,192,72375,1,0,0:0:0:0:
256,192,72450,1,8,0:0:0:0:
256,192,72600,1,8,0:0:0:0:
256,192,72750,1,0,0:0:0:0:
256,192,72825,1,0,0:0:0:0:
256,192,72900,1,0,0:0:0:0:
256,192,73050,1,8,0:0:0:0:
256,192,73350,1,4,0:0:0:0:
256,192,73650,1,8,0:0:0:0:
256,192,73800,1,0,0:0:0:0:
256,192,73875,1,0,0:0:0:0:
256,192,73950,1,0,0:0:0:0:
256,192,74100,1,0,0:0:0:0:
256,192,74250,1,8,0:0:0:0:
256,192,74550,5,0,0:0:0:0:
256,192,74850,1,8,0:0:0:0:
256,192,75000,1,0,0:0:0:0:
256,192,75075,1,0,0:0:0:0:
256,192,75150,1,8,0:0:0:0:
256,192,75225,1,8,0:0:0:0:
256,192,75300,1,0,0:0:0:0:
256,192,75450,1,8,0:0:0:0:
256,192,75600,1,8,0:0:0:0:
256,192,75750,1,0,0:0:0:0:
256,192,76050,1,8,0:0:0:0:
256,192,76200,1,0,0:0:0:0:
256,192,76275,1,0,0:0:0:0:
256,192,76350,1,0,0:0:0:0:
256,192,76500,1,0,0:0:0:0:
256,192,76650,1,8,0:0:0:0:
256,192,76950,1,0,0:0:0:0:
256,192,77100,1,0,0:0:0:0:
256,192,77175,1,0,0:0:0:0:
256,192,77250,1,8,0:0:0:0:
256,192,77400,1,8,0:0:0:0:
256,192,77550,1,0,0:0:0:0:
256,192,77625,1,8,0:0:0:0:
256,192,77700,1,0,0:0:0:0:
256,192,77850,1,8,0:0:0:0:
256,192,78150,1,4,0:0:0:0:
256,192,78450,1,8,0:0:0:0:
256,192,78600,1,0,0:0:0:0:
256,192,78900,1,0,0:0:0:0:
256,192,79050,1,8,0:0:0:0:
256,192,79200,1,0,0:0:0:0:
256,192,79500,1,0,0:0:0:0:
256,192,79650,1,8,0:0:0:0:
256,192,79950,1,0,0:0:0:0:
256,192,80100,1,0,0:0:0:0:
256,192,80250,1,8,0:0:0:0:
256,192,80400,1,0,0:0:0:0:
256,192,80550,1,0,0:0:0:0:
256,192,80850,1,8,0:0:0:0:
256,192,81000,1,0,0:0:0:0:
256,192,81300,1,0,0:0:0:0:
256,192,81450,1,8,0:0:0:0:
256,192,81600,1,0,0:0:0:0:
256,192,81900,1,0,0:0:0:0:
256,192,82050,1,8,0:0:0:0:
256,192,82350,1,0,0:0:0:0:
256,192,82500,1,8,0:0:0:0:
256,192,82650,1,8,0:0:0:0:
256,192,82800,1,0,0:0:0:0:
256,192,82950,1,0,0:0:0:0:
256,192,83250,1,8,0:0:0:0:
256,192,83400,1,0,0:0:0:0:
256,192,83700,1,0,0:0:0:0:
256,192,83850,1,8,0:0:0:0:
256,192,84000,1,0,0:0:0:0:
256,192,84300,1,0,0:0:0:0:
256,192,84450,1,8,0:0:0:0:
256,192,84600,1,0,0:0:0:0:
256,192,84750,1,8,0:0:0:0:
256,192,84900,1,0,0:0:0:0:
256,192,85050,1,8,0:0:0:0:
256,192,85200,1,0,0:0:0:0:
256,192,85350,1,0,0:0:0:0:
256,192,85500,1,0,0:0:0:0:
256,192,85575,1,0,0:0:0:0:
256,192,85650,1,8,0:0:0:0:
256,192,85800,1,0,0:0:0:0:
256,192,85950,1,8,0:0:0:0:
256,192,86100,1,0,0:0:0:0:
256,192,86175,1,0,0:0:0:0:
256,192,86250,1,8,0:0:0:0:
256,192,86325,1,8,0:0:0:0:
256,192,86400,1,0,0:0:0:0:
256,192,86550,1,12,0:0:0:0:
256,192,87300,1,0,0:0:0:0:
256,192,87375,1,0,0:0:0:0:
256,192,87450,1,8,0:0:0:0:
256,192,87750,5,4,0:0:0:0:
256,192,87900,1,0,0:0:0:0:
256,192,88050,1,8,0:0:0:0:
256,192,88200,1,0,0:0:0:0:
256,192,88275,1,0,0:0:0:0:
256,192,88350,1,0,0:0:0:0:
256,192,88500,1,0,0:0:0:0:
256,192,88650,1,8,0:0:0:0:
256,192,88800,1,0,0:0:0:0:
256,192,88950,1,0,0:0:0:0:
256,192,89250,5,8,0:0:0:0:
256,192,89400,1,0,0:0:0:0:
256,192,89475,1,0,0:0:0:0:
256,192,89550,1,0,0:0:0:0:
256,192,89700,1,8,0:0:0:0:
256,192,89850,1,0,0:0:0:0:
256,192,89925,1,0,0:0:0:0:
256,192,90000,1,8,0:0:0:0:
256,192,90150,1,0,0:0:0:0:
256,192,90300,1,0,0:0:0:0:
256,192,90450,1,8,0:0:0:0:
256,192,90600,1,0,0:0:0:0:
256,192,90675,1,0,0:0:0:0:
256,192,90750,1,0,0:0:0:0:
256,192,90900,1,0,0:0:0:0:
256,192,91050,1,8,0:0:0:0:
256,192,91200,1,0,0:0:0:0:
256,192,91350,1,0,0:0:0:0:
256,192,91650,1,8,0:0:0:0:
256,192,91800,1,0,0:0:0:0:
256,192,91950,1,8,0:0:0:0:
256,192,92100,1,8,0:0:0:0:
256,192,92250,1,0,0:0:0:0:
256,192,92325,1,0,0:0:0:0:
256,192,92400,1,8,0:0:0:0:
256,192,92550,5,4,0:0:0:0:
256,192,92700,1,0,0:0:0:0:
256,192,92850,1,8,0:0:0:0:
256,192,93000,1,0,0:0:0:0:
256,192,93075,1,0,0:0:0:0:
256,192,93150,1,0,0:0:0:0:
256,192,93300,1,0,0:0:0:0:
256,192,93450,1,8,0:0:0:0:
256,192,93600,1,0,0:0:0:0:
256,192,93750,1,0,0:0:0:0:
256,192,94050,5,8,0:0:0:0:
256,192,94200,1,0,0:0:0:0:
256,192,94275,1,0,0:0:0:0:
256,192,94350,1,0,0:0:0:0:
256,192,94500,1,8,0:0:0:0:
256,192,94650,1,0,0:0:0:0:
256,192,94725,1,0,0:0:0:0:
256,192,94800,1,8,0:0:0:0:
256,192,94950,1,0,0:0:0:0:
256,192,95100,1,0,0:0:0:0:
256,192,95250,1,8,0:0:0:0:
256,192,95400,1,0,0:0:0:0:
256,192,95475,1,0,0:0:0:0:
256,192,95550,1,0,0:0:0:0:
256,192,95700,1,0,0:0:0:0:
256,192,95850,1,8,0:0:0:0:
256,192,96000,1,0,0:0:0:0:
256,192,96150,1,8,0:0:0:0:
256,192,96300,1,8,0:0:0:0:
256,192,96375,1,8,0:0:0:0:
256,192,96450,1,0,0:0:0:0:
256,192,96600,1,8,0:0:0:0:
256,192,96750,1,0,0:0:0:0:
256,192,96825,1,0,0:0:0:0:
256,192,96900,1,8,0:0:0:0:
256,192,96975,1,0,0:0:0:0:
256,192,97050,1,8,0:0:0:0:
256,192,97125,1,8,0:0:0:0:
256,192,97200,1,0,0:0:0:0:
256,192,97350,1,4,0:0:0:0:
256,192,97650,1,0,0:0:0:0:
256,192,97950,1,0,0:0:0:0:
256,192,98250,1,0,0:0:0:0:
256,192,98550,1,0,0:0:0:0:
256,192,98700,1,8,0:0:0:0:
256,192,98850,1,0,0:0:0:0:
256,192,99150,1,0,0:0:0:0:
256,192,99450,1,0,0:0:0:0:
256,192,99600,1,8,0:0:0:0:
256,192,99675,1,8,0:0:0:0:
256,192,99750,1,0,0:0:0:0:
256,192,100050,1,0,0:0:0:0:
256,192,100350,1,0,0:0:0:0:
256,192,100500,1,8,0:0:0:0:
256,192,100650,1,0,0:0:0:0:
256,192,100800,1,0,0:0:0:0:
256,192,100950,1,8,0:0:0:0:
256,192,101250,1,0,0:0:0:0:
256,192,101400,1,8,0:0:0:0:
256,192,101700,1,8,0:0:0:0:
256,192,102000,1,8,0:0:0:0:
256,192,102150,1,4,0:0:0:0:
256,192,102450,1,0,0:0:0:0:
256,192,102750,1,0,0:0:0:0:
256,192,103050,1,0,0:0:0:0:
256,192,103350,1,0,0:0:0:0:
256,192,103500,1,8,0:0:0:0:
256,192,103650,1,0,0:0:0:0:
256,192,103950,1,0,0:0:0:0:
256,192,104100,1,0,0:0:0:0:
256,192,104250,1,12,0:0:0:0:
256,192,105750,12,0,106800,0:0:0:0:
256,192,106950,5,4,0:0:0:0:
256,192,107175,1,8,0:0:0:0:
256,192,107250,1,0,0:0:0:0:
256,192,107400,1,8,0:0:0:0:
256,192,107550,1,0,0:0:0:0:
256,192,107625,1,0,0:0:0:0:
256,192,107700,1,0,0:0:0:0:
256,192,107850,1,8,0:0:0:0:
256,192,108000,1,0,0:0:0:0:
256,192,108150,1,8,0:0:0:0:
256,192,108225,1,8,0:0:0:0:
256,192,108300,1,0,0:0:0:0:
256,192,108450,1,8,0:0:0:0:
256,192,108600,1,0,0:0:0:0:
256,192,108675,1,0,0:0:0:0:
256,192,108750,1,8,0:0:0:0:
256,192,108825,1,8,0:0:0:0:
256,192,108900,1,0,0:0:0:0:
256,192,109050,1,8,0:0:0:0:
256,192,109200,1,8,0:0:0:0:
256,192,109350,1,0,0:0:0:0:
256,192,109575,1,8,0:0:0:0:
256,192,109650,1,0,0:0:0:0:
256,192,109800,1,8,0:0:0:0:
256,192,109950,1,0,0:0:0:0:
256,192,110025,1,0,0:0:0:0:
256,192,110100,1,0,0:0:0:0:
256,192,110250,1,8,0:0:0:0:
256,192,110400,1,0,0:0:0:0:
256,192,110550,1,8,0:0:0:0:
256,192,110700,1,8,0:0:0:0:
256,192,110850,1,0,0:0:0:0:
256,192,111000,1,8,0:0:0:0:
256,192,111150,1,4,0:0:0:0:
256,192,111450,1,12,0:0:0:0:
256,192,111750,1,4,0:0:0:0:
256,192,111975,1,8,0:0:0:0:
256,192,112050,1,0,0:0:0:0:
256,192,112200,1,8,0:0:0:0:
256,192,112350,1,0,0:0:0:0:
256,192,112425,1,0,0:0:0:0:
256,192,112500,1,0,0:0:0:0:
256,192,112650,1,8,0:0:0:0:
256,192,112800,1,0,0:0:0:0:
256,192,112950,1,8,0:0:0:0:
256,192,113025,1,8,0:0:0:0:
256,192,113100,1,0,0:0:0:0:
256,192,113250,1,8,0:0:0:0:
256,192,113400,1,0,0:0:0:0:
256,192,113475,1,0,0:0:0:0:
256,192,113550,1,8,0:0:0:0:
256,192,113625,1,8,0:0:0:0:
256,192,113700,1,0,0:0:0:0:
256,192,113850,1,8,0:0:0:0:
256,192,114000,1,8,0:0:0:0:
256,192,114150,1,0,0:0:0:0:
256,192,114225,1,0,0:0:0:0:
256,192,114300,1,0,0:0:0:0:
256,192,114375,1,0,0:0:0:0:
256,192,114450,1,8,0:0:0:0:
256,192,114600,1,0,0:0:0:0:
256,192,114750,1,8,0:0:0:0:
256,192,114825,1,0,0:0:0:0:
256,192,114900,1,0,0:0:0:0:
256,192,114975,1,0,0:0:0:0:
256,192,115050,1,8,0:0:0:0:
256,192,115200,1,0,0:0:0:0:
256,192,115350,1,8,0:0:0:0:
256,192,115425,1,8,0:0:0:0:
256,192,115500,1,0,0:0:0:0:
256,192,115575,1,0,0:0:0:0:
256,192,115650,1,8,0:0:0:0:
256,192,115725,1,8,0:0:0:0:
256,192,115800,1,0,0:0:0:0:
256,192,115875,1,0,0:0:0:0:
256,192,115950,1,8,0:0:0:0:
256,192,116025,1,8,0:0:0:0:
256,192,116100,1,0,0:0:0:0:
256,192,116175,1,0,0:0:0:0:
256,192,116250,1,8,0:0:0:0:
256,192,116325,1,0,0:0:0:0:
256,192,116400,1,0,0:0:0:0:
256,192,116475,1,0,0:0:0:0:
256,192,116550,1,8,0:0:0:0:
256,192,116775,1,8,0:0:0:0:
256,192,116850,1,0,0:0:0:0:
256,192,117000,1,8,0:0:0:0:
256,192,117150,1,0,0:0:0:0:
256,192,117225,1,0,0:0:0:0:
256,192,117300,1,8,0:0:0:0:
256,192,117375,1,0,0:0:0:0:
256,192,117450,1,8,0:0:0:0:
256,192,117600,1,0,0:0:0:0:
256,192,117750,1,8,0:0:0:0:
256,192,117825,1,8,0:0:0:0:
256,192,117900,1,0,0:0:0:0:
256,192,118050,1,8,0:0:0:0:
256,192,118200,1,8,0:0:0:0:
256,192,118275,1,8,0:0:0:0:
256,192,118350,1,0,0:0:0:0:
256,192,118425,1,0,0:0:0:0:
256,192,118500,1,0,0:0:0:0:
256,192,118650,1,8,0:0:0:0:
256,192,118800,1,8,0:0:0:0:
256,192,118950,1,0,0:0:0:0:
256,192,119175,1,8,0:0:0:0:
256,192,119250,1,0,0:0:0:0:
256,192,119400,1,8,0:0:0:0:
256,192,119550,1,0,0:0:0:0:
256,192,119625,1,0,0:0:0:0:
256,192,119700,1,8,0:0:0:0:
256,192,119775,1,0,0:0:0:0:
256,192,119850,1,8,0:0:0:0:
256,192,120000,1,0,0:0:0:0:
256,192,120150,1,8,0:0:0:0:
256,192,120300,1,8,0:0:0:0:
256,192,120450,1,0,0:0:0:0:
256,192,120600,1,8,0:0:0:0:
256,192,120750,1,4,0:0:0:0:
256,192,121050,1,12,0:0:0:0:
256,192,121350,1,4,0:0:0:0:
256,192,121575,1,8,0:0:0:0:
256,192,121650,1,0,0:0:0:0:
256,192,121800,1,8,0:0:0:0:
256,192,121950,1,0,0:0:0:0:
256,192,122025,1,0,0:0:0:0:
256,192,122100,1,8,0:0:0:0:
256,192,122175,1,0,0:0:0:0:
256,192,122250,1,8,0:0:0:0:
256,192,122400,1,0,0:0:0:0:
256,192,122550,1,8,0:0:0:0:
256,192,122625,1,8,0:0:0:0:
256,192,122700,1,0,0:0:0:0:
256,192,122850,1,8,0:0:0:0:
256,192,123000,1,0,0:0:0:0:
256,192,123075,1,0,0:0:0:0:
256,192,123150,1,8,0:0:0:0:
256,192,123225,1,8,0:0:0:0:
256,192,123300,1,0,0:0:0:0:
256,192,123450,1,8,0:0:0:0:
256,192,123600,1,8,0:0:0:0:
256,192,123750,1,0,0:0:0:0:
256,192,123825,1,0,0:0:0:0:
256,192,123900,1,0,0:0:0:0:
256,192,124050,1,12,0:0:0:0:
256,192,124200,1,12,0:0:0:0:
256,192,124350,1,0,0:0:0:0:
256,192,124425,1,0,0:0:0:0:
256,192,124500,1,0,0:0:0:0:
256,192,124650,1,12,0:0:0:0:
256,192,124800,1,12,0:0:0:0:
256,192,124950,1,4,0:0:0:0:
256,192,125100,1,4,0:0:0:0:
256,192,125850,1,12,0:0:0:0:
256,192,126150,5,8,0:0:0:0:
256,192,126375,1,0,0:0:0:0:
256,192,126450,1,8,0:0:0:0:
256,192,126600,1,8,0:0:0:0:
256,192,126750,1,0,0:0:0:0:
256,192,126900,1,0,0:0:0:0:
256,192,127050,1,8,0:0:0:0:
256,192,127200,1,8,0:0:0:0:
256,192,127350,1,0,0:0:0:0:
256,192,127500,1,0,0:0:0:0:
256,192,127575,1,0,0:0:0:0:
256,192,127650,1,8,0:0:0:0:
256,192,127800,1,8,0:0:0:0:
256,192,127950,1,0,0:0:0:0:
256,192,128100,1,8,0:0:0:0:
256,192,128175,1,0,0:0:0:0:
256,192,128250,1,8,0:0:0:0:
256,192,128400,1,8,0:0:0:0:
256,192,128550,1,0,0:0:0:0:
256,192,128775,1,0,0:0:0:0:
256,192,128850,1,8,0:0:0:0:
256,192,129000,1,8,0:0:0:0:
256,192,129150,1,0,0:0:0:0:
256,192,129300,1,0,0:0:0:0:
256,192,129450,1,8,0:0:0:0:
256,192,129600,1,8,0:0:0:0:
256,192,129750,1,0,0:0:0:0:
256,192,129825,1,0,0:0:0:0:
256,192,129900,1,0,0:0:0:0:
256,192,129975,1,0,0:0:0:0:
256,192,130050,1,8,0:0:0:0:
256,192,130200,1,8,0:0:0:0:
256,192,130350,1,0,0:0:0:0:
256,192,130425,1,8,0:0:0:0:
256,192,130500,1,0,0:0:0:0:
256,192,130575,1,0,0:0:0:0:
256,192,130650,1,8,0:0:0:0:
256,192,130800,1,8,0:0:0:0:
256,192,130950,5,4,0:0:0:0:
256,192,131175,1,0,0:0:0:0:
256,192,131250,1,8,0:0:0:0:
256,192,131400,1,8,0:0:0:0:
256,192,131550,1,0,0:0:0:0:
256,192,131700,1,0,0:0:0:0:
256,192,131850,1,8,0:0:0:0:
256,192,132000,1,8,0:0:0:0:
256,192,132150,1,0,0:0:0:0:
256,192,132300,1,0,0:0:0:0:
256,192,132375,1,0,0:0:0:0:
256,192,132450,1,8,0:0:0:0:
256,192,132600,1,8,0:0:0:0:
256,192,132750,1,0,0:0:0:0:
256,192,132900,1,8,0:0:0:0:
256,192,132975,1,0,0:0:0:0:
256,192,133050,1,8,0:0:0:0:
256,192,133200,1,8,0:0:0:0:
256,192,133350,1,0,0:0:0:0:
256,192,133575,5,0,0:0:0:0:
256,192,133650,1,8,0:0:0:0:
256,192,133800,1,8,0:0:0:0:
256,192,133950,1,0,0:0:0:0:
256,192,134100,1,0,0:0:0:0:
256,192,134250,1,8,0:0:0:0:
256,192,134400,1,8,0:0:0:0:
256,192,134550,1,4,0:0:0:0:
256,192,134850,1,4,0:0:0:0:
256,192,135150,1,4,0:0:0:0:
256,192,135450,1,12,0:0:0:0:
256,192,135750,1,4,0:0:0:0:
256,192,135900,1,8,0:0:0:0:
256,192,135975,1,8,0:0:0:0:
256,192,136050,1,0,0:0:0:0:
256,192,136200,1,8,0:0:0:0:
256,192,136350,1,0,0:0:0:0:
256,192,136500,1,8,0:0:0:0:
256,192,136575,1,0,0:0:0:0:
256,192,136650,1,8,0:0:0:0:
256,192,136800,1,8,0:0:0:0:
256,192,136950,1,0,0:0:0:0:
256,192,137100,1,8,0:0:0:0:
256,192,137175,1,8,0:0:0:0:
256,192,137250,1,0,0:0:0:0:
256,192,137400,1,8,0:0:0:0:
256,192,137550,1,0,0:0:0:0:
256,192,137625,1,0,0:0:0:0:
256,192,137775,1,8,0:0:0:0:
256,192,137850,1,0,0:0:0:0:
256,192,138000,1,8,0:0:0:0:
256,192,138150,1,0,0:0:0:0:
256,192,138300,1,8,0:0:0:0:
256,192,138375,1,8,0:0:0:0:
256,192,138450,1,0,0:0:0:0:
256,192,138600,1,8,0:0:0:0:
256,192,138675,1,0,0:0:0:0:
256,192,138750,1,0,0:0:0:0:
256,192,138900,1,8,0:0:0:0:
256,192,138975,1,8,0:0:0:0:
256,192,139050,1,0,0:0:0:0:
256,192,139200,1,8,0:0:0:0:
256,192,139350,1,4,0:0:0:0:
256,192,139650,1,4,0:0:0:0:
256,192,139950,1,4,0:0:0:0:
256,192,140250,1,4,0:0:0:0:
256,192,140550,1,4,0:0:0:0:
256,192,140700,1,8,0:0:0:0:
256,192,140775,1,8,0:0:0:0:
256,192,140850,1,0,0:0:0:0:
256,192,141000,1,8,0:0:0:0:
256,192,141150,1,0,0:0:0:0:
256,192,141300,1,8,0:0:0:0:
256,192,141375,1,0,0:0:0:0:
256,192,141450,1,8,0:0:0:0:
256,192,141600,1,8,0:0:0:0:
256,192,141750,1,0,0:0:0:0:
256,192,141900,1,8,0:0:0:0:
256,192,141975,1,8,0:0:0:0:
256,192,142050,1,0,0:0:0:0:
256,192,142200,1,8,0:0:0:0:
256,192,142350,1,0,0:0:0:0:
256,192,142425,1,0,0:0:0:0:
256,192,142575,1,8,0:0:0:0:
256,192,142650,1,0,0:0:0:0:
256,192,142800,1,8,0:0:0:0:
256,192,142950,1,0,0:0:0:0:
256,192,143100,1,8,0:0:0:0:
256,192,143175,1,8,0:0:0:0:
256,192,143250,1,0,0:0:0:0:
256,192,143400,1,8,0:0:0:0:
256,192,143550,1,0,0:0:0:0:
256,192,143625,1,0,0:0:0:0:
256,192,143700,1,8,0:0:0:0:
256,192,143775,1,0,0:0:0:0:
256,192,143850,1,8,0:0:0:0:
256,192,144000,1,8,0:0:0:0:
256,192,144150,1,4,0:0:0:0:
256,192,144450,1,4,0:0:0:0:
256,192,144750,1,4,0:0:0:0:
256,192,145050,1,12,0:0:0:0:
256,192,145350,5,4,0:0:0:0:
256,192,145500,1,8,0:0:0:0:
256,192,145575,1,8,0:0:0:0:
256,192,145650,1,0,0:0:0:0:
256,192,145800,1,8,0:0:0:0:
256,192,145950,1,0,0:0:0:0:
256,192,146100,1,8,0:0:0:0:
256,192,146175,1,0,0:0:0:0:
256,192,146250,1,8,0:0:0:0:
256,192,146400,1,8,0:0:0:0:
256,192,146550,1,0,0:0:0:0:
256,192,146700,1,8,0:0:0:0:
256,192,146775,1,8,0:0:0:0:
256,192,146850,1,0,0:0:0:0:
256,192,146925,1,0,0:0:0:0:
256,192,147000,1,8,0:0:0:0:
256,192,147150,1,0,0:0:0:0:
256,192,147300,1,0,0:0:0:0:
256,192,147375,1,8,0:0:0:0:
256,192,147450,1,0,0:0:0:0:
256,192,147600,1,8,0:0:0:0:
256,192,147750,1,0,0:0:0:0:
256,192,147975,1,8,0:0:0:0:
256,192,148050,1,0,0:0:0:0:
256,192,148200,1,8,0:0:0:0:
256,192,148350,1,0,0:0:0:0:
256,192,148425,1,0,0:0:0:0:
256,192,148500,1,8,0:0:0:0:
256,192,148575,1,8,0:0:0:0:
256,192,148650,1,0,0:0:0:0:
256,192,148800,1,8,0:0:0:0:
256,192,148950,1,4,0:0:0:0:
256,192,149250,1,4,0:0:0:0:
256,192,149550,1,12,0:0:0:0:
256,192,149850,1,12,0:0:0:0:
256,192,150150,1,4,0:0:0:0:
256,192,150300,1,8,0:0:0:0:
256,192,150375,1,8,0:0:0:0:
256,192,150450,1,0,0:0:0:0:
256,192,150600,1,8,0:0:0:0:
256,192,150750,1,0,0:0:0:0:
256,192,150825,1,8,0:0:0:0:
256,192,150900,1,8,0:0:0:0:
256,192,150975,1,8,0:0:0:0:
256,192,151050,1,0,0:0:0:0:
256,192,151200,1,8,0:0:0:0:
256,192,151350,1,0,0:0:0:0:
256,192,151425,1,0,0:0:0:0:
256,192,151500,1,8,0:0:0:0:
256,192,151575,1,0,0:0:0:0:
256,192,151650,1,8,0:0:0:0:
256,192,151800,1,8,0:0:0:0:
256,192,151950,1,0,0:0:0:0:
256,192,152025,1,0,0:0:0:0:
256,192,152175,1,8,0:0:0:0:
256,192,152250,1,0,0:0:0:0:
256,192,152400,1,8,0:0:0:0:
256,192,152550,1,0,0:0:0:0:
256,192,152625,1,0,0:0:0:0:
256,192,152700,1,8,0:0:0:0:
256,192,152775,1,8,0:0:0:0:
256,192,152850,1,0,0:0:0:0:
256,192,153000,1,8,0:0:0:0:
256,192,153150,1,0,0:0:0:0:
256,192,153300,1,0,0:0:0:0:
256,192,153375,1,8,0:0:0:0:
256,192,153450,1,0,0:0:0:0:
256,192,153525,1,0,0:0:0:0:
256,192,153600,1,8,0:0:0:0:
256,192,153750,1,4,0:0:0:0:
256,192,153900,1,4,0:0:0:0:
256,192,154050,1,4,0:0:0:0:
256,192,154350,1,12,0:0:0:0:
256,192,154950,1,12,0:0:0:0:
256,192,155250,1,0,0:0:0:0:
256,192,155550,1,0,0:0:0:0:
256,192,155850,1,0,0:0:0:0:
256,192,156000,1,8,0:0:0:0:
256,192,156150,1,0,0:0:0:0:
256,192,156450,1,0,0:0:0:0:
256,192,156750,1,0,0:0:0:0:
256,192,157050,1,0,0:0:0:0:
256,192,157200,1,8,0:0:0:0:
256,192,157350,1,0,0:0:0:0:
256,192,157575,1,8,0:0:0:0:
256,192,157650,1,0,0:0:0:0:
256,192,157800,1,8,0:0:0:0:
256,192,157950,1,0,0:0:0:0:
256,192,158250,1,0,0:0:0:0:
256,192,158550,1,0,0:0:0:0:
256,192,158625,1,8,0:0:0:0:
256,192,158700,1,8,0:0:0:0:
256,192,158775,1,8,0:0:0:0:
256,192,158850,1,0,0:0:0:0:
256,192,158925,1,8,0:0:0:0:
256,192,159000,1,8,0:0:0:0:
256,192,159075,1,8,0:0:0:0:
256,192,159150,1,0,0:0:0:0:
256,192,159750,5,4,0:0:0:0:
256,192,159900,1,0,0:0:0:0:
256,192,159975,1,0,0:0:0:0:
256,192,160050,1,8,0:0:0:0:
256,192,160200,1,0,0:0:0:0:
256,192,160350,1,0,0:0:0:0:
256,192,160425,1,0,0:0:0:0:
256,192,160500,1,0,0:0:0:0:
256,192,160650,1,8,0:0:0:0:
256,192,160800,1,0,0:0:0:0:
256,192,160950,1,0,0:0:0:0:
256,192,161175,1,0,0:0:0:0:
256,192,161250,1,8,0:0:0:0:
256,192,161400,1,0,0:0:0:0:
256,192,161550,1,0,0:0:0:0:
256,192,161625,1,0,0:0:0:0:
256,192,161700,1,8,0:0:0:0:
256,192,161775,1,0,0:0:0:0:
256,192,161850,1,8,0:0:0:0:
256,192,162000,1,8,0:0:0:0:
256,192,162150,1,0,0:0:0:0:
256,192,162300,1,0,0:0:0:0:
256,192,162375,1,0,0:0:0:0:
256,192,162450,1,8,0:0:0:0:
256,192,162600,1,0,0:0:0:0:
256,192,162750,1,0,0:0:0:0:
256,192,162825,1,0,0:0:0:0:
256,192,162900,1,0,0:0:0:0:
256,192,163050,1,8,0:0:0:0:
256,192,163200,1,0,0:0:0:0:
256,192,163350,1,0,0:0:0:0:
256,192,163575,1,0,0:0:0:0:
256,192,163650,1,8,0:0:0:0:
256,192,163800,1,0,0:0:0:0:
256,192,163950,1,0,0:0:0:0:
256,192,164025,1,0,0:0:0:0:
256,192,164100,1,8,0:0:0:0:
256,192,164175,1,8,0:0:0:0:
256,192,164250,1,8,0:0:0:0:
256,192,164400,1,8,0:0:0:0:
0,96,164550,2,0,L|496:96,2,491
256,192,166800,5,8,0:0:0:0:
256,192,167100,1,8,0:0:0:0:
256,192,167175,1,8,0:0:0:0:
256,192,167250,1,0,0:0:0:0:
256,192,167400,1,8,0:0:0:0:
256,192,167475,1,8,0:0:0:0:
256,192,167550,1,0,0:0:0:0:
256,192,167700,1,8,0:0:0:0:
256,192,167775,1,8,0:0:0:0:
256,192,167850,1,0,0:0:0:0:
256,192,168000,1,8,0:0:0:0:
256,192,168075,1,8,0:0:0:0:
256,192,168150,1,0,0:0:0:0:
256,192,168300,1,8,0:0:0:0:
256,192,168450,1,0,0:0:0:0:
256,192,168525,1,0,0:0:0:0:
256,192,168600,1,0,0:0:0:0:
256,192,168750,1,8,0:0:0:0:
256,192,168900,1,0,0:0:0:0:
256,192,169050,1,8,0:0:0:0:
256,192,169125,1,8,0:0:0:0:
256,192,169200,1,8,0:0:0:0:
256,192,169350,1,0,0:0:0:0:
256,192,169425,1,0,0:0:0:0:
256,192,169500,1,8,0:0:0:0:
256,192,169650,1,8,0:0:0:0:
256,192,169800,1,0,0:0:0:0:
256,192,169875,1,0,0:0:0:0:
256,192,169950,1,8,0:0:0:0:
256,192,170100,1,8,0:0:0:0:
256,192,170250,1,0,0:0:0:0:
256,192,170325,1,0,0:0:0:0:
256,192,170400,1,8,0:0:0:0:
256,192,170550,1,8,0:0:0:0:
256,192,170700,1,0,0:0:0:0:
256,192,170775,1,0,0:0:0:0:
256,192,170850,1,8,0:0:0:0:
256,192,171000,1,8,0:0:0:0:
256,192,171150,1,0,0:0:0:0:
256,192,171225,1,0,0:0:0:0:
256,192,171300,1,8,0:0:0:0:
256,192,171450,1,8,0:0:0:0:
256,192,171600,1,0,0:0:0:0:
256,192,171675,1,0,0:0:0:0:
256,192,171750,1,8,0:0:0:0:
256,192,171900,1,8,0:0:0:0:
256,192,172050,1,8,0:0:0:0:
256,192,172200,1,8,0:0:0:0:
256,192,172350,1,0,0:0:0:0:
256,192,172500,1,8,0:0:0:0:
256,192,172650,1,0,0:0:0:0:
256,192,172725,1,8,0:0:0:0:
256,192,172800,1,8,0:0:0:0:
256,192,173100,1,8,0:0:0:0:
256,192,173250,1,8,0:0:0:0:
256,192,173400,1,8,0:0:0:0:
256,192,173550,1,0,0:0:0:0:
256,192,173700,1,8,0:0:0:0:
256,192,173850,1,0,0:0:0:0:
256,192,174000,1,8,0:0:0:0:
256,192,174075,1,8,0:0:0:0:
256,192,174150,1,0,0:0:0:0:
256,192,174450,1,0,0:0:0:0:
256,192,174525,1,0,0:0:0:0:
256,192,174600,1,0,0:0:0:0:
256,192,174675,1,0,0:0:0:0:
256,192,174750,1,8,0:0:0:0:
256,192,174825,1,8,0:0:0:0:
256,192,174900,1,8,0:0:0:0:
256,192,174975,1,8,0:0:0:0:
256,192,175050,1,0,0:0:0:0:
256,192,175125,1,0,0:0:0:0:
256,192,175200,1,0,0:0:0:0:
256,192,175275,1,0,0:0:0:0:
256,192,175350,1,8,0:0:0:0:
256,192,175425,1,8,0:0:0:0:
256,192,175500,1,0,0:0:0:0:
256,192,175575,1,0,0:0:0:0:
256,192,175650,1,8,0:0:0:0:
256,192,175725,1,8,0:0:0:0:
256,192,175800,1,0,0:0:0:0:
256,192,175875,1,0,0:0:0:0:
256,192,175950,1,8,0:0:0:0:
256,192,176025,1,8,0:0:0:0:
256,192,176100,1,0,0:0:0:0:
256,192,176175,1,0,0:0:0:0:
256,192,176250,1,8,0:0:0:0:
256,192,176325,1,8,0:0:0:0:
256,192,176400,1,0,0:0:0:0:
256,192,176475,1,0,0:0:0:0:
256,192,176550,1,8,0:0:0:0:
256,192,176625,1,8,0:0:0:0:
256,192,176700,1,8,0:0:0:0:
256,192,176775,1,8,0:0:0:0:
256,192,176850,1,0,0:0:0:0:
256,192,176925,1,0,0:0:0:0:
256,192,177000,1,0,0:0:0:0:
256,192,177075,1,0,0:0:0:0:
256,192,177150,1,8,0:0:0:0:
256,192,177225,1,8,0:0:0:0:
256,192,177300,1,0,0:0:0:0:
256,192,177375,1,0,0:0:0:0:
256,192,177450,1,8,0:0:0:0:
256,192,177600,1,0,0:0:0:0:
256,192,177900,1,0,0:0:0:0:
256,192,178200,1,0,0:0:0:0:
256,192,178350,1,8,0:0:0:0:
256,192,178500,1,8,0:0:0:0:
256,192,178650,1,8,0:0:0:0:
256,192,178800,1,8,0:0:0:0:
256,192,178950,5,0,0:0:0:0:
256,192,180150,1,8,0:0:0:0:
256,192,181350,1,8,0:0:0:0:
256,192,182550,1,0,0:0:0:0:
256,192,183150,1,0,0:0:0:0:
256,192,183750,1,8,0:0:0:0:
256,192,183900,1,0,0:0:0:0:
256,192,184050,1,0,0:0:0:0:
256,192,184200,1,8,0:0:0:0:
256,192,184500,1,0,0:0:0:0:
256,192,184650,1,8,0:0:0:0:
256,192,184800,1,0,0:0:0:0:
256,192,184950,1,8,0:0:0:0:
256,192,185100,1,8,0:0:0:0:
256,192,185250,1,0,0:0:0:0:
256,192,185400,1,8,0:0:0:0:
256,192,185700,1,0,0:0:0:0:
256,192,185850,1,8,0:0:0:0:
256,192,186000,1,0,0:0:0:0:
256,192,186150,1,8,0:0:0:0:
256,192,186300,1,8,0:0:0:0:
256,192,186450,1,0,0:0:0:0:
256,192,186600,1,0,0:0:0:0:
256,192,186750,1,8,0:0:0:0:
256,192,186900,1,8,0:0:0:0:
256,192,187050,1,0,0:0:0:0:
256,192,187200,1,8,0:0:0:0:
256,192,187350,8,0,188400,0:0:0:0:
112,288,188550,6,0,L|400:288,1,280
256,192,189450,1,4,0:0:0:0:
256,192,189750,5,12,0:0:0:0:
256,192,189975,1,8,0:0:0:0:
256,192,190050,1,0,0:0:0:0:
256,192,190200,1,8,0:0:0:0:
256,192,190350,1,0,0:0:0:0:
256,192,190425,1,0,0:0:0:0:
256,192,190500,1,0,0:0:0:0:
256,192,190650,1,8,0:0:0:0:
256,192,190800,1,8,0:0:0:0:
256,192,190950,1,0,0:0:0:0:
256,192,191025,1,0,0:0:0:0:
256,192,191175,1,8,0:0:0:0:
256,192,191250,1,0,0:0:0:0:
256,192,191400,1,8,0:0:0:0:
256,192,191550,1,0,0:0:0:0:
256,192,191625,1,0,0:0:0:0:
256,192,191700,1,8,0:0:0:0:
256,192,191775,1,8,0:0:0:0:
256,192,191850,1,0,0:0:0:0:
256,192,192000,1,8,0:0:0:0:
256,192,192150,1,0,0:0:0:0:
256,192,192225,1,0,0:0:0:0:
256,192,192375,1,8,0:0:0:0:
256,192,192450,1,0,0:0:0:0:
256,192,192600,1,8,0:0:0:0:
256,192,192750,1,0,0:0:0:0:
256,192,192825,1,0,0:0:0:0:
256,192,192900,1,8,0:0:0:0:
256,192,192975,1,0,0:0:0:0:
256,192,193050,1,8,0:0:0:0:
256,192,193200,1,8,0:0:0:0:
256,192,193350,1,0,0:0:0:0:
256,192,193500,1,8,0:0:0:0:
256,192,193575,1,8,0:0:0:0:
256,192,193650,1,0,0:0:0:0:
256,192,193800,1,8,0:0:0:0:
256,192,193950,1,0,0:0:0:0:
256,192,194025,1,0,0:0:0:0:
256,192,194100,1,8,0:0:0:0:
256,192,194175,1,0,0:0:0:0:
256,192,194250,1,8,0:0:0:0:
256,192,194325,1,8,0:0:0:0:
256,192,194400,1,0,0:0:0:0:
256,192,194550,1,12,0:0:0:0:
256,192,194775,1,8,0:0:0:0:
256,192,194850,1,0,0:0:0:0:
256,192,195000,1,8,0:0:0:0:
256,192,195150,1,0,0:0:0:0:
256,192,195225,1,0,0:0:0:0:
256,192,195300,1,0,0:0:0:0:
256,192,195375,1,0,0:0:0:0:
256,192,195450,1,8,0:0:0:0:
256,192,195600,1,8,0:0:0:0:
256,192,195750,1,0,0:0:0:0:
256,192,195900,1,8,0:0:0:0:
256,192,195975,1,8,0:0:0:0:
256,192,196050,1,0,0:0:0:0:
256,192,196200,1,8,0:0:0:0:
256,192,196350,1,0,0:0:0:0:
256,192,196425,1,0,0:0:0:0:
256,192,196500,1,8,0:0:0:0:
256,192,196575,1,8,0:0:0:0:
256,192,196650,1,0,0:0:0:0:
256,192,196800,1,8,0:0:0:0:
256,192,196950,1,0,0:0:0:0:
256,192,197025,1,0,0:0:0:0:
256,192,197100,1,0,0:0:0:0:
256,192,197175,1,0,0:0:0:0:
256,192,197250,1,8,0:0:0:0:
256,192,197400,1,0,0:0:0:0:
256,192,197550,1,0,0:0:0:0:
256,192,197625,1,0,0:0:0:0:
256,192,197700,1,0,0:0:0:0:
256,192,197775,1,0,0:0:0:0:
256,192,197850,1,8,0:0:0:0:
256,192,198000,1,0,0:0:0:0:
256,192,198150,1,0,0:0:0:0:
256,192,198225,1,0,0:0:0:0:
256,192,198300,1,8,0:0:0:0:
256,192,198375,1,8,0:0:0:0:
256,192,198450,1,0,0:0:0:0:
256,192,198525,1,0,0:0:0:0:
256,192,198600,1,8,0:0:0:0:
256,192,198675,1,8,0:0:0:0:
256,192,198750,1,0,0:0:0:0:
256,192,198825,1,0,0:0:0:0:
256,192,198900,1,8,0:0:0:0:
256,192,198975,1,0,0:0:0:0:
256,192,199050,1,8,0:0:0:0:
256,192,199125,1,8,0:0:0:0:
256,192,199200,1,0,0:0:0:0:
256,192,199350,1,12,0:0:0:0:
256,192,199575,1,8,0:0:0:0:
256,192,199650,1,0,0:0:0:0:
256,192,199800,1,8,0:0:0:0:
256,192,199950,1,0,0:0:0:0:
256,192,200025,1,0,0:0:0:0:
256,192,200100,1,8,0:0:0:0:
256,192,200175,1,8,0:0:0:0:
256,192,200250,1,0,0:0:0:0:
256,192,200400,1,8,0:0:0:0:
256,192,200550,1,0,0:0:0:0:
256,192,200625,1,0,0:0:0:0:
256,192,200775,1,8,0:0:0:0:
256,192,200850,1,0,0:0:0:0:
256,192,201000,1,8,0:0:0:0:
256,192,201150,1,0,0:0:0:0:
256,192,201225,1,0,0:0:0:0:
256,192,201300,1,8,0:0:0:0:
256,192,201375,1,0,0:0:0:0:
256,192,201450,1,8,0:0:0:0:
256,192,201600,1,8,0:0:0:0:
256,192,201750,1,0,0:0:0:0:
256,192,201900,1,8,0:0:0:0:
256,192,201975,1,8,0:0:0:0:
256,192,202050,1,0,0:0:0:0:
256,192,202200,1,8,0:0:0:0:
256,192,202350,1,0,0:0:0:0:
256,192,202425,1,0,0:0:0:0:
256,192,202500,1,0,0:0:0:0:
256,192,202575,1,0,0:0:0:0:
256,192,202650,1,8,0:0:0:0:
256,192,202800,1,8,0:0:0:0:
256,192,202950,1,0,0:0:0:0:
256,192,203025,1,0,0:0:0:0:
256,192,203175,1,8,0:0:0:0:
256,192,203250,1,0,0:0:0:0:
256,192,203400,1,8,0:0:0:0:
256,192,203550,1,0,0:0:0:0:
256,192,203625,1,0,0:0:0:0:
256,192,203700,1,8,0:0:0:0:
256,192,203775,1,0,0:0:0:0:
256,192,203850,1,8,0:0:0:0:
256,192,203925,1,8,0:0:0:0:
256,192,204000,1,0,0:0:0:0:
256,192,204150,1,12,0:0:0:0:
256,192,204375,1,8,0:0:0:0:
256,192,204450,1,0,0:0:0:0:
256,192,204600,1,8,0:0:0:0:
256,192,204750,1,0,0:0:0:0:
256,192,204825,1,0,0:0:0:0:
256,192,204900,1,0,0:0:0:0:
256,192,204975,1,0,0:0:0:0:
256,192,205050,1,8,0:0:0:0:
256,192,205200,1,8,0:0:0:0:
256,192,205350,1,0,0:0:0:0:
256,192,205500,1,8,0:0:0:0:
256,192,205575,1,8,0:0:0:0:
256,192,205650,1,0,0:0:0:0:
256,192,205800,1,8,0:0:0:0:
256,192,205950,1,0,0:0:0:0:
256,192,206025,1,0,0:0:0:0:
256,192,206100,1,8,0:0:0:0:
256,192,206175,1,8,0:0:0:0:
256,192,206250,1,0,0:0:0:0:
256,192,206400,1,8,0:0:0:0:
256,192,206550,1,0,0:0:0:0:
256,192,206625,1,0,0:0:0:0:
256,192,206700,1,0,0:0:0:0:
256,192,206850,1,12,0:0:0:0:
256,192,207000,1,12,0:0:0:0:
256,192,207150,1,0,0:0:0:0:
256,192,207225,1,0,0:0:0:0:
256,192,207300,1,0,0:0:0:0:
256,192,207450,1,12,0:0:0:0:
256,192,207600,1,12,0:0:0:0:
256,192,207750,1,4,0:0:0:0:
256,192,207900,1,4,0:0:0:0:
256,192,208500,1,8,0:0:0:0:
256,192,208575,1,8,0:0:0:0:
256,192,208650,1,0,0:0:0:0:
256,192,208725,1,0,0:0:0:0:
256,192,208800,1,0,0:0:0:0:
256,192,208950,5,8,0:0:0:0:
256,192,209100,1,0,0:0:0:0:
256,192,209250,1,8,0:0:0:0:
256,192,209400,1,0,0:0:0:0:
256,192,209700,1,8,0:0:0:0:
256,192,210000,1,8,0:0:0:0:
256,192,210300,1,0,0:0:0:0:
256,192,210450,1,8,0:0:0:0:
256,192,210600,1,0,0:0:0:0:
256,192,210750,1,8,0:0:0:0:
256,192,210825,1,8,0:0:0:0:
256,192,210900,1,0,0:0:0:0:
256,192,210975,1,0,0:0:0:0:
256,192,211050,1,8,0:0:0:0:
256,192,211350,1,4,0:0:0:0:
256,192,211500,1,0,0:0:0:0:
256,192,211575,1,0,0:0:0:0:
256,192,211650,1,8,0:0:0:0:
256,192,211800,1,0,0:0:0:0:
256,192,211950,1,0,0:0:0:0:
256,192,212100,1,8,0:0:0:0:
256,192,212175,1,8,0:0:0:0:
256,192,212250,1,0,0:0:0:0:
256,192,212400,1,8,0:0:0:0:
256,192,212550,1,0,0:0:0:0:
256,192,212625,1,0,0:0:0:0:
256,192,212700,1,0,0:0:0:0:
256,192,212850,1,8,0:0:0:0:
256,192,213000,1,0,0:0:0:0:
256,192,213075,1,0,0:0:0:0:
256,192,213150,1,8,0:0:0:0:
256,192,213225,1,0,0:0:0:0:
256,192,213300,1,8,0:0:0:0:
256,192,213450,1,0,0:0:0:0:
256,192,213600,1,0,0:0:0:0:
256,192,213750,1,8,0:0:0:0:
256,192,213900,1,0,0:0:0:0:
256,192,213975,1,0,0:0:0:0:
256,192,214050,1,8,0:0:0:0:
256,192,214200,1,0,0:0:0:0:
256,192,214350,1,0,0:0:0:0:
256,192,214500,1,8,0:0:0:0:
256,192,214575,1,8,0:0:0:0:
256,192,214650,1,0,0:0:0:0:
256,192,214800,1,8,0:0:0:0:
256,192,214950,1,0,0:0:0:0:
256,192,215025,1,0,0:0:0:0:
256,192,215100,1,0,0:0:0:0:
256,192,215250,1,8,0:0:0:0:
256,192,215400,1,0,0:0:0:0:
256,192,215475,1,0,0:0:0:0:
256,192,215550,1,8,0:0:0:0:
256,192,215625,1,8,0:0:0:0:
256,192,215700,1,0,0:0:0:0:
256,192,215850,1,8,0:0:0:0:
256,192,216000,1,8,0:0:0:0:
256,192,216150,1,4,0:0:0:0:
256,192,216300,1,0,0:0:0:0:
256,192,216375,1,0,0:0:0:0:
256,192,216450,1,8,0:0:0:0:
256,192,216600,1,0,0:0:0:0:
256,192,216750,1,0,0:0:0:0:
256,192,216900,1,8,0:0:0:0:
256,192,216975,1,8,0:0:0:0:
256,192,217050,1,0,0:0:0:0:
256,192,217200,1,8,0:0:0:0:
256,192,217350,1,0,0:0:0:0:
256,192,217425,1,0,0:0:0:0:
256,192,217500,1,0,0:0:0:0:
256,192,217650,1,8,0:0:0:0:
256,192,217800,1,0,0:0:0:0:
256,192,217875,1,0,0:0:0:0:
256,192,217950,1,8,0:0:0:0:
256,192,218025,1,0,0:0:0:0:
256,192,218100,1,8,0:0:0:0:
256,192,218250,1,0,0:0:0:0:
256,192,218400,1,0,0:0:0:0:
256,192,218550,1,8,0:0:0:0:
256,192,218700,1,0,0:0:0:0:
256,192,218775,1,0,0:0:0:0:
256,192,218850,1,8,0:0:0:0:
256,192,219000,1,0,0:0:0:0:
256,192,219150,1,0,0:0:0:0:
256,192,219300,1,8,0:0:0:0:
256,192,219375,1,8,0:0:0:0:
256,192,219450,1,0,0:0:0:0:
256,192,219600,1,8,0:0:0:0:
256,192,219750,1,0,0:0:0:0:
256,192,219825,1,0,0:0:0:0:
256,192,219900,1,0,0:0:0:0:
256,192,220050,1,8,0:0:0:0:
256,192,220200,1,0,0:0:0:0:
256,192,220275,1,0,0:0:0:0:
256,192,220350,1,8,0:0:0:0:
256,192,220425,1,8,0:0:0:0:
256,192,220500,1,0,0:0:0:0:
256,192,220650,1,8,0:0:0:0:
256,192,220800,1,8,0:0:0:0:
256,192,220950,1,4,0:0:0:0:
256,192,221100,1,0,0:0:0:0:
256,192,221250,1,8,0:0:0:0:
256,192,221400,1,0,0:0:0:0:
256,192,221550,1,0,0:0:0:0:
256,192,221700,1,8,0:0:0:0:
256,192,221775,1,8,0:0:0:0:
256,192,221850,1,0,0:0:0:0:
256,192,222000,1,8,0:0:0:0:
256,192,222150,1,0,0:0:0:0:
256,192,222300,1,0,0:0:0:0:
256,192,222450,1,8,0:0:0:0:
256,192,222600,1,0,0:0:0:0:
256,192,222675,1,0,0:0:0:0:
256,192,222750,1,8,0:0:0:0:
256,192,222900,1,8,0:0:0:0:
256,192,223050,1,0,0:0:0:0:
256,192,223200,1,0,0:0:0:0:
256,192,223350,1,8,0:0:0:0:
256,192,223500,1,0,0:0:0:0:
256,192,223650,1,8,0:0:0:0:
256,192,223800,1,0,0:0:0:0:
256,192,223950,1,0,0:0:0:0:
256,192,224100,1,8,0:0:0:0:
256,192,224175,1,8,0:0:0:0:
256,192,224250,1,0,0:0:0:0:
256,192,224400,1,8,0:0:0:0:
256,192,224550,1,0,0:0:0:0:
256,192,224700,1,0,0:0:0:0:
256,192,224850,1,8,0:0:0:0:
256,192,225000,1,0,0:0:0:0:
256,192,225075,1,0,0:0:0:0:
256,192,225150,1,8,0:0:0:0:
256,192,225225,1,8,0:0:0:0:
256,192,225300,1,0,0:0:0:0:
256,192,225450,1,8,0:0:0:0:
256,192,225600,1,8,0:0:0:0:
256,192,225750,1,4,0:0:0:0:
256,192,225900,1,0,0:0:0:0:
256,192,226050,1,8,0:0:0:0:
256,192,226200,1,0,0:0:0:0:
256,192,226350,1,0,0:0:0:0:
256,192,226500,1,8,0:0:0:0:
256,192,226575,1,8,0:0:0:0:
256,192,226650,1,0,0:0:0:0:
256,192,226800,1,8,0:0:0:0:
256,192,226950,1,0,0:0:0:0:
256,192,227100,1,0,0:0:0:0:
256,192,227250,1,8,0:0:0:0:
256,192,227400,1,0,0:0:0:0:
256,192,227475,1,0,0:0:0:0:
256,192,227550,1,8,0:0:0:0:
256,192,227700,1,8,0:0:0:0:
256,192,227850,1,0,0:0:0:0:
256,192,228000,1,0,0:0:0:0:
256,192,228150,1,8,0:0:0:0:
256,192,228300,1,0,0:0:0:0:
256,192,228450,1,8,0:0:0:0:
256,192,228600,1,0,0:0:0:0:
256,192,228750,1,0,0:0:0:0:
256,192,228900,1,8,0:0:0:0:
256,192,228975,1,8,0:0:0:0:
256,192,229050,1,0,0:0:0:0:
256,192,229200,1,8,0:0:0:0:
256,192,229350,1,0,0:0:0:0:
256,192,229500,5,0,0:0:0:0:
256,192,229650,1,8,0:0:0:0:
256,192,229800,1,0,0:0:0:0:
256,192,229875,1,0,0:0:0:0:
256,192,229950,1,8,0:0:0:0:
256,192,230025,1,8,0:0:0:0:
256,192,230100,1,0,0:0:0:0:
256,192,230250,1,8,0:0:0:0:
256,192,230400,1,8,0:0:0:0:
256,192,230550,1,0,0:0:0:0:
256,192,230850,1,0,0:0:0:0:
256,192,231000,1,8,0:0:0:0:
256,192,231300,1,8,0:0:0:0:
256,192,231600,1,0,0:0:0:0:
256,192,231750,1,0,0:0:0:0:
256,192,232050,1,0,0:0:0:0:
256,192,232350,1,0,0:0:0:0:
256,192,232500,1,8,0:0:0:0:
256,192,232650,1,0,0:0:0:0:
256,192,232800,1,8,0:0:0:0:
256,192,232950,1,0,0:0:0:0:
256,192,233250,1,8,0:0:0:0:
256,192,233400,1,0,0:0:0:0:
256,192,233700,1,8,0:0:0:0:
256,192,234000,1,8,0:0:0:0:
256,192,234150,1,0,0:0:0:0:
256,192,234450,1,0,0:0:0:0:
256,192,234750,1,0,0:0:0:0:
256,192,234900,1,8,0:0:0:0:
256,192,235050,1,0,0:0:0:0:
256,192,235200,1,8,0:0:0:0:
256,192,235350,1,4,0:0:0:0:
256,192,235650,1,0,0:0:0:0:
256,192,235800,1,8,0:0:0:0:
256,192,236100,1,8,0:0:0:0:
256,192,236400,1,0,0:0:0:0:
256,192,236550,1,0,0:0:0:0:
256,192,236850,1,0,0:0:0:0:
256,192,237150,1,0,0:0:0:0:
256,192,237300,1,8,0:0:0:0:
256,192,237450,1,0,0:0:0:0:
256,192,237600,1,8,0:0:0:0:
256,192,237750,1,0,0:0:0:0:
256,192,238050,1,8,0:0:0:0:
256,192,238200,1,0,0:0:0:0:
256,192,238500,1,8,0:0:0:0:
256,192,238800,1,12,0:0:0:0:
256,192,238950,1,4,0:0:0:0:
256,192,239250,1,12,0:0:0:0:
256,192,239400,1,4,0:0:0:0:
256,192,239700,1,12,0:0:0:0:
256,192,239850,1,0,0:0:0:0:
256,192,239925,1,0,0:0:0:0:
256,192,240000,1,8,0:0:0:0:
256,192,240075,1,8,0:0:0:0:
