osu file format v12

[General]
AudioFilename: mAjorHon - Taoist and gangland.mp3
AudioLeadIn: 2000
PreviewTime: 55329
Countdown: 1
SampleSet: Soft
StackLeniency: 0.7
Mode: 0
LetterboxInBreaks: 1
WidescreenStoryboard: 1

[Editor]
Bookmarks: 28565,68845,82481,109124,149194,176257,229964,243390
DistanceSpacing: 1
BeatDivisor: 4
GridSize: 8

[Metadata]
Title:Taoist and gangland
TitleUnicode:Taoist and gangland
Artist:mAjorHon
ArtistUnicode:mAjorHon
Creator:kamisamaaa
Version:cucumber
Source:dubstep
Tags:
BeatmapID:318756
BeatmapSetID:125192

[Difficulty]
HPDrainRate:5
CircleSize:4
OverallDifficulty:7
ApproachRate:9
SliderMultiplier:2
SliderTickRate:2

[Events]
//Background and Video events
0,0,"BG.jpg",0,0
//Break Periods
2,43870,54818
2,111003,121952
//Storyboard Layer 0 (Background)
//Storyboard Layer 1 (Fail)
//Storyboard Layer 2 (Pass)
//Storyboard Layer 3 (Foreground)
//Storyboard Sound Samples
//Background Colour Transformations
3,100,163,162,255

[TimingPoints]
34,419.58041958042,4,1,1,30,1,0
453,-133.333333333333,4,2,3,30,0,0
7481,-200,4,2,3,30,0,0
14824,-133.333333333333,4,2,3,30,0,0
28565,-100,4,2,3,50,0,0
32341,-166.666666666667,4,2,3,60,0,0
32866,-100,4,2,3,60,0,0
34334,-80,4,2,3,70,0,0
35173,-100,4,2,3,60,0,0
39579,-100,4,2,3,70,0,0
41047,-80,4,1,1,60,0,0
43565,-100,4,2,3,10,0,0
55208,-100,4,1,1,30,0,0
68845,-100,4,1,1,40,0,1
70418,-100,4,1,1,45,0,1
70943,-74.0740740740741,4,1,1,45,0,1
71362,-58.8235294117647,4,1,1,45,0,1
71783,-50,4,1,1,45,0,1
72096,-66.6666666666667,4,1,1,50,0,1
73775,-100,4,1,1,55,0,1
74194,-74.0740740740741,4,1,1,55,0,1
74614,-58.8235294117647,4,1,1,55,0,1
75034,-50,4,1,1,55,0,1
75453,-100,4,1,1,60,0,1
75873,-74.0740740740741,4,1,1,60,0,1
76292,-58.8235294117647,4,1,1,60,0,1
76712,-50,4,1,1,60,0,1
77131,-66.6666666666667,4,1,1,65,0,1
78810,-66.6666666666667,4,1,1,70,0,1
80488,-66.6666666666667,4,1,1,75,0,1
82481,-100,4,1,1,50,0,1
87516,-100,4,1,1,70,0,1
89194,-100,4,1,1,50,0,1
89666,-100,4,1,1,30,0,1
89771,-100,4,1,1,50,0,1
91397,-100,4,1,1,30,0,1
92236,-100,4,1,1,70,0,1
93075,-100,4,1,1,60,0,1
95173,-200,4,1,1,60,0,1
95593,-200,4,1,1,50,0,1
97901,-100,4,1,1,50,0,1
100943,-100,4,1,1,70,0,1
102621,-100,4,1,1,50,0,1
105978,-100,4,1,1,60,0,1
106817,-100,4,1,1,50,0,1
107341,-200,4,1,1,50,0,1
107971,-100,4,1,1,50,0,1
109124,-133.333333333333,4,2,3,30,0,0
126222,-200,4,2,3,30,0,0
126852,-133.333333333333,4,2,3,30,0,0
138810,-200,4,2,3,30,0,0
139439,-133.333333333333,4,2,3,30,0,0
149194,-83.3333333333333,4,1,1,40,0,0
162726,-83.3333333333333,4,1,1,50,0,0
169439,-83.3333333333333,4,1,1,55,0,0
172796,-83.3333333333333,4,1,1,60,0,0
174474,-83.3333333333333,4,1,1,65,0,0
176257,-100,4,1,1,60,0,1
177306,-200,4,1,1,50,0,1
181502,-100,4,1,1,70,0,1
183180,-100,4,1,1,50,0,1
184544,-200,4,1,1,50,0,1
186117,-100,4,1,1,70,0,1
187061,-100,4,1,1,60,0,1
187481,-200,4,1,1,60,0,1
189999,-100,4,1,1,50,0,1
192096,-100,4,1,1,60,0,1
192936,-100,4,1,1,70,0,1
194089,-100,4,1,1,60,0,1
194929,-100,4,1,1,70,0,1
196292,-200,4,1,1,70,0,1
196712,-100,4,1,1,50,0,1
199649,-100,4,1,1,70,0,1
200803,-100,4,1,1,60,0,1
201222,-200,4,1,1,70,0,1
201957,-100,4,1,1,70,0,1
203006,-200,4,1,1,70,0,1
203845,-100,4,1,1,50,0,1
204579,-100,4,1,1,60,0,1
205418,-100,4,1,1,70,0,1
206362,-200,4,1,1,70,0,1
206992,-100,4,1,1,70,0,1
209299,-200,4,1,1,70,0,1
211607,-100,4,1,1,70,0,1
216432,-200,4,1,1,70,0,1
223880,-100,4,1,1,60,0,1
229544,-100,4,3,1,20,0,1
229964,-100,4,1,1,30,0,0
233215,-200,4,1,1,30,0,0
233845,-100,4,1,1,30,0,0
243390,-200,4,2,3,30,0,0

[HitObjects]
88,72,1292,2,0,L|16:16,2,75.0000028610231,0|0|2,0:0|0:0|0:0,0:0:0:0:
296,240,3390,5,0,0:0:0:0:
176,112,4230,1,0,0:0:0:0:
296,240,4649,1,0,0:0:0:0:
192,344,5068,2,0,P|336:320|416:192,1,300.000011444092
424,56,6328,1,0,0:0:0:0:
424,56,6747,1,0,0:0:0:0:
208,200,7586,2,0,L|296:144,1,100
176,56,8426,5,0,0:0:0:0:
96,216,8845,1,0,0:0:0:0:
96,216,9264,2,0,P|144:216|192:192,1,89.9999972534181
280,128,9894,1,0,0:0:0:0:
280,128,10103,1,0,0:0:0:0:
408,80,10523,1,0,0:0:0:0:
392,216,10944,1,0,0:0:0:0:
240,280,11363,1,0,0:0:0:0:
240,280,11572,1,0,0:0:0:0:
240,280,11782,6,0,P|176:344|72:336,1,200
80,192,13040,2,4,L|128:144,2,50,4|0|0,0:0|0:0|0:0,0:0:0:0:
192,96,13880,2,0,P|288:72|384:112,1,200
424,160,15138,5,0,0:0:0:0:
336,296,15558,2,0,L|408:368,1,75.0000028610231
336,296,15978,1,0,0:0:0:0:
160,120,16397,2,0,L|104:56,1,75.0000028610231
160,120,16817,1,0,0:0:0:0:
344,80,17236,5,0,0:0:0:0:
344,80,17656,1,0,0:0:0:0:
296,232,18076,2,0,L|320:160,1,75.0000028610231
256,320,18495,1,0,0:0:0:0:
256,320,18915,5,0,0:0:0:0:
256,320,19334,1,0,0:0:0:0:
64,328,19754,2,0,L|144:328,2,75.0000028610231
272,248,20593,1,0,0:0:0:0:
208,152,20803,1,0,0:0:0:0:
208,288,21013,1,0,0:0:0:0:
240,88,21222,1,0,0:0:0:0:
144,248,21432,1,0,0:0:0:0:
312,88,21642,1,0,0:0:0:0:
296,320,21852,5,2,0:0:0:0:
296,320,22271,1,0,0:0:0:0:
136,216,22691,1,0,0:0:0:0:
48,280,22901,1,0,0:0:0:0:
136,328,23110,1,0,0:0:0:0:
224,280,23320,1,0,0:0:0:0:
136,160,23530,5,0,0:0:0:0:
368,184,23740,1,0,0:0:0:0:
136,216,23950,1,0,0:0:0:0:
168,296,24159,2,0,P|216:328|264:320,1,75.0000028610231
304,272,24579,1,0,0:0:0:0:
328,160,24789,1,0,0:0:0:0:
240,88,24999,1,0,0:0:0:0:
128,264,25208,5,0,0:0:0:0:
128,152,25418,1,0,0:0:0:0:
216,216,25628,2,0,L|304:216,2,75.0000028610231
336,216,26257,1,0,0:0:0:0:
336,296,26467,1,0,0:0:0:0:
408,256,26677,1,0,0:0:0:0:
336,216,26887,5,0,0:0:0:0:
272,336,27096,1,0,0:0:0:0:
400,352,27306,1,0,0:0:0:0:
272,264,27516,5,0,0:0:0:0:
336,368,27726,1,0,0:0:0:0:
408,256,27936,1,0,0:0:0:0:
336,144,28145,1,0,0:0:0:0:
432,64,28355,6,0,L|464:24,2,37.5000014305115
440,160,28775,1,0,0:0:0:0:
440,256,28985,1,0,0:0:0:0:
352,256,29194,1,0,0:0:0:0:
344,160,29404,1,2,0:0:0:0:
184,112,29614,5,0,0:0:0:0:
144,296,29824,1,0,0:0:0:0:
352,256,30034,1,0,0:0:0:0:
256,72,30453,5,0,0:0:0:0:
96,120,30663,1,0,0:0:0:0:
168,64,30873,1,0,0:0:0:0:
96,208,31082,1,0,0:0:0:0:
224,272,31922,5,2,0:0:0:0:
224,272,32551,2,0,L|192:216,1,59.9999981689454,0|0,0:0|0:0,0:0:0:0:
216,64,32971,1,0,0:0:0:0:
344,64,33180,1,0,0:0:0:0:
280,160,33390,1,0,0:0:0:0:
416,160,33600,1,2,0:0:0:0:
360,264,33810,5,0,0:0:0:0:
208,256,34020,1,0,0:0:0:0:
144,152,34229,1,0,0:0:0:0:
360,304,34439,2,0,L|240:352,1,125,0|0,0:0|0:0,0:0:0:0:
80,208,34859,2,0,L|160:312,1,125,0|0,0:0|0:0,0:0:0:0:
136,136,35278,5,2,0:0:0:0:
248,112,35488,1,0,0:0:0:0:
224,216,35698,1,0,0:0:0:0:
272,320,35908,1,0,0:0:0:0:
272,320,36117,2,0,P|328:304|336:264,1,100
352,200,36537,1,0,0:0:0:0:
320,80,36747,1,0,0:0:0:0:
456,120,36957,1,0,0:0:0:0:
352,200,37166,1,0,0:0:0:0:
408,312,37376,5,0,0:0:0:0:
240,256,37586,1,0,0:0:0:0:
352,200,37796,1,0,0:0:0:0:
280,328,38635,5,2,0:0:0:0:
280,328,39264,2,0,L|184:272,1,100,0|8,0:0|0:0,0:0:0:0:
112,192,39684,1,0,0:0:0:0:
336,168,39894,1,0,0:0:0:0:
168,128,40103,1,0,0:0:0:0:
272,240,40313,5,2,0:0:0:0:
256,120,40523,1,0,0:0:0:0:
184,256,40733,1,0,0:0:0:0:
112,192,40943,1,0,0:0:0:0:
224,160,41152,2,8,L|216:32,1,125
408,160,41572,2,8,L|424:296,1,125
256,192,41992,12,2,43670,0:0:0:0:
104,152,55418,6,0,P|64:116|80:64,1,100,2|2,0:0|0:0,0:0:0:0:
320,88,55838,2,0,P|367:110|368:168,1,100,0|0,0:0|0:0,0:0:0:0:
192,80,56257,1,8,0:0:0:0:
112,248,56468,1,0,0:0:0:0:
104,152,56678,1,0,0:0:0:0:
200,296,56888,1,0,0:0:0:0:
400,240,57096,6,0,L|288:240,1,100,2|0,0:0|0:0,0:0:0:0:
288,136,57516,2,0,L|408:136,1,100
288,136,57937,1,8,0:0:0:0:
120,80,58146,1,0,0:0:0:0:
240,40,58356,1,0,0:0:0:0:
176,184,58566,1,0,0:0:0:0:
232,296,58776,5,2,0:0:0:0:
328,320,58986,1,2,0:0:0:0:
360,184,59195,1,0,0:0:0:0:
352,88,59405,1,0,0:0:0:0:
232,296,59614,2,0,L|352:328,1,100,8|0,0:0|0:0,0:0:0:0:
360,184,60034,2,0,L|352:80,1,100
256,208,60454,5,2,0:0:0:0:
152,320,60664,1,0,0:0:0:0:
248,304,60874,1,0,0:0:0:0:
96,248,61083,1,0,0:0:0:0:
168,192,61293,2,0,L|72:136,1,100,8|0,0:0|0:0,0:0:0:0:
288,192,61713,2,0,L|288:312,1,100
168,192,62132,5,2,0:0:0:0:
280,192,62342,1,2,0:0:0:0:
384,192,62552,1,0,0:0:0:0:
480,192,62762,1,0,0:0:0:0:
168,88,62972,2,0,L|288:88,1,100,0|0,0:0|0:0,0:0:0:0:
384,88,63391,1,0,0:0:0:0:
480,88,63601,1,0,0:0:0:0:
384,88,63811,5,2,0:0:0:0:
480,88,64020,1,0,0:0:0:0:
488,192,64230,1,0,0:0:0:0:
384,192,64440,1,0,0:0:0:0:
224,352,64649,2,0,P|256:280|216:248,1,100,8|0,0:0|0:0,0:0:0:0:
192,32,65068,2,0,P|232:80|208:128,1,100
168,192,65489,5,2,0:0:0:0:
368,192,65699,1,2,0:0:0:0:
272,192,65909,1,0,0:0:0:0:
80,192,66117,1,0,0:0:0:0:
168,56,66327,2,0,P|224:56|288:88,1,100,8|0,0:0|0:0,0:0:0:0:
24,272,66747,2,0,P|80:304|128:288,1,100
256,303,67167,5,2,0:0:0:0:
186,216,67377,1,0,0:0:0:0:
116,130,67587,1,0,0:0:0:0:
232,97,67797,1,0,0:0:0:0:
186,216,68006,1,8,0:0:0:0:
116,130,68216,1,0,0:0:0:0:
232,97,68426,2,0,L|335:51,1,100
411,93,68846,5,2,0:0:0:0:
406,129,68951,1,0,0:0:0:0:
401,164,69055,1,0,0:0:0:0:
450,220,69265,5,2,0:0:0:0:
423,254,69370,1,0,0:0:0:0:
389,286,69475,1,0,0:0:0:0:
346,349,69685,5,2,0:0:0:0:
280,346,69790,1,0,0:0:0:0:
214,344,69895,1,0,0:0:0:0:
128,328,70104,5,2,0:0:0:0:
89,258,70209,1,0,0:0:0:0:
51,189,70314,1,0,0:0:0:0:
133,48,70523,5,2,0:0:0:0:
133,48,70628,2,0,L|155:127,1,50
211,66,70943,5,2,0:0:0:0:
211,66,71047,2,0,L|230:161,1,67.5000002574921
288,84,71363,5,2,0:0:0:0:
288,84,71467,2,0,L|314:189,1,85.0000016212464
368,94,71783,5,2,0:0:0:0:
368,94,71887,2,0,L|390:214,1,100
345,357,72202,5,2,0:0:0:0:
314,350,72307,1,0,0:0:0:0:
283,344,72412,1,0,0:0:0:0:
303,282,72621,5,2,0:0:0:0:
256,273,72726,1,0,0:0:0:0:
209,264,72831,1,0,0:0:0:0:
249,182,73040,5,2,0:0:0:0:
186,170,73145,1,0,0:0:0:0:
124,158,73250,1,0,0:0:0:0:
187,80,73460,5,2,0:0:0:0:
117,67,73565,1,0,0:0:0:0:
46,53,73670,1,0,0:0:0:0:
48,184,73881,6,8,L|48:256,2,50
120,224,74299,6,8,L|120:296,2,67.5000002574921
208,248,74719,6,8,L|208:336,2,85.0000016212464
304,264,75138,6,8,L|304:392,2,100
368,240,75559,6,8,L|416:272,2,50
400,176,75979,6,8,L|488:208,2,67.5000002574921
392,112,76398,6,8,L|512:88,2,85.0000016212464
336,64,76818,6,8,L|440:16,2,100
256,72,77237,5,10,0:0:0:0:
224,80,77342,1,8,0:0:0:0:
192,88,77447,1,8,0:0:0:0:
112,72,77657,5,10,0:0:0:0:
104,120,77761,1,8,0:0:0:0:
96,168,77867,1,8,0:0:0:0:
48,232,78076,5,10,0:0:0:0:
104,272,78180,1,8,0:0:0:0:
160,312,78286,1,8,0:0:0:0:
208,384,78496,5,10,0:0:0:0:
280,344,78601,1,8,0:0:0:0:
352,296,78706,1,8,0:0:0:0:
184,216,78916,5,2,0:0:0:0:
120,312,79125,1,2,0:0:0:0:
48,200,79335,1,2,0:0:0:0:
224,48,79545,1,2,0:0:0:0:
400,40,79755,1,2,0:0:0:0:
320,160,79965,1,2,0:0:0:0:
384,280,80173,2,8,L|256:368,1,150.000005722046
180,337,80594,5,2,0:0:0:0:
170,311,80699,1,2,0:0:0:0:
165,284,80804,1,2,0:0:0:0:
161,257,80908,1,2,0:0:0:0:
163,229,81013,5,2,0:0:0:0:
165,202,81117,1,2,0:0:0:0:
169,175,81222,1,2,0:0:0:0:
174,148,81327,1,2,0:0:0:0:
189,123,81432,5,10,0:0:0:0:
213,109,81538,1,10,0:0:0:0:
236,95,81642,1,10,0:0:0:0:
263,87,81748,1,10,0:0:0:0:
290,84,81853,5,10,0:0:0:0:
317,84,81957,1,10,0:0:0:0:
344,89,82062,1,10,0:0:0:0:
364,109,82166,1,10,0:0:0:0:
256,192,82271,12,0,83109,0:0:0:0:
152,144,83531,5,0,0:0:0:0:
152,144,83951,1,2,0:0:0:0:
152,144,84370,1,0,0:0:0:0:
224,336,84789,5,8,0:0:0:0:
336,312,84929,1,0,0:0:0:0:
264,256,85068,1,0,0:0:0:0:
240,160,85208,1,0,0:0:0:0:
280,72,85348,1,0,0:0:0:0:
208,32,85488,1,0,0:0:0:0:
144,80,85628,5,2,0:0:0:0:
144,80,86048,1,0,0:0:0:0:
400,96,86468,1,8,0:0:0:0:
352,280,86888,2,0,P|248:312|176:248,1,200,0|2,0:0|0:0,0:0:0:0:
221,77,87726,5,0,0:0:0:0:
256,112,87831,1,0,0:0:0:0:
291,146,87936,1,0,0:0:0:0:
328,178,88040,1,0,0:0:0:0:
365,210,88145,1,8,0:0:0:0:
225,233,88566,5,0,0:0:0:0:
267,259,88671,1,0,0:0:0:0:
309,284,88776,1,0,0:0:0:0:
353,306,88880,1,0,0:0:0:0:
397,329,88985,1,2,0:0:0:0:
352,300,89404,5,0,0:0:0:0:
392,128,89719,1,0,0:0:0:0:
392,128,89825,1,8,0:0:0:0:
200,72,90243,1,0,0:0:0:0:
120,200,90664,2,0,P|88:296|176:312,1,200,2|0,0:0|0:0,0:0:0:0:
120,200,91292,1,0,0:0:0:0:
272,264,91502,6,0,L|320:288,1,50,8|0,0:0|0:0,0:0:0:0:
304,184,91712,2,0,L|360:184,1,50
296,104,91922,2,0,L|344:88,1,50
224,56,92131,1,0,0:0:0:0:
216,152,92342,5,2,0:0:0:0:
216,256,92762,1,0,0:0:0:0:
216,256,92972,1,0,0:0:0:0:
320,328,93180,5,8,0:0:0:0:
432,288,93320,1,0,0:0:0:0:
352,224,93460,1,0,0:0:0:0:
448,144,93601,5,0,0:0:0:0:
408,120,93706,1,0,0:0:0:0:
368,96,93811,1,0,0:0:0:0:
328,72,93916,1,0,0:0:0:0:
288,48,94020,6,0,L|192:48,1,66.6666666666667,2|0,0:0|0:0,0:0:0:0:
144,112,94299,1,0,0:0:0:0:
40,48,94439,2,0,L|40:120,1,66.6666666666667
48,216,94719,1,0,0:0:0:0:
192,336,94859,2,0,L|136:288,1,66.6666666666667,8|0,0:0|0:0,0:0:0:0:
224,200,95138,1,0,0:0:0:0:
168,80,95278,6,0,P|232:64|280:80,1,100,0|2,0:0|0:0,0:0:0:0:
376,136,96117,2,0,P|408:176|392:240,2,100,0|8|0,0:0|0:0|0:0,0:0:0:0:
152,200,97376,6,0,P|192:248|240:264,1,100,2|0,0:0|0:0,0:0:0:0:
352,200,98006,1,0,0:0:0:0:
208,144,98215,2,0,L|208:72,1,66.6666666666667
304,40,98495,1,0,0:0:0:0:
392,136,98635,2,0,L|392:208,1,66.6666666666667,8|0,0:0|0:0,0:0:0:0:
304,256,98915,1,0,0:0:0:0:
160,304,99054,5,2,0:0:0:0:
160,304,99474,2,0,L|112:96,2,200,0|8|0,0:0|0:0|0:0,0:0:0:0:
448,144,100734,1,2,0:0:0:0:
445,146,101152,5,0,0:0:0:0:
401,120,101258,1,0,0:0:0:0:
357,96,101362,1,0,0:0:0:0:
313,71,101467,1,0,0:0:0:0:
270,44,101572,1,8,0:0:0:0:
302,183,101992,5,0,0:0:0:0:
252,174,102098,1,0,0:0:0:0:
202,166,102202,1,0,0:0:0:0:
153,154,102307,1,0,0:0:0:0:
103,147,102412,1,2,0:0:0:0:
104,144,102832,5,0,0:0:0:0:
264,48,103251,2,0,P|352:40|400:136,1,200,8|0,0:0|0:0,0:0:0:0:
336,296,104090,1,2,0:0:0:0:
128,232,104510,1,0,0:0:0:0:
128,232,104719,1,0,0:0:0:0:
48,64,104929,2,0,P|248:32|368:168,1,400,8|2,0:0|0:0,0:0:0:0:
168,136,106187,6,0,L|104:168,1,50
208,272,106397,2,0,L|200:328,1,50
80,288,106607,1,8,0:0:0:0:
80,288,107027,1,0,0:0:0:0:
64,64,107446,2,0,P|112:80|136:136,1,100,2|0,0:0|0:0,0:0:0:0:
256,192,108285,12,0,110803,0:0:0:0:
80,144,122552,6,0,L|104:224,1,75.0000028610231
240,80,122971,2,0,L|288:16,1,75.0000028610231
80,144,123390,1,0,0:0:0:0:
360,144,123810,5,0,0:0:0:0:
248,72,124019,1,0,0:0:0:0:
248,192,124229,1,0,0:0:0:0:
248,296,124439,1,0,0:0:0:0:
144,144,124650,1,0,0:0:0:0:
248,296,124859,1,0,0:0:0:0:
144,144,125069,1,0,0:0:0:0:
376,176,125488,5,0,0:0:0:0:
320,80,125699,1,0,0:0:0:0:
208,96,125908,1,2,0:0:0:0:
96,224,126327,2,0,P|104:280|136:304,1,100
336,272,127166,2,0,L|392:216,1,75.0000028610231
272,40,127586,2,0,L|216:104,1,75.0000028610231
56,144,128006,6,0,L|64:40,1,75.0000028610231
128,224,128425,1,0,0:0:0:0:
216,288,128635,1,0,0:0:0:0:
384,256,128846,2,0,L|304:288,1,75.0000028610231
384,256,129265,5,0,0:0:0:0:
400,152,129474,1,0,0:0:0:0:
288,184,129685,1,0,0:0:0:0:
384,256,129894,1,0,0:0:0:0:
272,344,130103,2,0,L|336:296,1,75.0000028610231
144,168,130524,5,0,0:0:0:0:
160,288,130734,1,0,0:0:0:0:
256,112,130943,1,0,0:0:0:0:
280,232,131152,1,0,0:0:0:0:
424,304,131362,2,0,L|352:280,1,75.0000028610231
280,328,131783,5,0,0:0:0:0:
424,256,131992,1,0,0:0:0:0:
376,336,132202,1,0,0:0:0:0:
384,168,132412,1,0,0:0:0:0:
304,232,132621,2,0,P|240:128|320:64,1,225.000008583069
296,72,133461,1,0,0:0:0:0:
120,128,133670,1,0,0:0:0:0:
296,144,133879,5,0,0:0:0:0:
168,192,134089,1,0,0:0:0:0:
296,232,134299,1,0,0:0:0:0:
208,264,134509,1,0,0:0:0:0:
256,312,134720,1,0,0:0:0:0:
256,312,134929,1,0,0:0:0:0:
384,208,135139,6,0,L|320:264,1,75.0000028610231
96,144,135558,2,0,L|160:96,1,75.0000028610231
272,152,135978,1,4,0:0:0:0:
356,91,136188,1,0,0:0:0:0:
246,219,136397,1,0,0:0:0:0:
265,63,136607,5,0,0:0:0:0:
191,137,136817,1,0,0:0:0:0:
338,182,137026,1,0,0:0:0:0:
392,328,137236,2,0,L|392:248,1,75.0000028610231
296,184,137657,5,4,0:0:0:0:
208,280,137866,1,0,0:0:0:0:
336,304,138075,1,0,0:0:0:0:
368,232,138285,5,0,0:0:0:0:
320,88,138496,1,0,0:0:0:0:
208,200,138706,1,0,0:0:0:0:
64,168,138915,2,0,L|64:280,1,100
368,272,139754,1,0,0:0:0:0:
432,80,140173,1,0,0:0:0:0:
272,48,140594,6,0,L|312:128,1,75.0000028610231
144,320,141013,2,0,L|104:248,1,75.0000028610231
305,115,141432,6,0,L|272:48,1,75.0000028610231
107,254,141852,2,0,L|144:320,1,75.0000028610231
368,184,142272,2,0,L|288:184,1,75.0000028610231
160,264,142691,2,2,P|192:328|264:336,1,150.000005722046
408,248,143530,6,0,L|328:248,1,75.0000028610231
112,184,143950,2,0,L|204:187,1,75.0000028610231
256,80,144369,2,0,L|256:0,1,75.0000028610231
456,72,144789,2,0,L|400:128,1,75.0000028610231
256,224,145208,6,0,L|208:160,4,75.0000028610231
256,192,146257,12,2,148565,0:0:0:0:
144,72,149404,6,0,L|272:128,1,119.999996337891,2|2,0:0|0:0,0:0:0:0:
296,312,149824,1,0,0:0:0:0:
320,152,150034,1,0,0:0:0:0:
208,304,150243,1,8,0:0:0:0:
344,232,150453,1,0,0:0:0:0:
248,224,150663,2,0,L|136:176,1,119.999996337891
240,120,151082,5,2,0:0:0:0:
392,64,151292,1,0,0:0:0:0:
304,56,151502,1,0,0:0:0:0:
432,144,151712,1,0,0:0:0:0:
400,232,151922,1,8,0:0:0:0:
120,160,152761,6,0,L|216:88,1,119.999996337891,2|2,0:0|0:0,0:0:0:0:
304,304,153390,2,0,L|400:224,1,119.999996337891,2|10,0:0|0:0,0:0:0:0:
440,96,153810,6,0,P|408:48|312:64,1,119.999996337891
336,160,154229,1,0,0:0:0:0:
248,280,154439,1,2,0:0:0:0:
336,160,154649,1,0,0:0:0:0:
248,280,154859,1,0,0:0:0:0:
248,280,154964,1,0,0:0:0:0:
248,280,155068,1,0,0:0:0:0:
48,200,155278,6,0,L|168:264,1,119.999996337891,8|0,0:0|0:0,0:0:0:0:
336,160,155698,1,0,0:0:0:0:
248,280,155908,1,0,0:0:0:0:
144,72,156117,6,0,L|24:72,1,119.999996337891,2|2,0:0|0:0,0:0:0:0:
96,248,156537,2,0,L|216:248,1,119.999996337891
208,248,156957,1,8,0:0:0:0:
304,160,157166,1,0,0:0:0:0:
352,280,157376,1,0,0:0:0:0:
208,248,157586,1,0,0:0:0:0:
104,80,157796,6,0,P|168:32|232:56,1,119.999996337891,2|0,0:0|0:0,0:0:0:0:
360,104,158215,1,0,0:0:0:0:
288,232,158425,1,0,0:0:0:0:
376,312,158635,2,0,L|280:224,2,119.999996337891,8|0|0,0:0|0:0|0:0,0:0:0:0:
192,80,159474,6,0,L|344:128,1,119.999996337891,2|2,0:0|0:0,0:0:0:0:
216,320,160103,2,0,L|264:200,1,119.999996337891,2|10,0:0|0:0,0:0:0:0:
264,208,160523,5,0,0:0:0:0:
144,320,160733,1,0,0:0:0:0:
272,360,160943,1,0,0:0:0:0:
312,264,161152,5,2,0:0:0:0:
184,224,161362,1,0,0:0:0:0:
88,56,161572,2,0,L|136:176,1,119.999996337891
136,56,161992,1,8,0:0:0:0:
128,168,162201,1,0,0:0:0:0:
184,304,162411,2,0,L|248:200,1,119.999996337891
312,120,162831,1,6,0:0:0:0:
384,128,163040,5,0,0:0:0:0:
344,64,163250,1,0,0:0:0:0:
312,120,163460,1,0,0:0:0:0:
456,128,163670,5,10,0:0:0:0:
392,16,163880,1,0,0:0:0:0:
312,120,164089,1,0,0:0:0:0:
224,224,164299,1,0,0:0:0:0:
128,328,164509,5,2,0:0:0:0:
32,240,164719,1,0,0:0:0:0:
128,144,164929,1,0,0:0:0:0:
224,224,165138,1,0,0:0:0:0:
312,288,165348,6,0,L|408:216,2,119.999996337891,10|0|2,0:0|0:0|0:0,0:0:0:0:
72,184,166187,1,2,0:0:0:0:
240,72,166607,1,2,0:0:0:0:
224,248,167027,6,0,L|328:336,1,119.999996337891
320,328,167446,1,0,0:0:0:0:
440,320,167656,1,2,0:0:0:0:
432,200,167866,1,2,0:0:0:0:
312,192,168075,1,0,0:0:0:0:
224,112,168285,1,2,0:0:0:0:
224,112,168495,1,0,0:0:0:0:
224,112,168705,5,8,0:0:0:0:
208,32,168915,1,0,0:0:0:0:
144,88,169124,1,2,0:0:0:0:
224,112,169334,1,2,0:0:0:0:
320,192,169544,2,8,P|360:256|344:328,1,119.999996337891,10|8,0:0|0:0,0:0:0:0:
128,160,169964,2,8,P|106:213|140:260,1,119.999996337891
304,352,170383,5,10,0:0:0:0:
336,192,170593,1,0,0:0:0:0:
400,288,170803,1,8,0:0:0:0:
240,256,171013,1,0,0:0:0:0:
144,96,171222,6,8,P|120:152|176:224,1,119.999996337891,10|8,0:0|0:0,0:0:0:0:
296,144,171642,2,8,P|352:192|344:264,1,119.999996337891
224,328,172061,5,10,0:0:0:0:
224,328,172271,1,0,0:0:0:0:
56,264,172481,1,8,0:0:0:0:
120,208,172691,1,0,0:0:0:0:
48,176,172901,5,8,0:0:0:0:
112,120,173110,1,8,0:0:0:0:
256,48,173320,1,8,0:0:0:0:
392,144,173530,1,8,0:0:0:0:
376,296,173740,1,8,0:0:0:0:
376,376,173950,1,8,0:0:0:0:
448,336,174159,1,8,0:0:0:0:
440,256,174369,1,8,0:0:0:0:
368,296,174579,5,8,0:0:0:0:
345,279,174684,1,8,0:0:0:0:
322,261,174789,1,8,0:0:0:0:
299,244,174894,1,8,0:0:0:0:
275,228,174999,5,8,0:0:0:0:
251,212,175103,1,8,0:0:0:0:
227,196,175208,1,8,0:0:0:0:
207,175,175313,1,8,0:0:0:0:
185,157,175418,5,10,0:0:0:0:
170,132,175523,1,10,0:0:0:0:
170,103,175628,1,10,0:0:0:0:
186,80,175733,1,10,0:0:0:0:
211,68,175838,5,10,0:0:0:0:
239,68,175943,1,10,0:0:0:0:
266,71,176047,1,10,0:0:0:0:
291,83,176152,1,10,0:0:0:0:
314,96,176257,5,10,0:0:0:0:
144,320,176677,6,0,L|336:256,1,200,0|8,0:0|0:0,0:0:0:0:
336,256,177516,1,0,0:0:0:0:
128,40,177936,2,0,L|240:80,1,100,2|0,0:0|0:0,0:0:0:0:
361,174,178775,1,8,0:0:0:0:
235,278,178915,1,0,0:0:0:0:
276,145,179054,1,0,0:0:0:0:
316,305,179194,5,0,0:0:0:0:
215,198,179334,1,0,0:0:0:0:
380,251,179474,1,0,0:0:0:0:
235,278,179614,1,2,0:0:0:0:
232,280,180034,5,0,0:0:0:0:
232,280,180453,2,0,P|160:200|192:104,1,200,8|2,0:0|0:0,0:0:0:0:
349,38,181712,1,0,0:0:0:0:
371,82,181817,1,0,0:0:0:0:
396,125,181922,1,0,0:0:0:0:
418,169,182027,1,0,0:0:0:0:
439,213,182131,1,8,0:0:0:0:
292,144,182551,5,0,0:0:0:0:
281,192,182656,1,0,0:0:0:0:
267,240,182761,1,0,0:0:0:0:
255,288,182866,1,0,0:0:0:0:
247,337,182971,2,0,P|327:393|399:329,1,200,2|0,0:0|0:0,0:0:0:0:
336,152,183810,5,8,0:0:0:0:
336,152,184229,1,8,0:0:0:0:
144,224,184649,2,0,L|248:272,1,100,2|0,0:0|0:0,0:0:0:0:
392,224,185278,1,0,0:0:0:0:
344,80,185488,1,8,0:0:0:0:
160,80,186327,5,2,0:0:0:0:
160,256,186747,1,2,0:0:0:0:
160,256,186957,1,2,0:0:0:0:
280,184,187166,5,8,0:0:0:0:
296,288,187306,1,0,0:0:0:0:
392,224,187446,1,0,0:0:0:0:
280,184,187586,6,0,L|256:144,1,33.3333333333333
168,144,187796,2,0,L|128:144,1,33.3333333333333
80,56,188006,2,0,P|152:40|208:40,1,100,2|0,0:0|0:0,0:0:0:0:
400,32,188845,5,8,0:0:0:0:
416,144,188985,1,0,0:0:0:0:
328,96,189124,1,0,0:0:0:0:
216,104,189264,6,0,L|200:64,1,33.3333333333333,0|0,0:0|0:0,0:0:0:0:
160,176,189474,2,0,L|184:224,1,33.3333333333333
64,184,189684,2,0,P|32:216|48:280,1,100,2|0,0:0|0:0,0:0:0:0:
256,264,190523,1,8,0:0:0:0:
176,72,191362,6,0,L|104:152,1,100,2|0,0:0|0:0,0:0:0:0:
288,152,191782,2,0,L|360:232,1,100
264,312,192201,1,8,0:0:0:0:
264,312,192341,2,0,L|184:312,1,66.6666666666667
80,208,192621,5,0,0:0:0:0:
80,208,192761,2,0,L|112:288,1,66.6666666666667
192,112,193040,2,0,P|296:160|320:256,2,200,2|0|8,0:0|0:0|0:0,0:0:0:0:
144,256,194299,2,0,P|168:336|272:336,1,200,0|2,0:0|0:0,0:0:0:0:
336,296,195138,5,0,0:0:0:0:
352,248,195243,1,0,0:0:0:0:
370,201,195348,1,0,0:0:0:0:
387,154,195453,1,0,0:0:0:0:
405,107,195558,1,8,0:0:0:0:
224,40,195978,5,0,0:0:0:0:
191,77,196082,1,0,0:0:0:0:
161,117,196187,1,0,0:0:0:0:
136,160,196292,1,0,0:0:0:0:
112,208,196397,2,0,P|128:264|190:274,1,100,2|0,0:0|0:0,0:0:0:0:
392,208,197236,6,0,P|448:152|392:64,1,200,8|0,0:0|0:0,0:0:0:0:
176,80,198075,1,2,0:0:0:0:
72,264,198495,1,0,0:0:0:0:
328,320,198915,2,0,L|400:360,6,50,8|0|0|0|0|0|0,0:0|0:0|0:0|0:0|0:0|0:0|0:0,0:0:0:0:
320,136,199754,5,2,0:0:0:0:
192,112,200173,2,0,L|176:64,1,50
144,224,200383,2,0,L|96:240,1,50
232,312,200593,1,8,0:0:0:0:
232,312,201013,1,0,0:0:0:0:
368,240,201432,6,0,L|400:128,1,100,2|0,0:0|0:0,0:0:0:0:
208,128,202271,2,0,L|184:192,3,50,8|0|0|0,0:0|0:0|0:0|0:0,0:0:0:0:
176,264,202796,2,0,P|176:312|216:328,1,50
280,296,203110,2,0,B|392:280|240:184|376:136,1,200,2|8,0:0|0:0,0:0:0:0:
128,88,204369,5,0,0:0:0:0:
136,336,204789,1,2,0:0:0:0:
400,296,205208,1,0,0:0:0:0:
360,160,205628,2,0,L|368:80,1,66.6666666666667,8|0,0:0|0:0,0:0:0:0:
264,200,205908,1,0,0:0:0:0:
184,144,206047,1,0,0:0:0:0:
96,200,206187,2,0,L|88:272,1,66.6666666666667
16,136,206467,2,0,L|64:16,1,100,2|0,0:0|0:0,0:0:0:0:
360,80,207306,1,8,0:0:0:0:
360,272,207726,2,0,P|288:328|184:288,1,200,0|2,0:0|0:0,0:0:0:0:
80,192,208565,5,0,0:0:0:0:
112,152,208670,1,0,0:0:0:0:
144,112,208775,1,0,0:0:0:0:
176,72,208880,1,0,0:0:0:0:
208,32,208985,1,8,0:0:0:0:
264,152,209404,6,0,L|224:136,1,25
256,272,209614,2,0,L|280:304,1,25
152,328,209824,2,0,P|96:320|64:272,1,100,2|0,0:0|0:0,0:0:0:0:
344,320,210663,1,8,0:0:0:0:
112,256,211082,2,0,L|224:304,1,100,0|2,0:0|0:0,0:0:0:0:
144,88,211922,1,0,0:0:0:0:
272,128,212341,6,0,L|240:168,6,50,8|0|0|0|0|0|0,0:0|0:0|0:0|0:0|0:0|0:0|0:0,0:0:0:0:
224,232,213180,5,2,0:0:0:0:
368,200,213600,1,2,0:0:0:0:
368,200,213810,1,2,0:0:0:0:
288,56,214020,5,8,0:0:0:0:
440,56,214159,1,0,0:0:0:0:
288,56,214299,1,0,0:0:0:0:
344,144,214439,2,0,L|392:192,1,50
256,176,214649,2,0,L|232:224,1,50
216,96,214859,6,0,L|16:104,2,200,2|0|8,0:0|0:0|0:0,0:0:0:0:
272,136,215803,1,0,0:0:0:0:
328,168,215908,1,0,0:0:0:0:
376,200,216013,1,0,0:0:0:0:
320,272,216117,6,0,L|352:336,2,50
240,208,216537,2,0,L|240:328,1,100,2|0,0:0|0:0,0:0:0:0:
368,296,217376,1,8,0:0:0:0:
336,104,217796,1,0,0:0:0:0:
240,40,218006,1,0,0:0:0:0:
144,96,218215,1,2,0:0:0:0:
312,184,219054,5,8,0:0:0:0:
352,256,219194,1,0,0:0:0:0:
392,192,219333,1,0,0:0:0:0:
312,184,219473,5,0,0:0:0:0:
312,312,219613,1,0,0:0:0:0:
424,272,219753,1,0,0:0:0:0:
352,256,219894,2,0,B|232:232|384:152|256:96,1,200,2|8,0:0|0:0,0:0:0:0:
144,184,221572,6,0,P|144:240|184:288,1,100,2|0,0:0|0:0,0:0:0:0:
253,238,222096,2,0,L|264:200,1,25
346,171,222306,2,0,L|376:192,1,25,0|8,0:0|0:0,0:0:0:0:
304,72,222831,5,0,0:0:0:0:
255,91,222936,1,0,0:0:0:0:
208,112,223040,1,0,0:0:0:0:
165,132,223145,1,0,0:0:0:0:
120,160,223250,2,0,L|71:267,1,100,2|0,0:0|0:0,0:0:0:0:
336,272,224089,5,8,0:0:0:0:
336,272,224509,1,0,0:0:0:0:
408,72,224929,5,2,0:0:0:0:
408,72,225348,1,0,0:0:0:0:
184,88,225768,5,8,0:0:0:0:
184,88,226187,1,0,0:0:0:0:
104,248,226607,6,0,L|200:256,1,50,2|0,0:0|0:0,0:0:0:0:
272,200,226817,2,0,L|248:256,1,50
357,346,227236,2,0,L|384:280,1,50
328,224,227446,1,8,0:0:0:0:
208,168,227586,2,0,L|136:132,1,50
288,264,227866,1,0,0:0:0:0:
192,296,228006,2,0,L|136:347,1,66.6666666666667
96,296,228285,6,0,L|216:120,2,200,2|0|8,0:0|0:0|0:0,0:0:0:0:
256,336,229404,1,0,0:0:0:0:
368,208,229684,2,0,L|368:136,1,66.6666666666667
188,225,229964,6,0,L|184:120,1,100,2|2,0:0|0:0,0:0:0:0:
344,48,230383,2,0,L|349:160,1,100
189,29,230803,1,8,0:0:0:0:
76,79,231013,1,8,0:0:0:0:
163,163,231222,6,0,L|272:160,1,100
69,220,231642,2,0,L|80:320,1,100,2|0,0:0|0:0,0:0:0:0:
164,163,232061,1,0,0:0:0:0:
261,224,232271,1,0,0:0:0:0:
354,161,232481,2,0,L|344:56,1,100,8|0,0:0|0:0,0:0:0:0:
353,162,232901,1,0,0:0:0:0:
112,248,233320,6,0,P|112:312|152:336,1,100,2|0,0:0|0:0,0:0:0:0:
320,240,233950,1,0,0:0:0:0:
320,240,234159,2,0,L|152:120,1,200,8|0,0:0|0:0,0:0:0:0:
160,128,234789,1,0,0:0:0:0:
208,32,234999,1,2,0:0:0:0:
280,112,235208,1,0,0:0:0:0:
232,168,235418,5,0,0:0:0:0:
264,40,235628,1,0,0:0:0:0:
344,152,235838,1,8,0:0:0:0:
232,168,236047,5,0,0:0:0:0:
112,168,236257,1,0,0:0:0:0:
280,248,236467,2,0,L|280:352,1,100,0|2,0:0|0:0,0:0:0:0:
160,288,236887,5,0,0:0:0:0:
160,288,237096,2,0,L|96:208,1,100
120,112,237516,1,8,0:0:0:0:
16,176,237726,1,0,0:0:0:0:
112,232,237936,1,0,0:0:0:0:
240,224,238145,1,0,0:0:0:0:
312,80,238355,6,0,L|208:80,1,100,2|0,0:0|0:0,0:0:0:0:
360,224,238775,2,0,L|464:224,1,100
208,328,239194,2,0,P|96:280|104:208,2,200,8|0|2,0:0|0:0|0:0,0:0:0:0:
296,56,240663,6,0,L|192:56,1,100,0|8,0:0|0:0,0:0:0:0:
104,168,241082,1,0,0:0:0:0:
296,240,241292,1,0,0:0:0:0:
184,256,241502,1,0,0:0:0:0:
192,112,241712,6,0,L|120:40,1,100,2|0,0:0|0:0,0:0:0:0:
312,64,242131,1,0,0:0:0:0:
384,160,242341,1,0,0:0:0:0:
320,304,242551,2,0,L|368:216,1,100,8|0,0:0|0:0,0:0:0:0:
248,104,242971,2,0,L|200:192,1,100,2|6,0:0|0:0,0:0:0:0:
200,192,243390,5,0,0:0:0:0:
240,296,243600,1,0,0:0:0:0:
360,160,243810,1,0,0:0:0:0:
320,56,244020,1,0,0:0:0:0:
120,64,244229,2,0,L|192:64,1,50,0|0,0:0|0:0,0:0:0:0:
104,176,244649,2,0,L|104:240,1,50
216,168,245068,5,0,0:0:0:0:
408,144,245278,1,0,0:0:0:0:
304,112,245488,1,0,0:0:0:0:
456,232,245698,1,0,0:0:0:0:
344,336,245908,2,0,L|320:224,1,100,2|0,0:0|0:0,0:0:0:0:
272,56,246747,1,0,0:0:0:0:
32,120,247166,1,0,0:0:0:0:
88,288,247586,1,0,0:0:0:0:
248,336,248006,6,0,L|288:288,1,50
368,136,248425,2,0,L|312:96,1,50
152,160,248845,2,0,L|152:224,1,50
264,104,249264,5,0,0:0:0:0:
56,80,249474,1,0,0:0:0:0:
168,40,249684,1,0,0:0:0:0:
56,208,249894,1,0,0:0:0:0:
256,312,250103,6,4,L|200:336|200:336,1,50,4|0,0:0|0:0,0:0:0:0:
256,72,250523,2,0,L|312:48|312:48,1,50
416,192,250943,1,0,0:0:0:0:
256,192,251152,1,0,0:0:0:0:
88,192,251362,1,0,0:0:0:0:
184,88,251572,5,0,0:0:0:0:
312,88,251782,1,0,0:0:0:0:
256,192,251992,1,0,0:0:0:0:
192,296,252201,1,0,0:0:0:0:
328,304,252411,1,0,0:0:0:0:
192,296,252621,5,0,0:0:0:0:
328,304,252831,1,0,0:0:0:0:
392,192,253040,1,0,0:0:0:0:
312,88,253250,1,0,0:0:0:0:
192,88,253460,1,2,0:0:0:0:
256,192,253670,12,0,256607,0:0:0:0:
