osu file format v12

[General]
AudioFilename: mAjorHon - Taoist and gangland.mp3
AudioLeadIn: 2000
PreviewTime: 55329
Countdown: 1
SampleSet: Normal
StackLeniency: 0.7
Mode: 0
LetterboxInBreaks: 1
WidescreenStoryboard: 1

[Editor]
DistanceSpacing: 1
BeatDivisor: 4
GridSize: 8

[Metadata]
Title:Taoist and gangland
TitleUnicode:Taoist and gangland
Artist:mAjorHon
ArtistUnicode:mAjorHon
Creator:kamisamaaa
Version:Normal
Source:
Tags:
BeatmapID:319340
BeatmapSetID:125192

[Difficulty]
HPDrainRate:3
CircleSize:3
OverallDifficulty:2
ApproachRate:4
SliderMultiplier:1
SliderTickRate:1

[Events]
//Background and Video events
0,0,"BG.jpg",0,0
//Break Periods
2,43870,54098
2,134499,148084
//Storyboard Layer 0 (Background)
//Storyboard Layer 1 (Fail)
//Storyboard Layer 2 (Pass)
//Storyboard Layer 3 (Foreground)
//Storyboard Sound Samples
//Background Colour Transformations
3,100,163,162,255

[TimingPoints]
34,419.58041958042,4,1,1,30,1,0
453,-133.333333333333,4,2,3,30,0,0
9159,-166.666666666667,4,2,3,30,0,0
9789,-133.333333333333,4,2,3,30,0,0
13775,-200,4,2,3,30,0,0
14824,-133.333333333333,4,2,3,30,0,0
28565,-100,4,2,3,50,0,0
32341,-100,4,2,3,60,0,0
34334,-80,4,2,3,70,0,0
35173,-100,4,2,3,60,0,0
39579,-100,4,2,3,70,0,0
41047,-80,4,1,1,60,0,0
43565,-100,4,2,3,10,0,0
55208,-66.6666666666667,4,1,1,30,0,0
68845,-66.6666666666667,4,1,1,40,0,1
70418,-66.6666666666667,4,1,1,45,0,1
72096,-66.6666666666667,4,1,1,50,0,1
73775,-66.6666666666667,4,1,1,55,0,1
75453,-66.6666666666667,4,1,1,60,0,1
77131,-66.6666666666667,4,1,1,65,0,1
78810,-66.6666666666667,4,1,1,70,0,1
80488,-66.6666666666667,4,1,1,75,0,1
82481,-100,4,1,1,50,0,1
87516,-100,4,1,1,70,0,1
89194,-100,4,1,1,50,0,1
91397,-100,4,1,1,30,0,1
92236,-100,4,1,1,70,0,1
93075,-100,4,1,1,60,0,1
95593,-100,4,1,1,50,0,1
97271,-166.666666666667,4,1,1,50,0,1
98215,-100,4,1,1,50,0,1
100943,-100,4,1,1,70,0,1
102621,-100,4,1,1,50,0,1
105978,-100,4,1,1,60,0,1
106817,-100,4,1,1,50,0,1
107341,-133.333333333333,4,1,1,50,0,1
107971,-100,4,1,1,50,0,1
109124,-133.333333333333,4,2,3,30,0,0
126222,-200,4,2,3,30,0,0
126852,-133.333333333333,4,2,3,30,0,0
149194,-66.6666666666667,4,1,1,40,0,0
162726,-66.6666666666667,4,1,1,50,0,0
169439,-66.6666666666667,4,1,1,55,0,0
172796,-66.6666666666667,4,1,1,60,0,0
174474,-66.6666666666667,4,1,1,65,0,0
176257,-100,4,1,1,60,0,1
177306,-133.333333333333,4,1,1,50,0,1
181502,-100,4,1,1,70,0,1
183180,-100,4,1,1,50,0,1
184544,-133.333333333333,4,1,1,50,0,1
186117,-100,4,1,1,70,0,1
187061,-100,4,1,1,60,0,1
187481,-133.333333333333,4,1,1,60,0,1
189999,-100,4,1,1,50,0,1
192096,-100,4,1,1,60,0,1
192936,-100,4,1,1,70,0,1
194089,-100,4,1,1,60,0,1
194929,-100,4,1,1,70,0,1
196292,-133.333333333333,4,1,1,70,0,1
196712,-100,4,1,1,50,0,1
199649,-100,4,1,1,70,0,1
200803,-100,4,1,1,60,0,1
201222,-133.333333333333,4,1,1,70,0,1
201957,-100,4,1,1,70,0,1
203006,-133.333333333333,4,1,1,70,0,1
203845,-100,4,1,1,50,0,1
204579,-100,4,1,1,60,0,1
205418,-100,4,1,1,70,0,1
206362,-133.333333333333,4,1,1,70,0,1
206992,-100,4,1,1,70,0,1
209299,-133.333333333333,4,1,1,70,0,1
211607,-100,4,1,1,70,0,1
216432,-133.333333333333,4,1,1,70,0,1
223880,-100,4,1,1,60,0,1
229964,-100,4,1,1,30,0,0
243390,-133.333333333333,4,2,3,30,0,0

[HitObjects]
160,96,1712,1,2,0:0:0:0:
352,176,3390,1,0,0:0:0:0:
232,272,4229,2,0,P|248:296|296:304,1,75.0000028610231
368,312,5068,1,2,0:0:0:0:
424,168,5908,2,0,P|440:144|440:88,1,75.000002861023
376,72,6747,1,0,0:0:0:0:
224,64,7586,2,0,L|144:64,1,75.000002861023
112,128,8425,5,0,0:0:0:0:
96,200,8845,1,0,0:0:0:0:
120,272,9264,2,0,P|144:296|168:312,1,59.9999981689454
256,320,10103,1,0,0:0:0:0:
328,336,10523,1,0,0:0:0:0:
400,320,10943,2,0,P|432:312|456:280,1,75.000002861023
416,200,11782,2,0,P|456:120|424:56,2,150.000005722046
368,272,13880,2,0,P|328:288|264:296,1,100
160,272,15138,5,0,0:0:0:0:
96,240,15558,2,0,P|56:232|64:200,2,75.000002861023
168,232,16817,2,0,P|200:216|200:168,2,75.0000028610231
112,176,18075,2,0,P|88:160|88:112,2,75.0000028610231
184,152,19334,2,0,B|200:128|232:120|256:144,2,75.0000028610231
184,256,20593,2,0,P|304:296|400:248,1,225.000008583069
400,184,22271,5,0,0:0:0:0:
384,112,22691,2,0,L|304:80,1,75.0000028610231
248,40,23530,2,0,P|160:72|136:128,1,150.000005722046
136,192,24789,2,0,P|128:224|144:272,3,75.0000028610231
208,280,26467,2,0,P|288:288|352:240,1,150.000005722046,0|2,0:0|0:0,0:0:0:0:
256,192,27516,12,0,28565,0:0:0:0:
384,208,28775,2,0,L|360:256,2,50
320,304,29404,2,2,B|264:336|208:336|216:328,1,100,0|0,0:0|0:0,0:0:0:0:
136,248,30243,2,0,P|112:136|192:96,1,200
376,112,31922,5,2,0:0:0:0:
256,328,32761,2,0,P|160:272|144:176,2,200,0|2|0,0:0|0:0|0:0,0:0:0:0:
352,312,34859,1,0,0:0:0:0:
448,296,35278,2,0,L|368:208,1,100,2|0,0:0|0:0,0:0:0:0:
264,272,36117,1,0,0:0:0:0:
264,168,36537,1,0,0:0:0:0:
352,128,36957,6,0,P|248:40|96:96,1,300
112,200,38635,2,0,P|96:224|104:304,2,100,2|0|0,0:0|0:0|0:0,0:0:0:0:
216,200,39894,1,0,0:0:0:0:
312,216,40313,2,0,L|376:240,3,50,2|0|0|0,0:0|0:0|0:0|0:0,0:0:0:0:
312,120,41152,2,0,L|368:144,3,50
256,192,41992,12,0,43670,0:0:0:0:
264,248,55418,6,0,P|224:168|272:104,2,150.000005722046,2|0|8,0:0|0:0|0:0,0:0:0:0:
408,208,56677,1,0,0:0:0:0:
432,352,57096,2,0,B|384:392|336:392|304:392|264:368,1,150.000005722046,2|0,0:0|0:0,0:0:0:0:
160,312,57936,1,8,0:0:0:0:
80,184,58355,1,0,0:0:0:0:
152,56,58775,6,0,L|312:56,1,150.000005722046,2|0,0:0|0:0,0:0:0:0:
416,152,59614,1,8,0:0:0:0:
376,296,60034,1,0,0:0:0:0:
232,344,60453,1,2,0:0:0:0:
96,272,60873,1,0,0:0:0:0:
120,128,61292,2,8,L|40:112,3,75.0000028610231,8|0|0|0,0:0|0:0|0:0|0:0,0:0:0:0:
152,64,62131,6,0,P|128:56|72:40,3,75.0000028610231,2|0|0|0,0:0|0:0|0:0|0:0,0:0:0:0:
248,56,62971,2,0,P|384:144|384:280,1,300.000011444092
312,328,64229,1,0,0:0:0:0:
160,344,64649,2,0,P|64:320|48:256,1,150.000005722046,8|0,0:0|0:0,0:0:0:0:
80,136,65488,2,0,P|144:72|224:72,1,150.000005722046,2|0,0:0|0:0,0:0:0:0:
352,48,66327,1,8,0:0:0:0:
464,152,66747,1,0,0:0:0:0:
416,296,67166,5,2,0:0:0:0:
272,328,67586,1,0,0:0:0:0:
136,264,68006,1,8,0:0:0:0:
136,112,68425,2,0,L|256:224,1,150.000005722046,0|2,0:0|0:0,0:0:0:0:
400,136,69264,5,2,0:0:0:0:
312,64,69684,1,2,0:0:0:0:
200,64,70103,5,2,0:0:0:0:
120,144,70523,1,2,0:0:0:0:
120,240,70943,5,2,0:0:0:0:
208,328,71362,1,2,0:0:0:0:
320,328,71782,5,2,0:0:0:0:
384,232,72201,1,2,0:0:0:0:
320,120,72621,5,2,0:0:0:0:
216,168,73040,1,2,0:0:0:0:
232,288,73460,1,2,0:0:0:0:
112,288,73880,6,0,L|56:288,2,37.5000014305115
112,224,74299,2,0,L|40:224,2,37.5000014305115
120,160,74719,2,0,L|64:160,2,37.5000014305115
128,96,75138,2,0,L|80:88,2,37.5000014305115
200,96,75558,6,0,L|248:96,2,37.5000014305115
192,168,75978,2,0,L|256:160,2,37.5000014305115
184,224,76397,2,0,L|248:224,2,37.5000014305115
184,288,76817,2,0,L|248:288,2,37.5000014305115
200,352,77236,6,8,L|296:352,1,75.0000028610231,2|2,0:0|0:0,0:0:0:0:
336,312,77656,6,8,L|424:256,1,75.0000028610231
440,208,78075,6,8,L|440:112,1,75.0000028610231
392,72,78495,6,8,L|304:16,1,75.0000028610231
256,32,78915,6,8,L|168:32,1,75.0000028610231
120,80,79334,6,8,L|40:136,1,75.0000028610231,10|10,0:0|0:0,0:0:0:0:
72,200,79754,6,8,L|112:296,1,75.0000028610231,10|10,0:0|0:0,0:0:0:0:
168,304,80173,6,8,L|248:264,1,75.0000028610231,10|10,0:0|0:0,0:0:0:0:
272,200,80593,6,8,L|312:200,15,37.5000014305115,10|10|10|10|10|10|10|10|10|10|10|10|10|10|10|10,0:0|0:0|0:0|0:0|0:0|0:0|0:0|0:0|0:0|0:0|0:0|0:0|0:0|0:0|0:0|0:0,0:0:0:0:
96,128,83110,6,0,P|136:88|184:96,1,100,8|0,0:0|0:0,0:0:0:0:
272,80,83950,1,2,0:0:0:0:
352,136,84369,1,0,0:0:0:0:
296,208,84789,2,0,P|240:232|200:240,1,100,8|0,0:0|0:0,0:0:0:0:
152,144,85628,5,2,0:0:0:0:
248,104,86047,1,0,0:0:0:0:
344,144,86467,1,8,0:0:0:0:
304,232,86887,2,0,P|256:248|208:224,1,100,0|2,0:0|0:0,0:0:0:0:
112,240,87726,2,0,L|120:136,1,100,0|8,0:0|0:0,0:0:0:0:
184,64,88565,2,0,L|304:56,1,100,0|2,0:0|0:0,0:0:0:0:
360,200,89404,5,0,0:0:0:0:
392,296,89824,1,8,0:0:0:0:
296,328,90243,1,0,0:0:0:0:
200,336,90663,2,0,P|136:344|80:328,1,100,2|0,0:0|0:0,0:0:0:0:
96,240,91502,2,0,P|72:176|96:152,1,100,8|0,0:0|0:0,0:0:0:0:
152,80,92341,5,2,0:0:0:0:
248,72,92761,1,0,0:0:0:0:
296,56,92971,1,0,0:0:0:0:
344,40,93180,2,0,L|448:80,1,100,8|0,0:0|0:0,0:0:0:0:
424,176,94020,2,0,L|400:280,1,100,2|0,0:0|0:0,0:0:0:0:
312,232,94859,2,0,L|248:320,1,100,8|0,0:0|0:0,0:0:0:0:
152,328,95698,5,2,0:0:0:0:
64,280,96117,2,0,L|64:168,1,100,0|8,0:0|0:0,0:0:0:0:
240,88,97376,2,0,P|288:56|344:80,1,119.999996337891,0|8,0:0|0:0,0:0:0:0:
384,200,98635,1,0,0:0:0:0:
360,296,99054,1,2,0:0:0:0:
272,336,99474,2,0,P|160:352|104:288,1,200
72,200,100733,5,2,0:0:0:0:
104,104,101152,2,0,L|200:56,1,100,0|8,0:0|0:0,0:0:0:0:
256,144,101992,2,0,L|360:80,1,100,0|2,0:0|0:0,0:0:0:0:
432,128,102831,5,0,0:0:0:0:
432,232,103250,2,0,P|432:288|384:328,1,100,8|0,0:0|0:0,0:0:0:0:
328,256,104089,1,2,0:0:0:0:
240,304,104509,1,0,0:0:0:0:
144,272,104929,2,0,P|96:168|136:104,1,200
240,72,106187,6,0,L|344:128,1,100,0|8,0:0|0:0,0:0:0:0:
384,200,107027,1,0,0:0:0:0:
320,280,107446,2,0,P|304:320|272:336,1,75.0000028610231,2|0,0:0|0:0,0:0:0:0:
152,328,108285,2,0,P|96:304|96:272,1,100,8|0,0:0|0:0,0:0:0:0:
168,200,109124,6,0,L|216:200,3,37.5000014305115
296,200,110803,2,0,L|344:200,3,37.5000014305115
256,192,112481,12,2,114369,0:0:0:0:
176,144,114789,5,0,0:0:0:0:
184,184,114999,1,0,0:0:0:0:
216,208,115208,1,0,0:0:0:0:
256,216,115418,1,0,0:0:0:0:
296,112,116047,6,0,L|336:80,2,37.5000014305115
416,96,117516,5,0,0:0:0:0:
384,80,117726,1,0,0:0:0:0:
344,72,117936,1,0,0:0:0:0:
312,88,118145,1,2,0:0:0:0:
144,160,119194,5,0,0:0:0:0:
152,56,122551,6,0,L|120:96,3,37.5000014305115
216,56,123390,1,0,0:0:0:0:
232,128,123810,2,0,L|208:168,5,37.5000014305115
296,120,125068,1,4,0:0:0:0:
376,168,125488,2,0,L|376:256,1,75.0000028610231
360,320,126327,2,0,L|304:328,1,50
208,320,127166,5,0,0:0:0:0:
144,280,127586,1,0,0:0:0:0:
128,208,128006,1,0,0:0:0:0:
112,136,128425,2,0,B|160:72|216:72|248:72,2,150.000005722046
168,184,130523,1,0,0:0:0:0:
208,248,130943,2,0,P|296:304|336:288,2,150.000005722046
256,192,132831,12,2,134299,0:0:0:0:
64,48,149404,6,0,L|80:200,1,150.000005722046,2|0,0:0|0:0,0:0:0:0:
80,344,150243,2,0,L|240:336,1,150.000005722046,8|0,0:0|0:0,0:0:0:0:
376,320,151082,1,2,0:0:0:0:
424,176,151502,2,0,P|464:112|424:56,1,150.000005722046,0|8,0:0|0:0,0:0:0:0:
128,72,152761,6,0,L|48:200,2,150.000005722046
280,80,154020,1,0,0:0:0:0:
384,192,154439,1,2,0:0:0:0:
312,320,154859,2,0,L|160:336,1,150.000005722046,0|8,0:0|0:0,0:0:0:0:
56,232,155698,1,0,0:0:0:0:
208,264,156117,6,0,P|240:192|208:128,1,150.000005722046,2|0,0:0|0:0,0:0:0:0:
96,80,156957,2,0,P|256:40|376:112,1,300.000011444092
400,224,158215,2,0,P|360:288|272:288,2,150.000005722046,0|8|0,0:0|0:0|0:0,0:0:0:0:
424,112,159474,6,0,P|432:48|352:32,2,150.000005722046,2|0|8,0:0|0:0|0:0,0:0:0:0:
320,168,160733,2,0,L|168:256,3,150.000005722046,0|2|0|8,0:0|0:0|0:0|0:0,0:0:0:0:
304,336,162411,1,0,0:0:0:0:
432,264,162831,5,2,0:0:0:0:
440,112,163250,2,0,P|376:56|296:80,2,150.000005722046,0|0|0,0:0|0:0|0:0,0:0:0:0:
336,224,164509,1,2,0:0:0:0:
216,136,164929,1,2,0:0:0:0:
136,8,165348,2,0,P|64:64|48:120,1,150.000005722046
200,128,166187,5,2,0:0:0:0:
176,288,166607,1,2,0:0:0:0:
328,312,167027,2,0,P|416:304|456:248,2,150.000005722046
240,192,168285,1,2,0:0:0:0:
176,56,168705,2,2,L|72:56,2,75.0000028610231
328,56,169544,6,0,L|464:120,1,150.000005722046
424,264,170383,6,0,L|296:360,1,150.000005722046
152,336,171222,6,0,L|40:224,1,150.000005722046
112,96,172061,6,0,L|264:40,1,150.000005722046
392,96,172901,6,0,L|368:248,1,150.000005722046
232,304,173740,6,0,L|144:176,1,150.000005722046
264,88,174579,6,8,L|272:24,16,37.5000014305115
64,104,177936,6,0,L|144:136,1,75.0000028610231,2|0,0:0|0:0,0:0:0:0:
144,224,178775,2,0,L|208:280,1,75.0000028610231,8|0,0:0|0:0,0:0:0:0:
304,312,179614,5,2,0:0:0:0:
400,272,180034,1,0,0:0:0:0:
416,184,180453,2,0,P|416:112|344:64,1,150.000005722046,0|2,0:0|0:0,0:0:0:0:
248,56,181712,2,0,L|136:104,1,100,0|8,0:0|0:0,0:0:0:0:
200,168,182551,2,0,L|104:216,1,100,0|2,0:0|0:0,0:0:0:0:
104,312,183390,2,0,L|216:320,2,100,0|8|0,0:0|0:0|0:0,0:0:0:0:
96,216,184649,2,0,P|128:88|208:72,1,225.000008583069
408,72,186327,5,2,0:0:0:0:
432,184,186747,1,2,0:0:0:0:
424,232,186957,1,2,0:0:0:0:
416,280,187166,2,0,P|400:320|344:352,1,100,8|0,0:0|0:0,0:0:0:0:
256,328,188006,2,0,P|208:344|176:336,1,75.0000028610231,2|0,0:0|0:0,0:0:0:0:
112,248,188845,2,0,P|88:224|104:176,1,75.0000028610231,8|0,0:0|0:0,0:0:0:0:
136,88,189684,5,2,0:0:0:0:
232,56,190103,1,0,0:0:0:0:
328,88,190523,1,8,0:0:0:0:
424,264,191362,6,0,L|344:328,1,100,2|0,0:0|0:0,0:0:0:0:
304,232,192201,2,0,L|208:296,1,100,8|0,0:0|0:0,0:0:0:0:
168,376,193040,2,0,P|88:304|112:224,1,200,2|8,0:0|0:0,0:0:0:0:
112,128,194299,1,0,0:0:0:0:
176,56,194719,5,2,0:0:0:0:
280,56,195138,2,0,L|384:96,1,100,0|8,0:0|0:0,0:0:0:0:
304,168,195978,2,0,L|408:224,2,100,0|2|0,0:0|0:0|0:0,0:0:0:0:
224,232,197236,2,0,L|136:160,1,100,8|0,0:0|0:0,0:0:0:0:
64,224,198075,5,2,0:0:0:0:
128,304,198495,1,0,0:0:0:0:
224,320,198915,2,0,L|344:328,1,100,8|0,0:0|0:0,0:0:0:0:
400,264,199754,1,2,0:0:0:0:
400,168,200173,2,0,P|448:120|424:96,1,100,0|8,0:0|0:0,0:0:0:0:
360,48,201013,1,0,0:0:0:0:
280,104,201432,6,0,P|248:80|208:80,1,75.0000028610231,2|0,0:0|0:0,0:0:0:0:
120,136,202271,2,0,L|96:256,1,100,8|0,0:0|0:0,0:0:0:0:
168,272,203110,2,0,L|232:208,1,75.0000028610231
432,152,204369,1,0,0:0:0:0:
400,264,204789,5,2,0:0:0:0:
288,304,205208,1,2,0:0:0:0:
192,320,205628,2,0,L|88:288,1,100,8|0,0:0|0:0,0:0:0:0:
144,200,206467,2,0,L|128:112,1,75.0000028610231,2|0,0:0|0:0,0:0:0:0:
232,80,207306,2,0,L|352:72,2,100,8|0|2,0:0|0:0|0:0,0:0:0:0:
320,128,208565,6,0,L|416:200,1,100,0|8,0:0|0:0,0:0:0:0:
312,232,209404,2,0,L|368:296,2,75.0000028610231,0|2|0,0:0|0:0|0:0,0:0:0:0:
216,248,210663,1,8,0:0:0:0:
120,256,211082,2,0,P|88:232|56:192,1,75.0000028610231,0|2,0:0|0:0,0:0:0:0:
120,128,211922,1,0,0:0:0:0:
192,56,212341,6,0,L|392:48,1,200,0|2,0:0|0:0,0:0:0:0:
424,144,213600,1,2,0:0:0:0:
416,192,213810,1,2,0:0:0:0:
464,184,214020,2,0,L|416:280,1,100,8|0,0:0|0:0,0:0:0:0:
248,304,214859,2,0,L|136:312,4,100,2|0|8|0|2,0:0|0:0|0:0|0:0|0:0,0:0:0:0:
280,104,217376,5,8,0:0:0:0:
200,40,217796,2,0,P|128:32|72:96,1,150.000005722046
80,192,219054,2,0,B|144:344|232:104|320:280,1,300.000011444092
400,272,221572,5,2,0:0:0:0:
312,312,221992,2,0,L|224:336,1,75.0000028610231,0|8,0:0|0:0,0:0:0:0:
256,216,222831,2,0,L|168:240,1,75.0000028610231,0|2,0:0|0:0,0:0:0:0:
184,104,224089,5,8,0:0:0:0:
104,160,224509,1,0,0:0:0:0:
96,256,224929,1,2,0:0:0:0:
160,336,225348,1,0,0:0:0:0:
256,344,225768,1,8,0:0:0:0:
328,280,226187,1,0,0:0:0:0:
264,200,226607,6,0,P|240:176|176:192,2,100,0|0|8,0:0|0:0|0:0,0:0:0:0:
296,296,227866,1,0,0:0:0:0:
392,256,228285,1,2,0:0:0:0:
360,168,228705,1,0,0:0:0:0:
432,104,229124,2,0,P|424:64|352:56,1,100,8|0,0:0|0:0,0:0:0:0:
272,96,229964,6,0,L|288:200,1,100
248,288,230803,2,8,L|144:304,1,100
104,216,231642,2,0,P|80:168|112:128,3,100,2|0|8|0,0:0|0:0|0:0|0:0,0:0:0:0:
176,64,233320,5,2,0:0:0:0:
272,72,233740,1,0,0:0:0:0:
368,88,234159,2,0,L|448:168,3,100,8|0|2|0,0:0|0:0|0:0|0:0,0:0:0:0:
424,256,235838,2,0,P|416:320|368:336,1,100,8|0,0:0|0:0,0:0:0:0:
288,328,236677,6,0,L|184:320,3,100,2|0|8|0,0:0|0:0|0:0|0:0,0:0:0:0:
112,256,238355,1,2,0:0:0:0:
72,168,238775,1,2,0:0:0:0:
120,80,239194,2,0,L|216:40,3,100,8|0|2|0,0:0|0:0|0:0|0:0,0:0:0:0:
312,64,240873,1,8,0:0:0:0:
408,104,241292,6,0,P|480:176|432:248,1,200
336,240,242551,2,0,L|232:208,1,100,8|0,0:0|0:0,0:0:0:0:
256,192,243390,12,0,244649,0:0:0:0:
72,64,245068,6,0,B|136:64|152:136|176:192|248:216|296:216|320:176,1,300
304,88,246747,1,0,0:0:0:0:
400,56,247166,1,0,0:0:0:0:
456,136,247586,1,0,0:0:0:0:
360,176,248006,1,0,0:0:0:0:
384,272,248425,6,0,P|216:328|104:272,1,300
136,168,250103,2,0,L|232:136,2,100
328,216,251362,2,0,L|304:272,10,50,0|0|0|0|0|0|0|0|0|0|4,0:0|0:0|0:0|0:0|0:0|0:0|0:0|0:0|0:0|0:0|0:0,0:0:0:0:
256,192,253670,12,2,256607,0:0:0:0:
