osu file format v12

[General]
AudioFilename: m1dy - 960 BPM Speedcore.mp3
AudioLeadIn: 0
PreviewTime: 95494
Countdown: 1
SampleSet: Normal
StackLeniency: 0.2
Mode: 0
LetterboxInBreaks: 1
WidescreenStoryboard: 0

[Editor]
DistanceSpacing: 0.9
BeatDivisor: 4
GridSize: 8

[Metadata]
Title:960 BPM Speedcore
TitleUnicode:960 BPM Speedcore
Artist:m1dy
ArtistUnicode:m1dy
Creator:119410501
Version:960BPM
Source:stepmania
Tags:stepmania speed speedcore speedkore the quick brown fox renard high bpm streams stream cookiezi nightcore anime japan perv !faq ts:suck passable possible map fast mayhem blue dragon the big black money negaren hentai ecchi tsundere torture ero guro dj touhou techno remix house music hardcore hardstyle tv boobs size tag4 tag8 pure pwnage
BeatmapID:288940
BeatmapSetID:111015

[Difficulty]
HPDrainRate:3
CircleSize:4
OverallDifficulty:6
ApproachRate:10
SliderMultiplier:1.4
SliderTickRate:1

[Events]
//Background and Video events
0,0,"fast bitcha.jpg",0,0
//Break Periods
2,15382,23544
2,28256,34044
2,89788,96544
//Storyboard Layer 0 (Background)
//Storyboard Layer 1 (Fail)
//Storyboard Layer 2 (Pass)
//Storyboard Layer 3 (Foreground)
//Storyboard Sound Samples
//Background Colour Transformations
3,100,163,162,255

[TimingPoints]
34526,62.5,4,1,1,40,1,0

[HitObjects]
256,192,151,12,8,15182,0:0:0:0:
72,56,23994,5,0,0:0:0:0:
208,56,24244,1,0,0:0:0:0:
336,56,24494,1,0,0:0:0:0:
464,128,24729,1,0,0:0:0:0:
400,176,24869,1,0,0:0:0:0:
312,224,24994,5,0,0:0:0:0:
208,232,25244,1,0,0:0:0:0:
72,232,25494,1,0,0:0:0:0:
144,328,25744,1,0,0:0:0:0:
240,328,25994,2,0,L|288:328,3,35
408,320,26244,5,0,0:0:0:0:
312,224,26494,1,0,0:0:0:0:
144,192,26744,1,0,0:0:0:0:
48,88,26854,1,0,0:0:0:0:
48,88,26963,1,0,0:0:0:0:
184,48,27213,5,0,0:0:0:0:
328,88,27494,1,0,0:0:0:0:
440,192,27744,1,0,0:0:0:0:
280,280,27994,1,0,0:0:0:0:
232,288,28010,2,0,L|168:296,3,35
48,32,34494,5,0,0:0:0:0:
88,32,34510,1,0,0:0:0:0:
128,32,34526,1,0,0:0:0:0:
168,32,34541,1,0,0:0:0:0:
208,32,34557,1,0,0:0:0:0:
248,32,34572,1,0,0:0:0:0:
248,32,34588,1,0,0:0:0:0:
288,32,34604,1,0,0:0:0:0:
328,32,34619,1,0,0:0:0:0:
368,32,34635,1,0,0:0:0:0:
408,32,34651,1,0,0:0:0:0:
448,32,34666,1,0,0:0:0:0:
464,80,34682,5,0,0:0:0:0:
432,88,34697,5,0,0:0:0:0:
392,88,34713,1,0,0:0:0:0:
352,88,34729,1,0,0:0:0:0:
312,88,34744,1,0,0:0:0:0:
272,88,34760,1,0,0:0:0:0:
232,88,34775,1,0,0:0:0:0:
232,88,34791,1,0,0:0:0:0:
192,88,34807,1,0,0:0:0:0:
152,88,34822,1,0,0:0:0:0:
112,88,34838,1,0,0:0:0:0:
72,88,34854,1,0,0:0:0:0:
48,80,34869,5,0,0:0:0:0:
48,128,34885,5,0,0:0:0:0:
88,128,34901,1,0,0:0:0:0:
128,128,34917,1,0,0:0:0:0:
168,128,34932,1,0,0:0:0:0:
208,128,34948,1,0,0:0:0:0:
248,128,34963,1,0,0:0:0:0:
248,128,34979,1,0,0:0:0:0:
288,128,34995,1,0,0:0:0:0:
328,128,35010,1,0,0:0:0:0:
368,128,35026,1,0,0:0:0:0:
408,128,35042,1,0,0:0:0:0:
448,128,35057,1,0,0:0:0:0:
464,176,35073,5,0,0:0:0:0:
432,184,35088,5,0,0:0:0:0:
392,184,35104,1,0,0:0:0:0:
352,184,35120,1,0,0:0:0:0:
312,184,35135,1,0,0:0:0:0:
272,184,35151,1,0,0:0:0:0:
232,184,35166,1,0,0:0:0:0:
232,184,35182,1,0,0:0:0:0:
192,184,35198,1,0,0:0:0:0:
152,184,35213,1,0,0:0:0:0:
112,184,35229,1,0,0:0:0:0:
72,184,35245,1,0,0:0:0:0:
48,176,35260,5,0,0:0:0:0:
48,224,35276,5,0,0:0:0:0:
88,224,35292,1,0,0:0:0:0:
128,224,35308,1,0,0:0:0:0:
168,224,35323,1,0,0:0:0:0:
208,224,35339,1,0,0:0:0:0:
248,224,35354,1,0,0:0:0:0:
248,224,35370,1,0,0:0:0:0:
288,224,35386,1,0,0:0:0:0:
328,224,35401,1,0,0:0:0:0:
368,224,35417,1,0,0:0:0:0:
408,224,35433,1,0,0:0:0:0:
448,224,35448,1,0,0:0:0:0:
464,272,35464,5,0,0:0:0:0:
432,280,35479,5,0,0:0:0:0:
392,280,35495,1,0,0:0:0:0:
352,280,35511,1,0,0:0:0:0:
312,280,35526,1,0,0:0:0:0:
272,280,35542,1,0,0:0:0:0:
232,280,35557,1,0,0:0:0:0:
232,280,35573,1,0,0:0:0:0:
192,280,35589,1,0,0:0:0:0:
152,280,35604,1,0,0:0:0:0:
112,280,35620,1,0,0:0:0:0:
72,280,35636,1,0,0:0:0:0:
48,272,35651,5,0,0:0:0:0:
48,320,35666,5,0,0:0:0:0:
88,320,35682,1,0,0:0:0:0:
128,320,35698,1,0,0:0:0:0:
168,320,35713,1,0,0:0:0:0:
208,320,35729,1,0,0:0:0:0:
248,320,35744,1,0,0:0:0:0:
248,320,35760,1,0,0:0:0:0:
288,320,35776,1,0,0:0:0:0:
328,320,35791,1,0,0:0:0:0:
368,320,35807,1,0,0:0:0:0:
408,320,35823,1,0,0:0:0:0:
448,320,35838,1,0,0:0:0:0:
464,368,35854,5,0,0:0:0:0:
432,376,35869,5,0,0:0:0:0:
392,376,35885,1,0,0:0:0:0:
352,376,35901,1,0,0:0:0:0:
312,376,35916,1,0,0:0:0:0:
272,376,35932,1,0,0:0:0:0:
232,376,35947,1,0,0:0:0:0:
232,376,35963,1,0,0:0:0:0:
192,376,35979,1,0,0:0:0:0:
152,376,35994,1,0,0:0:0:0:
112,376,36010,1,0,0:0:0:0:
72,376,36026,1,0,0:0:0:0:
48,368,36041,5,0,0:0:0:0:
48,352,36057,5,0,0:0:0:0:
88,352,36073,1,0,0:0:0:0:
128,352,36089,1,0,0:0:0:0:
168,352,36104,1,0,0:0:0:0:
208,352,36120,1,0,0:0:0:0:
248,352,36135,1,0,0:0:0:0:
248,352,36151,1,0,0:0:0:0:
288,352,36167,1,0,0:0:0:0:
328,352,36182,1,0,0:0:0:0:
368,352,36198,1,0,0:0:0:0:
408,352,36214,1,0,0:0:0:0:
448,352,36229,1,0,0:0:0:0:
464,304,36245,5,0,0:0:0:0:
432,296,36260,5,0,0:0:0:0:
392,296,36276,1,0,0:0:0:0:
352,296,36292,1,0,0:0:0:0:
312,296,36307,1,0,0:0:0:0:
272,296,36323,1,0,0:0:0:0:
232,296,36338,1,0,0:0:0:0:
232,296,36354,1,0,0:0:0:0:
192,296,36370,1,0,0:0:0:0:
152,296,36385,1,0,0:0:0:0:
112,296,36401,1,0,0:0:0:0:
72,296,36417,1,0,0:0:0:0:
48,304,36432,5,0,0:0:0:0:
48,256,36448,5,0,0:0:0:0:
88,256,36464,1,0,0:0:0:0:
128,256,36480,1,0,0:0:0:0:
168,256,36495,1,0,0:0:0:0:
208,256,36511,1,0,0:0:0:0:
248,256,36526,1,0,0:0:0:0:
248,256,36542,1,0,0:0:0:0:
288,256,36558,1,0,0:0:0:0:
328,256,36573,1,0,0:0:0:0:
368,256,36589,1,0,0:0:0:0:
408,256,36605,1,0,0:0:0:0:
448,256,36620,1,0,0:0:0:0:
464,208,36636,5,0,0:0:0:0:
432,200,36651,5,0,0:0:0:0:
392,200,36667,1,0,0:0:0:0:
352,200,36683,1,0,0:0:0:0:
312,200,36698,1,0,0:0:0:0:
272,200,36714,1,0,0:0:0:0:
232,200,36729,1,0,0:0:0:0:
232,200,36745,1,0,0:0:0:0:
192,200,36761,1,0,0:0:0:0:
152,200,36776,1,0,0:0:0:0:
112,200,36792,1,0,0:0:0:0:
72,200,36808,1,0,0:0:0:0:
48,208,36823,5,0,0:0:0:0:
48,160,36839,5,0,0:0:0:0:
88,160,36855,1,0,0:0:0:0:
128,160,36871,1,0,0:0:0:0:
168,160,36886,1,0,0:0:0:0:
208,160,36902,1,0,0:0:0:0:
248,160,36917,1,0,0:0:0:0:
248,160,36933,1,0,0:0:0:0:
288,160,36949,1,0,0:0:0:0:
328,160,36964,1,0,0:0:0:0:
368,160,36980,1,0,0:0:0:0:
408,160,36996,1,0,0:0:0:0:
448,160,37011,1,0,0:0:0:0:
464,112,37027,5,0,0:0:0:0:
432,104,37042,5,0,0:0:0:0:
392,104,37058,1,0,0:0:0:0:
352,104,37074,1,0,0:0:0:0:
312,104,37089,1,0,0:0:0:0:
272,104,37105,1,0,0:0:0:0:
232,104,37120,1,0,0:0:0:0:
232,104,37136,1,0,0:0:0:0:
192,104,37152,1,0,0:0:0:0:
152,104,37167,1,0,0:0:0:0:
112,104,37183,1,0,0:0:0:0:
72,104,37199,1,0,0:0:0:0:
48,112,37214,5,0,0:0:0:0:
48,64,37229,5,0,0:0:0:0:
88,64,37245,1,0,0:0:0:0:
128,64,37261,1,0,0:0:0:0:
168,64,37276,1,0,0:0:0:0:
208,64,37292,1,0,0:0:0:0:
248,64,37307,1,0,0:0:0:0:
248,64,37323,1,0,0:0:0:0:
288,64,37339,1,0,0:0:0:0:
328,64,37354,1,0,0:0:0:0:
368,64,37370,1,0,0:0:0:0:
408,64,37386,1,0,0:0:0:0:
448,64,37401,1,0,0:0:0:0:
464,16,37417,5,0,0:0:0:0:
432,8,37432,5,0,0:0:0:0:
392,8,37448,1,0,0:0:0:0:
352,8,37464,1,0,0:0:0:0:
312,8,37479,1,0,0:0:0:0:
272,8,37495,1,0,0:0:0:0:
232,8,37510,1,0,0:0:0:0:
232,8,37526,1,0,0:0:0:0:
192,8,37542,1,0,0:0:0:0:
152,8,37557,1,0,0:0:0:0:
112,8,37573,1,0,0:0:0:0:
72,8,37589,1,0,0:0:0:0:
48,16,37604,5,0,0:0:0:0:
48,32,37619,5,0,0:0:0:0:
88,32,37635,1,0,0:0:0:0:
128,32,37651,1,0,0:0:0:0:
168,32,37666,1,0,0:0:0:0:
208,32,37682,1,0,0:0:0:0:
248,32,37697,1,0,0:0:0:0:
248,32,37713,1,0,0:0:0:0:
288,32,37729,1,0,0:0:0:0:
328,32,37744,1,0,0:0:0:0:
368,32,37760,1,0,0:0:0:0:
408,32,37776,1,0,0:0:0:0:
448,32,37791,1,0,0:0:0:0:
464,80,37807,5,0,0:0:0:0:
432,88,37822,5,0,0:0:0:0:
392,88,37838,1,0,0:0:0:0:
352,88,37854,1,0,0:0:0:0:
312,88,37869,1,0,0:0:0:0:
272,88,37885,1,0,0:0:0:0:
232,88,37900,1,0,0:0:0:0:
232,88,37916,1,0,0:0:0:0:
192,88,37932,1,0,0:0:0:0:
152,88,37947,1,0,0:0:0:0:
112,88,37963,1,0,0:0:0:0:
72,88,37979,1,0,0:0:0:0:
48,80,37994,5,0,0:0:0:0:
48,128,38010,5,0,0:0:0:0:
88,128,38026,1,0,0:0:0:0:
128,128,38042,1,0,0:0:0:0:
168,128,38057,1,0,0:0:0:0:
208,128,38073,1,0,0:0:0:0:
248,128,38088,1,0,0:0:0:0:
248,128,38104,1,0,0:0:0:0:
288,128,38120,1,0,0:0:0:0:
328,128,38135,1,0,0:0:0:0:
368,128,38151,1,0,0:0:0:0:
408,128,38167,1,0,0:0:0:0:
448,128,38182,1,0,0:0:0:0:
464,176,38198,5,0,0:0:0:0:
432,184,38213,5,0,0:0:0:0:
392,184,38229,1,0,0:0:0:0:
352,184,38245,1,0,0:0:0:0:
312,184,38260,1,0,0:0:0:0:
272,184,38276,1,0,0:0:0:0:
232,184,38291,1,0,0:0:0:0:
232,184,38307,1,0,0:0:0:0:
192,184,38323,1,0,0:0:0:0:
152,184,38338,1,0,0:0:0:0:
112,184,38354,1,0,0:0:0:0:
72,184,38370,1,0,0:0:0:0:
48,176,38385,5,0,0:0:0:0:
48,224,38401,5,0,0:0:0:0:
88,224,38417,1,0,0:0:0:0:
128,224,38433,1,0,0:0:0:0:
168,224,38448,1,0,0:0:0:0:
208,224,38464,1,0,0:0:0:0:
248,224,38479,1,0,0:0:0:0:
248,224,38495,1,0,0:0:0:0:
288,224,38511,1,0,0:0:0:0:
328,224,38526,1,0,0:0:0:0:
368,224,38542,1,0,0:0:0:0:
408,224,38558,1,0,0:0:0:0:
448,224,38573,1,0,0:0:0:0:
48,40,43494,6,0,L|128:40,1,70
48,64,43541,6,0,L|128:64,1,70
48,96,43572,6,0,L|128:96,1,70
48,128,43619,6,0,L|128:128,1,70
48,152,43666,6,0,L|128:152,1,70
48,184,43697,6,0,L|128:184,1,70
48,208,43744,6,0,L|128:208,1,70
48,232,43791,6,0,L|128:232,1,70
48,264,43806,6,0,L|128:264,1,70
48,296,43838,6,0,L|128:296,1,70
48,320,43885,6,0,L|128:320,1,70
48,352,43916,6,0,L|128:352,1,70
112,352,43963,6,0,L|192:352,1,70
112,328,44010,6,0,L|192:328,1,70
112,296,44041,6,0,L|192:296,1,70
112,264,44088,6,0,L|192:264,1,70
112,240,44135,6,0,L|192:240,1,70
112,208,44166,6,0,L|192:208,1,70
112,184,44213,6,0,L|192:184,1,70
112,160,44260,6,0,L|192:160,1,70
112,128,44275,6,0,L|192:128,1,70
112,96,44307,6,0,L|192:96,1,70
112,72,44354,6,0,L|192:72,1,70
112,40,44385,6,0,L|192:40,1,70
184,40,44432,6,0,L|264:40,1,70
184,64,44479,6,0,L|264:64,1,70
184,96,44510,6,0,L|264:96,1,70
184,128,44557,6,0,L|264:128,1,70
184,152,44604,6,0,L|264:152,1,70
184,184,44635,6,0,L|264:184,1,70
184,208,44682,6,0,L|264:208,1,70
184,232,44729,6,0,L|264:232,1,70
184,264,44744,6,0,L|264:264,1,70
184,296,44776,6,0,L|264:296,1,70
184,320,44823,6,0,L|264:320,1,70
184,352,44854,6,0,L|264:352,1,70
256,344,44901,6,0,L|336:344,1,70
256,320,44948,6,0,L|336:320,1,70
256,288,44979,6,0,L|336:288,1,70
256,256,45026,6,0,L|336:256,1,70
256,232,45073,6,0,L|336:232,1,70
256,200,45104,6,0,L|336:200,1,70
256,176,45151,6,0,L|336:176,1,70
256,152,45198,6,0,L|336:152,1,70
256,120,45213,6,0,L|336:120,1,70
256,88,45245,6,0,L|336:88,1,70
256,64,45292,6,0,L|336:64,1,70
256,32,45323,6,0,L|336:32,1,70
320,32,45370,6,0,L|400:32,1,70
320,56,45417,6,0,L|400:56,1,70
320,88,45448,6,0,L|400:88,1,70
320,120,45495,6,0,L|400:120,1,70
320,144,45542,6,0,L|400:144,1,70
320,176,45573,6,0,L|400:176,1,70
320,200,45620,6,0,L|400:200,1,70
320,224,45667,6,0,L|400:224,1,70
320,256,45682,6,0,L|400:256,1,70
320,288,45697,6,0,L|400:288,1,70
320,312,45744,6,0,L|400:312,1,70
320,344,45792,6,0,L|400:344,1,70
392,344,45839,6,0,L|472:344,1,70
392,320,45886,6,0,L|472:320,1,70
392,288,45917,6,0,L|472:288,1,70
392,256,45964,6,0,L|472:256,1,70
392,232,46011,6,0,L|472:232,1,70
392,200,46042,6,0,L|472:200,1,70
392,176,46089,6,0,L|472:176,1,70
392,152,46136,6,0,L|472:152,1,70
392,120,46151,6,0,L|472:120,1,70
392,88,46183,6,0,L|472:88,1,70
392,64,46230,6,0,L|472:64,1,70
392,32,46261,6,0,L|472:32,1,70
408,0,46307,6,0,L|408:64,1,70
384,0,46354,6,0,L|384:64,1,70
352,0,46385,6,0,L|352:64,1,70
320,0,46432,6,0,L|320:64,1,70
296,0,46479,6,0,L|296:64,1,70
264,0,46510,6,0,L|264:64,1,70
240,0,46557,6,0,L|240:64,1,70
216,0,46604,6,0,L|216:64,1,70
184,0,46619,6,0,L|184:64,1,70
152,0,46651,6,0,L|152:64,1,70
128,0,46698,6,0,L|128:64,1,70
96,0,46729,6,0,L|96:64,1,70
96,48,46776,6,0,L|96:128,1,70
120,48,46823,6,0,L|120:128,1,70
152,48,46854,6,0,L|152:128,1,70
184,48,46901,6,0,L|184:128,1,70
208,48,46948,6,0,L|208:128,1,70
240,48,46979,6,0,L|240:128,1,70
264,48,47026,6,0,L|264:128,1,70
288,48,47073,6,0,L|288:128,1,70
320,48,47088,6,0,L|320:128,1,70
352,48,47120,6,0,L|352:128,1,70
376,48,47167,6,0,L|376:128,1,70
408,48,47198,6,0,L|408:128,1,70
408,120,47245,6,0,L|408:200,1,70
384,120,47292,6,0,L|384:200,1,70
352,120,47323,6,0,L|352:200,1,70
320,120,47370,6,0,L|320:200,1,70
296,120,47417,6,0,L|296:200,1,70
264,120,47448,6,0,L|264:200,1,70
240,120,47495,6,0,L|240:200,1,70
216,120,47542,6,0,L|216:200,1,70
184,120,47557,6,0,L|184:200,1,70
152,120,47589,6,0,L|152:200,1,70
128,120,47636,6,0,L|128:200,1,70
96,120,47667,6,0,L|96:200,1,70
104,192,47714,6,0,L|104:272,1,70
128,192,47761,6,0,L|128:272,1,70
160,192,47792,6,0,L|160:272,1,70
192,192,47839,6,0,L|192:272,1,70
216,192,47886,6,0,L|216:272,1,70
248,192,47917,6,0,L|248:272,1,70
272,192,47964,6,0,L|272:272,1,70
296,192,48011,6,0,L|296:272,1,70
328,192,48026,6,0,L|328:272,1,70
360,192,48058,6,0,L|360:272,1,70
384,192,48105,6,0,L|384:272,1,70
416,192,48136,6,0,L|416:272,1,70
416,256,48183,6,0,L|416:336,1,70
392,256,48230,6,0,L|392:336,1,70
360,256,48261,6,0,L|360:336,1,70
328,256,48308,6,0,L|328:336,1,70
304,256,48355,6,0,L|304:336,1,70
272,256,48386,6,0,L|272:336,1,70
248,256,48433,6,0,L|248:336,1,70
224,256,48480,6,0,L|224:336,1,70
192,256,48495,6,0,L|192:336,1,70
160,256,48527,6,0,L|160:336,1,70
136,256,48574,6,0,L|136:336,1,70
104,256,48605,6,0,L|104:336,1,70
104,328,48652,6,0,L|104:408,1,70
128,328,48699,6,0,L|128:408,1,70
160,328,48730,6,0,L|160:408,1,70
192,328,48777,6,0,L|192:408,1,70
216,328,48824,6,0,L|216:408,1,70
248,328,48855,6,0,L|248:408,1,70
272,328,48902,6,0,L|272:408,1,70
296,328,48949,6,0,L|296:408,1,70
328,328,48964,6,0,L|328:408,1,70
360,328,48996,6,0,L|360:408,1,70
384,328,49043,6,0,L|384:408,1,70
416,328,49074,6,0,L|416:408,1,70
408,400,49119,6,0,L|408:320,1,70
384,400,49166,6,0,L|384:320,1,70
352,400,49197,6,0,L|352:320,1,70
320,400,49244,6,0,L|320:320,1,70
296,400,49291,6,0,L|296:320,1,70
264,400,49322,6,0,L|264:320,1,70
240,400,49369,6,0,L|240:320,1,70
216,400,49416,6,0,L|216:320,1,70
184,400,49431,6,0,L|184:320,1,70
152,400,49463,6,0,L|152:320,1,70
128,400,49510,6,0,L|128:320,1,70
96,400,49541,6,0,L|96:320,1,70
96,336,49588,6,0,L|96:256,1,70
120,336,49635,6,0,L|120:256,1,70
152,336,49666,6,0,L|152:256,1,70
184,336,49713,6,0,L|184:256,1,70
208,336,49760,6,0,L|208:256,1,70
240,336,49791,6,0,L|240:256,1,70
264,336,49838,6,0,L|264:256,1,70
288,336,49885,6,0,L|288:256,1,70
320,336,49900,6,0,L|320:256,1,70
352,336,49932,6,0,L|352:256,1,70
376,336,49979,6,0,L|376:256,1,70
408,336,50010,6,0,L|408:256,1,70
408,264,50057,6,0,L|408:184,1,70
384,264,50104,6,0,L|384:184,1,70
352,264,50135,6,0,L|352:184,1,70
320,264,50182,6,0,L|320:184,1,70
296,264,50229,6,0,L|296:184,1,70
264,264,50260,6,0,L|264:184,1,70
240,264,50307,6,0,L|240:184,1,70
216,264,50354,6,0,L|216:184,1,70
184,264,50369,6,0,L|184:184,1,70
152,264,50401,6,0,L|152:184,1,70
128,264,50448,6,0,L|128:184,1,70
96,264,50479,6,0,L|96:184,1,70
104,192,50526,6,0,L|104:112,1,70
128,192,50573,6,0,L|128:112,1,70
160,192,50604,6,0,L|160:112,1,70
192,192,50651,6,0,L|192:112,1,70
216,192,50698,6,0,L|216:112,1,70
248,192,50729,6,0,L|248:112,1,70
272,192,50776,6,0,L|272:112,1,70
296,192,50823,6,0,L|296:112,1,70
328,192,50838,6,0,L|328:112,1,70
360,192,50870,6,0,L|360:112,1,70
384,192,50917,6,0,L|384:112,1,70
416,192,50948,6,0,L|416:112,1,70
416,128,50995,6,0,L|416:48,1,70
392,128,51042,6,0,L|392:48,1,70
360,128,51073,6,0,L|360:48,1,70
328,128,51120,6,0,L|328:48,1,70
304,128,51167,6,0,L|304:48,1,70
272,128,51198,6,0,L|272:48,1,70
248,128,51245,6,0,L|248:48,1,70
224,128,51292,6,0,L|224:48,1,70
192,128,51307,6,0,L|192:48,1,70
160,128,51339,6,0,L|160:48,1,70
136,128,51386,6,0,L|136:48,1,70
104,128,51417,6,0,L|104:48,1,70
104,58,51494,6,2,L|152:56,7,35
256,56,51697,1,2,0:0:0:0:
256,56,51869,1,2,0:0:0:0:
256,56,52010,1,0,0:0:0:0:
256,56,52135,1,0,0:0:0:0:
256,56,52260,1,0,0:0:0:0:
256,56,52322,1,0,0:0:0:0:
256,56,52385,1,0,0:0:0:0:
104,58,52432,2,2,L|152:56,20,35
256,56,52900,1,2,0:0:0:0:
256,56,53025,1,2,0:0:0:0:
224,56,53182,1,2,0:0:0:0:
296,56,53260,1,2,0:0:0:0:
256,56,53338,1,2,0:0:0:0:
96,168,53494,6,0,L|208:232,11,105
232,184,54026,6,0,L|344:248,11,105
360,208,54572,6,0,L|481:163,11,105
448,128,55104,6,0,L|326:83,11,105
344,56,55635,6,0,L|465:11,11,105
432,56,56166,6,0,L|310:11,11,105
336,64,56697,6,0,L|218:117,11,105
224,64,57229,6,0,L|102:19,11,105
120,72,57760,6,0,L|119:200,11,105
120,216,58291,6,0,L|119:344,11,105
160,320,58822,6,0,L|280:296,11,105
400,272,59354,6,0,L|271:271,11,105
224,272,59885,6,0,L|95:271,11,105
400,272,60416,6,0,L|271:271,11,105
296,192,60947,6,8,L|200:192,81,70
256,192,64760,12,0,67494,0:0:0:0:
80,40,67526,5,0,0:0:0:0:
80,72,67541,1,0,0:0:0:0:
80,104,67557,1,0,0:0:0:0:
80,136,67572,1,0,0:0:0:0:
96,168,67588,1,0,0:0:0:0:
128,192,67604,1,0,0:0:0:0:
184,192,67619,1,0,0:0:0:0:
192,160,67635,1,0,0:0:0:0:
208,128,67651,1,0,0:0:0:0:
216,88,67666,1,0,0:0:0:0:
208,48,67682,1,0,0:0:0:0:
184,24,67697,1,0,0:0:0:0:
152,16,67713,1,0,0:0:0:0:
112,24,67729,1,0,0:0:0:0:
80,40,67744,5,0,0:0:0:0:
80,72,67759,1,0,0:0:0:0:
80,104,67775,1,0,0:0:0:0:
80,136,67790,1,0,0:0:0:0:
96,168,67806,1,0,0:0:0:0:
128,192,67822,1,0,0:0:0:0:
184,192,67837,1,0,0:0:0:0:
192,160,67853,1,0,0:0:0:0:
208,128,67869,1,0,0:0:0:0:
216,88,67884,1,0,0:0:0:0:
208,48,67900,1,0,0:0:0:0:
184,24,67915,1,0,0:0:0:0:
152,16,67931,1,0,0:0:0:0:
112,24,67947,1,0,0:0:0:0:
80,40,67963,6,0,L|152:136,1,105
184,128,68026,2,0,L|256:224,1,105
288,216,68088,2,0,L|360:312,1,105
384,296,68151,6,0,L|464:224,7,105
448,192,68494,6,0,L|304:160,1,140
280,120,68572,2,0,L|128:200,1,140
144,224,68651,2,0,L|200:352,7,140
232,328,69104,6,0,L|336:216,1,140
368,200,69182,2,0,L|488:128,1,140
472,88,69260,2,0,L|328:24,1,140
296,40,69338,2,0,L|136:80,1,140
128,96,69416,2,0,L|32:200,1,140
48,248,69494,1,0,0:0:0:0:
88,280,69510,1,0,0:0:0:0:
96,328,69526,1,0,0:0:0:0:
136,352,69541,1,0,0:0:0:0:
176,336,69557,2,0,L|280:336,1,105
312,304,69619,6,0,L|312:104,7,175
280,104,70197,2,0,L|224:56,20,70
176,48,70838,6,0,L|120:0,1,70
168,104,70885,6,0,L|112:56,1,70
160,160,70932,6,0,L|104:112,1,70
152,208,70979,6,0,L|96:160,1,70
144,256,71026,6,0,L|88:208,1,70
48,248,71072,6,0,L|120:368,1,140
160,344,71151,2,0,L|312:288,1,140
320,264,71229,2,0,L|224:168,1,105
232,144,71291,6,0,L|192:144,21,35
304,144,71635,6,0,L|264:144,21,35
272,192,71979,6,0,L|232:192,28,35
472,32,72510,6,0,L|472:192,1,140
456,200,72588,2,0,L|456:360,1,140
400,320,72666,2,0,L|400:160,1,140
472,32,72744,6,0,L|472:192,1,140
456,200,72822,2,0,L|456:360,1,140
400,320,72900,2,0,L|400:160,1,140
376,160,72978,6,0,L|376:0,1,140
328,16,73057,6,0,L|328:176,1,140
312,184,73135,2,0,L|312:344,1,140
256,304,73213,2,0,L|256:144,1,140
328,16,73291,6,0,L|328:176,1,140
312,184,73369,2,0,L|312:344,1,140
256,304,73447,2,0,L|256:144,1,140
232,144,73525,6,0,L|232:-16,1,140
168,24,73604,6,0,L|168:184,1,140
152,192,73682,2,0,L|152:352,1,140
96,312,73760,2,0,L|96:152,1,140
168,24,73838,6,0,L|168:184,1,140
152,192,73916,2,0,L|152:352,1,140
96,312,73994,2,0,L|96:152,1,140
72,152,74072,6,0,L|72:-8,1,140
40,32,74151,6,0,L|40:192,1,140
56,200,74229,2,0,L|56:360,1,140
112,320,74307,2,0,L|112:160,1,140
40,32,74385,6,0,L|40:192,1,140
56,200,74463,2,0,L|56:360,1,140
112,320,74541,2,0,L|112:160,1,140
136,160,74619,6,0,L|136:0,1,140
184,16,74698,6,0,L|184:176,1,140
200,184,74776,2,0,L|200:344,1,140
256,304,74854,2,0,L|256:144,1,140
184,16,74932,6,0,L|184:176,1,140
200,184,75010,2,0,L|200:344,1,140
256,304,75088,2,0,L|256:144,1,140
280,144,75166,6,0,L|280:-16,1,140
344,24,75245,6,0,L|344:184,1,140
360,192,75323,2,0,L|360:352,1,140
416,312,75401,2,0,L|416:152,1,140
344,24,75479,6,0,L|344:184,1,140
360,192,75557,2,0,L|360:352,1,140
416,312,75635,2,0,L|416:152,1,140
440,152,75713,6,0,L|440:-8,1,140
384,40,75791,6,0,L|272:88,1,105
240,104,75854,2,0,L|128:184,1,105
152,208,75916,2,0,L|256:256,1,105
344,240,75979,6,0,L|272:248,3,70
280,296,76088,2,0,L|352:296,2,70
352,344,76166,2,0,L|272:352,3,70
240,344,76276,2,0,P|24:304|88:128,1,455
176,32,76494,6,0,L|216:296,9,245
256,248,77494,2,0,L|296:232,13,35
304,192,77713,2,0,L|344:176,13,35
336,144,77932,2,0,L|376:128,13,35
376,88,78151,6,0,P|432:56|384:16,6,140
320,80,78541,6,0,L|232:96,12,70
208,88,78932,6,0,L|120:104,12,70
96,80,79322,6,0,L|112:0,70,70
512,384,81526,1,8,0:0:0:0:
512,384,81541,1,8,0:0:0:0:
512,384,81557,1,8,0:0:0:0:
512,384,81572,1,8,0:0:0:0:
512,384,81588,1,8,0:0:0:0:
512,384,81604,1,8,0:0:0:0:
512,384,81619,1,8,0:0:0:0:
512,384,81634,1,8,0:0:0:0:
512,384,81650,1,8,0:0:0:0:
512,384,81665,1,8,0:0:0:0:
512,384,81681,1,8,0:0:0:0:
512,384,81697,1,8,0:0:0:0:
512,384,81713,1,8,0:0:0:0:
512,384,81728,1,8,0:0:0:0:
512,384,81744,1,8,0:0:0:0:
512,384,81759,1,8,0:0:0:0:
512,384,81775,1,8,0:0:0:0:
512,384,81791,1,8,0:0:0:0:
512,384,81807,1,8,0:0:0:0:
512,384,81822,1,8,0:0:0:0:
512,384,81838,1,8,0:0:0:0:
512,384,81853,1,8,0:0:0:0:
512,384,81869,1,8,0:0:0:0:
512,384,81885,1,8,0:0:0:0:
512,384,81901,1,8,0:0:0:0:
512,384,81916,1,8,0:0:0:0:
512,384,81932,1,8,0:0:0:0:
512,384,81947,1,8,0:0:0:0:
512,384,81963,1,8,0:0:0:0:
512,384,81979,1,8,0:0:0:0:
512,384,81994,1,8,0:0:0:0:
512,384,82009,1,8,0:0:0:0:
512,384,82025,1,8,0:0:0:0:
512,384,82040,1,8,0:0:0:0:
512,384,82056,1,8,0:0:0:0:
512,384,82072,1,8,0:0:0:0:
512,384,82088,1,8,0:0:0:0:
512,384,82103,1,8,0:0:0:0:
512,384,82119,1,8,0:0:0:0:
512,384,82134,1,8,0:0:0:0:
512,384,82150,1,8,0:0:0:0:
512,384,82166,1,8,0:0:0:0:
512,384,82182,1,8,0:0:0:0:
512,384,82197,1,8,0:0:0:0:
512,384,82213,1,8,0:0:0:0:
512,384,82228,1,8,0:0:0:0:
512,384,82244,1,8,0:0:0:0:
512,384,82260,1,8,0:0:0:0:
512,384,82276,1,8,0:0:0:0:
512,384,82291,1,8,0:0:0:0:
512,384,82307,1,8,0:0:0:0:
512,384,82322,1,8,0:0:0:0:
512,384,82338,1,8,0:0:0:0:
512,384,82354,1,8,0:0:0:0:
512,384,82369,1,8,0:0:0:0:
512,384,82384,1,8,0:0:0:0:
512,384,82400,1,8,0:0:0:0:
512,384,82415,1,8,0:0:0:0:
512,384,82431,1,8,0:0:0:0:
512,384,82447,1,8,0:0:0:0:
512,384,82463,1,8,0:0:0:0:
512,384,82478,1,8,0:0:0:0:
512,384,82494,1,8,0:0:0:0:
512,384,82509,1,8,0:0:0:0:
512,384,82525,1,8,0:0:0:0:
512,384,82541,1,8,0:0:0:0:
512,384,82557,1,8,0:0:0:0:
512,384,82572,1,8,0:0:0:0:
512,384,82588,1,8,0:0:0:0:
512,384,82603,1,8,0:0:0:0:
512,384,82619,1,8,0:0:0:0:
512,384,82635,1,8,0:0:0:0:
512,384,82651,1,8,0:0:0:0:
512,384,82666,1,8,0:0:0:0:
512,384,82682,1,8,0:0:0:0:
512,384,82697,1,8,0:0:0:0:
512,384,82713,1,8,0:0:0:0:
512,384,82729,1,8,0:0:0:0:
512,384,82744,1,8,0:0:0:0:
512,384,82759,1,8,0:0:0:0:
512,384,82775,1,8,0:0:0:0:
512,384,82790,1,8,0:0:0:0:
512,384,82806,1,8,0:0:0:0:
512,384,82822,1,8,0:0:0:0:
512,384,82838,1,8,0:0:0:0:
512,384,82853,1,8,0:0:0:0:
512,384,82869,1,8,0:0:0:0:
512,384,82884,1,8,0:0:0:0:
512,384,82900,1,8,0:0:0:0:
512,384,82916,1,8,0:0:0:0:
512,384,82932,1,8,0:0:0:0:
512,384,82947,1,8,0:0:0:0:
512,384,82963,1,8,0:0:0:0:
512,384,82978,1,8,0:0:0:0:
512,384,82994,1,8,0:0:0:0:
512,384,83010,1,8,0:0:0:0:
512,384,83026,1,8,0:0:0:0:
512,384,83041,1,8,0:0:0:0:
512,384,83057,1,8,0:0:0:0:
512,384,83072,1,8,0:0:0:0:
512,384,83088,1,8,0:0:0:0:
512,384,83104,1,8,0:0:0:0:
512,384,83119,1,8,0:0:0:0:
512,384,83134,1,8,0:0:0:0:
512,384,83150,1,8,0:0:0:0:
512,384,83165,1,8,0:0:0:0:
512,384,83181,1,8,0:0:0:0:
512,384,83197,1,8,0:0:0:0:
512,384,83213,1,8,0:0:0:0:
512,384,83228,1,8,0:0:0:0:
512,384,83244,1,8,0:0:0:0:
512,384,83259,1,8,0:0:0:0:
512,384,83275,1,8,0:0:0:0:
512,384,83291,1,8,0:0:0:0:
512,384,83307,1,8,0:0:0:0:
512,384,83322,1,8,0:0:0:0:
512,384,83338,1,8,0:0:0:0:
512,384,83353,1,8,0:0:0:0:
512,384,83369,1,8,0:0:0:0:
512,384,83385,1,8,0:0:0:0:
440,328,85526,5,0,0:0:0:0:
304,328,85776,1,0,0:0:0:0:
176,328,86026,1,0,0:0:0:0:
48,256,86261,1,0,0:0:0:0:
112,208,86401,1,0,0:0:0:0:
200,160,86526,5,0,0:0:0:0:
304,152,86776,1,0,0:0:0:0:
440,152,87026,1,0,0:0:0:0:
368,56,87276,1,0,0:0:0:0:
272,56,87526,2,0,L|224:56,3,35
104,64,87776,5,0,0:0:0:0:
200,160,88026,1,0,0:0:0:0:
368,192,88276,1,0,0:0:0:0:
464,296,88386,1,0,0:0:0:0:
464,296,88495,1,0,0:0:0:0:
328,336,88745,5,0,0:0:0:0:
184,296,89026,1,0,0:0:0:0:
72,192,89276,1,0,0:0:0:0:
232,104,89526,1,0,0:0:0:0:
280,96,89542,2,0,L|344:88,3,35
440,272,96994,6,0,B|336:272|336:272|384:296,1,140
408,224,97072,2,0,B|304:224|304:224|352:248,1,140
344,152,97104,2,0,B|240:152|240:152|288:176,1,140
376,184,97151,2,0,B|272:184|272:184|320:208,1,140,0|0,0:0|0:0,0:0:0:0:
312,104,97182,2,0,B|208:104|208:104|256:128,1,140
280,64,97261,2,0,B|176:64|176:64|224:88,1,140,0|0,0:0|0:0,0:0:0:0:
208,80,97338,6,0,B|312:80|312:80|264:56,1,140
240,128,97416,2,0,B|344:128|344:128|296:104,1,140
272,168,97495,2,0,B|376:168|376:168|328:144,1,140,0|0,0:0|0:0,0:0:0:0:
304,208,97526,2,0,B|408:208|408:208|360:184,1,140
336,256,97604,2,0,B|440:256|440:256|392:232,1,140
368,296,97683,2,0,B|472:296|472:296|424:272,1,140,0|0,0:0|0:0,0:0:0:0:
72,272,97760,6,0,B|176:272|176:272|128:296,1,140
104,224,97838,2,0,B|208:224|208:224|160:248,1,140
168,152,97870,2,0,B|272:152|272:152|224:176,1,140
136,184,97917,2,0,B|240:184|240:184|192:208,1,140,0|0,0:0|0:0,0:0:0:0:
200,104,97948,2,0,B|304:104|304:104|256:128,1,140
232,64,98027,2,0,B|336:64|336:64|288:88,1,140,0|0,0:0|0:0,0:0:0:0:
304,80,98104,6,0,B|200:80|200:80|248:56,1,140
272,128,98182,2,0,B|168:128|168:128|216:104,1,140
240,168,98261,2,0,B|136:168|136:168|184:144,1,140,0|0,0:0|0:0,0:0:0:0:
208,208,98292,2,0,B|104:208|104:208|152:184,1,140
176,256,98370,2,0,B|72:256|72:256|120:232,1,140
144,296,98449,2,0,B|40:296|40:296|88:272,1,140,0|0,0:0|0:0,0:0:0:0:
256,328,98526,6,0,L|256:232|256:336,1,175
352,192,98619,2,0,L|352:96|352:200,1,175
456,112,98713,2,0,L|456:16|456:120,1,175
456,16,98807,6,0,L|456:112|456:8,1,175
360,152,98900,2,0,L|360:248|360:144,1,175
256,232,98994,2,0,L|256:328|256:224,1,175
256,328,99088,6,0,L|256:232|256:336,1,175
160,192,99181,2,0,L|160:96|160:200,1,175
56,112,99275,2,0,L|56:16|56:120,1,175
104,40,99369,6,0,L|168:40,1,35
176,40,99401,2,0,L|224:40,1,35
240,72,99432,2,0,L|280:96,1,35
272,136,99463,2,0,L|264:176,1,35
248,200,99494,2,0,L|192:240,1,35
184,240,99526,2,0,L|136:264,1,35
152,296,99557,2,0,L|192:344,1,35
192,352,99588,2,0,L|256:368,1,35
264,360,99604,2,0,L|312:360,1,35
328,336,99635,2,0,L|352:296,1,35
408,240,99666,6,0,L|368:272,1,35
344,272,99697,2,0,L|296:272,1,35
280,288,99729,2,0,L|224:304,1,35
224,264,99760,2,0,L|264:216,1,35
272,208,99791,2,0,L|328:192,1,35
328,168,99822,2,0,L|368:128,1,35
352,112,99854,2,0,P|368:64|360:120,1,175
352,112,99932,2,0,P|368:64|360:120,1,175
352,112,100010,2,0,P|368:64|360:120,1,175
352,112,100088,2,0,P|368:64|360:120,1,175
352,112,100166,2,0,P|368:64|360:120,1,175
352,112,100244,2,0,P|368:64|360:120,1,175
352,112,100322,2,0,P|368:64|360:120,1,175
352,112,100401,2,0,P|368:64|360:120,1,175
352,112,100479,5,0,0:0:0:0:
312,120,100494,1,0,0:0:0:0:
288,144,100510,1,0,0:0:0:0:
288,184,100526,1,0,0:0:0:0:
312,216,100541,1,0,0:0:0:0:
344,240,100557,1,0,0:0:0:0:
376,272,100572,1,0,0:0:0:0:
384,312,100588,1,0,0:0:0:0:
352,344,100604,1,0,0:0:0:0:
312,336,100619,1,0,0:0:0:0:
272,304,100635,1,0,0:0:0:0:
248,264,100651,1,0,0:0:0:0:
248,256,100666,2,0,P|200:239|256:248,1,175
256,224,100744,2,0,P|208:207|264:216,1,175
280,176,100822,2,0,P|232:159|288:168,1,175
288,144,100901,2,0,P|240:127|296:136,1,175
352,72,100994,6,0,B|368:40|368:40|400:72|400:72,8,70
320,96,101260,6,0,B|286:84|286:84|286:129|286:129,8,70
264,160,101526,2,0,B|230:148|230:148|230:193|230:193,8,70,0|0|0|0|0|0|0|0|0,0:0|0:0|0:0|0:0|0:0|0:0|0:0|0:0|0:0,0:0:0:0:
208,152,101791,6,0,B|240:168|240:168|208:200|208:200,8,70
184,120,102057,6,0,B|195:86|195:86|150:86|150:86,8,70
120,64,102323,2,0,B|131:30|131:30|86:30|86:30,8,70,0|0|0|0|0|0|0|0|0,0:0|0:0|0:0|0:0|0:0|0:0|0:0|0:0|0:0,0:0:0:0:
112,104,102588,6,0,L|40:120,1,70
48,160,102635,2,0,L|128:200,5,70
112,224,102807,6,0,L|40:240,1,70
48,280,102854,2,0,L|128:320,5,70
160,288,103026,2,0,L|224:240,10,70
344,152,103354,6,0,L|264:216,52,70
72,32,104994,6,0,L|144:32,1,70
208,32,105026,6,0,L|280:32,1,70
352,32,105088,6,0,L|424:32,1,70
472,80,105135,6,0,L|472:152,1,70
472,200,105182,6,0,L|472:272,1,70
472,296,105229,6,0,L|472:368,1,70
416,352,105276,6,0,L|344:352,1,70
280,352,105322,6,0,L|208:352,1,70
144,352,105369,6,0,L|72:352,1,70
40,336,105416,6,0,L|40:264,1,70
40,216,105463,6,0,L|40:144,1,70
40,120,105510,6,0,L|40:48,1,70
72,32,105557,6,0,L|144:32,1,70
208,32,105589,6,0,L|280:32,1,70
352,32,105651,6,0,L|424:32,1,70
472,80,105698,6,0,L|472:152,1,70
472,200,105745,6,0,L|472:272,1,70
472,296,105792,6,0,L|472:368,1,70
416,352,105839,6,0,L|344:352,1,70
280,352,105885,6,0,L|208:352,1,70
144,352,105932,6,0,L|72:352,1,70
40,336,105979,6,0,L|40:264,1,70
40,216,106026,6,0,L|40:144,1,70
40,120,106073,6,0,L|40:48,1,70
72,32,106119,6,0,L|144:32,1,70
208,32,106151,6,0,L|280:32,1,70
352,32,106213,6,0,L|424:32,1,70
472,80,106260,6,0,L|472:152,1,70
472,200,106307,6,0,L|472:272,1,70
472,296,106354,6,0,L|472:368,1,70
416,352,106401,6,0,L|344:352,1,70
280,352,106447,6,0,L|208:352,1,70
144,352,106494,6,0,L|72:352,1,70
40,336,106541,6,0,L|40:264,1,70
40,216,106588,6,0,L|40:144,1,70
40,120,106635,6,0,L|40:48,1,70
72,32,106682,6,0,L|144:32,1,70
208,32,106714,6,0,L|280:32,1,70
352,32,106776,6,0,L|424:32,1,70
472,80,106823,6,0,L|472:152,1,70
472,200,106870,6,0,L|472:272,1,70
472,296,106917,6,0,L|472:368,1,70
416,352,106964,6,0,L|344:352,1,70
280,352,107010,6,0,L|208:352,1,70
144,352,107057,6,0,L|72:352,1,70
40,336,107104,6,0,L|40:264,1,70
40,216,107151,6,0,L|40:144,1,70
40,120,107198,6,0,L|40:48,1,70
72,32,107244,6,0,L|144:32,1,70
208,32,107276,6,0,L|280:32,1,70
352,32,107338,6,0,L|424:32,1,70
472,80,107385,6,0,L|472:152,1,70
472,200,107432,6,0,L|472:272,1,70
472,296,107479,6,0,L|472:368,1,70
416,352,107526,6,0,L|344:352,1,70
280,352,107572,6,0,L|208:352,1,70
144,352,107619,6,0,L|72:352,1,70
40,336,107666,6,0,L|40:264,1,70
40,216,107713,6,0,L|40:144,1,70
40,120,107760,6,0,L|40:48,1,70
40,216,107807,6,0,L|40:144,1,70
40,336,107854,6,0,L|40:264,1,70
144,352,107901,6,0,L|72:352,1,70
280,352,107947,6,0,L|208:352,1,70
416,352,107994,6,0,L|344:352,1,70
472,296,108057,6,0,L|472:368,1,70
472,200,108088,6,0,L|472:272,1,70
472,80,108151,6,0,L|472:152,1,70
352,32,108197,6,0,L|424:32,1,70
208,32,108244,6,0,L|280:32,1,70
72,32,108291,6,0,L|144:32,1,70
40,120,108338,6,0,L|40:48,1,70
40,216,108385,6,0,L|40:144,1,70
40,336,108432,6,0,L|40:264,1,70
144,352,108479,6,0,L|72:352,1,70
280,352,108525,6,0,L|208:352,1,70
416,352,108572,6,0,L|344:352,1,70
472,296,108635,6,0,L|472:368,1,70
472,200,108666,6,0,L|472:272,1,70
472,80,108729,6,0,L|472:152,1,70
352,32,108775,6,0,L|424:32,1,70
208,32,108822,6,0,L|280:32,1,70
72,32,108869,6,0,L|144:32,1,70
88,96,108916,6,0,B|136:120|64:152|64:152|128:184,14,140
160,192,109807,2,0,B|208:216|136:248|136:248|200:280,16,140
232,176,110838,5,0,0:0:0:0:
232,176,110854,1,0,0:0:0:0:
232,176,110869,1,0,0:0:0:0:
296,208,110885,1,0,0:0:0:0:
296,208,110901,1,0,0:0:0:0:
296,208,110916,1,0,0:0:0:0:
360,240,110932,1,0,0:0:0:0:
360,240,110947,1,0,0:0:0:0:
360,240,110963,1,0,0:0:0:0:
360,152,110979,5,0,0:0:0:0:
360,152,110995,1,0,0:0:0:0:
360,152,111010,1,0,0:0:0:0:
296,120,111026,1,0,0:0:0:0:
296,120,111042,1,0,0:0:0:0:
296,120,111057,1,0,0:0:0:0:
232,88,111073,1,0,0:0:0:0:
232,88,111088,1,0,0:0:0:0:
232,88,111104,1,0,0:0:0:0:
280,176,111119,5,0,0:0:0:0:
280,176,111135,1,0,0:0:0:0:
280,176,111150,1,0,0:0:0:0:
216,208,111166,1,0,0:0:0:0:
216,208,111182,1,0,0:0:0:0:
216,208,111197,1,0,0:0:0:0:
152,240,111213,1,0,0:0:0:0:
152,240,111228,1,0,0:0:0:0:
152,240,111244,1,0,0:0:0:0:
152,152,111260,5,0,0:0:0:0:
152,152,111276,1,0,0:0:0:0:
152,152,111291,1,0,0:0:0:0:
216,120,111307,1,0,0:0:0:0:
216,120,111323,1,0,0:0:0:0:
216,120,111338,1,0,0:0:0:0:
280,88,111354,1,0,0:0:0:0:
280,88,111369,1,0,0:0:0:0:
280,88,111385,1,0,0:0:0:0:
232,176,111401,5,0,0:0:0:0:
232,176,111417,1,0,0:0:0:0:
232,176,111432,1,0,0:0:0:0:
296,208,111448,1,0,0:0:0:0:
296,208,111464,1,0,0:0:0:0:
296,208,111479,1,0,0:0:0:0:
360,240,111495,1,0,0:0:0:0:
360,240,111510,1,0,0:0:0:0:
360,240,111526,1,0,0:0:0:0:
360,152,111542,5,0,0:0:0:0:
360,152,111558,1,0,0:0:0:0:
360,152,111573,1,0,0:0:0:0:
296,120,111589,1,0,0:0:0:0:
296,120,111605,1,0,0:0:0:0:
296,120,111620,1,0,0:0:0:0:
232,88,111636,1,0,0:0:0:0:
232,88,111651,1,0,0:0:0:0:
232,88,111667,1,0,0:0:0:0:
280,176,111682,5,0,0:0:0:0:
280,176,111698,1,0,0:0:0:0:
280,176,111713,1,0,0:0:0:0:
216,208,111729,1,0,0:0:0:0:
216,208,111745,1,0,0:0:0:0:
216,208,111760,1,0,0:0:0:0:
152,240,111776,1,0,0:0:0:0:
152,240,111791,1,0,0:0:0:0:
152,240,111807,1,0,0:0:0:0:
152,152,111823,5,0,0:0:0:0:
152,152,111839,1,0,0:0:0:0:
152,152,111854,1,0,0:0:0:0:
216,120,111870,1,0,0:0:0:0:
216,120,111886,1,0,0:0:0:0:
216,120,111901,1,0,0:0:0:0:
280,88,111917,1,0,0:0:0:0:
280,88,111932,1,0,0:0:0:0:
280,88,111948,1,0,0:0:0:0:
336,48,111963,6,0,B|424:48|424:48|400:112,6,140
416,136,112354,2,0,B|504:136|504:136|480:200,7,140
464,224,112807,1,0,0:0:0:0:
432,264,112822,1,0,0:0:0:0:
392,288,112838,1,0,0:0:0:0:
344,288,112854,1,0,0:0:0:0:
296,272,112869,1,0,0:0:0:0:
264,240,112885,1,0,0:0:0:0:
216,248,112901,1,0,0:0:0:0:
184,280,112916,1,0,0:0:0:0:
136,304,112932,1,0,0:0:0:0:
72,280,112947,1,0,0:0:0:0:
24,216,112963,1,0,0:0:0:0:
24,128,112979,1,0,0:0:0:0:
88,32,113010,1,0,0:0:0:0:
152,56,113026,6,2,L|208:112,1,70
232,80,113072,6,2,L|288:136,1,70
328,112,113119,6,2,L|384:168,1,70
408,136,113165,6,2,L|464:192,1,70
424,176,113213,6,2,L|347:196,1,70
363,233,113259,6,2,L|286:253,1,70
287,300,113306,6,2,L|210:320,1,70
226,357,113352,6,2,L|149:377,1,70
307,329,113401,6,2,L|251:273,1,70
227,305,113447,6,2,L|171:249,1,70
131,273,113494,6,2,L|75:217,1,70
51,249,113540,6,2,L|-5:193,1,70
35,209,113588,6,2,L|111:188,1,70
96,152,113634,6,2,L|172:131,1,70
172,85,113681,6,2,L|248:64,1,70
233,28,113727,6,2,L|309:7,1,70
200,48,113777,6,2,L|256:104,1,70
280,72,113823,6,2,L|336:128,1,70
376,104,113870,6,2,L|432:160,1,70
456,128,113916,6,2,L|512:184,1,70
472,168,113964,6,2,L|395:188,1,70
411,225,114010,6,2,L|334:245,1,70
335,292,114057,6,2,L|258:312,1,70
274,349,114103,6,2,L|197:369,1,70
307,329,114151,6,2,L|251:273,1,70
227,305,114197,6,2,L|171:249,1,70
131,273,114244,6,2,L|75:217,1,70
51,249,114290,6,2,L|-5:193,1,70
35,209,114338,6,2,L|111:188,1,70
96,152,114384,6,2,L|172:131,1,70
172,85,114431,6,2,L|248:64,1,70
233,28,114477,6,2,L|309:7,1,70
200,48,114527,6,2,L|256:104,1,70
280,72,114573,6,2,L|336:128,1,70
376,104,114620,6,2,L|432:160,1,70
456,128,114666,6,2,L|512:184,1,70
472,168,114714,6,2,L|395:188,1,70
411,225,114760,6,2,L|334:245,1,70
335,292,114807,6,2,L|258:312,1,70
274,349,114853,6,2,L|197:369,1,70
307,329,114901,6,2,L|251:273,1,70
227,305,114947,6,2,L|171:249,1,70
131,273,114994,6,2,L|75:217,1,70
51,249,115040,6,2,L|-5:193,1,70
35,209,115088,6,2,L|111:188,1,70
96,152,115134,6,2,L|172:131,1,70
172,85,115181,6,2,L|248:64,1,70
233,28,115227,6,2,L|309:7,1,70
200,48,115277,6,2,L|256:104,1,70
280,72,115323,6,2,L|336:128,1,70
376,104,115370,6,2,L|432:160,1,70
456,128,115416,6,2,L|512:184,1,70
472,168,115464,6,2,L|395:188,1,70
411,225,115510,6,2,L|334:245,1,70
335,292,115557,6,2,L|258:312,1,70
274,349,115603,6,2,L|197:369,1,70
307,329,115651,6,2,L|251:273,1,70
227,305,115697,6,2,L|171:249,1,70
131,273,115744,6,2,L|75:217,1,70
51,249,115790,6,2,L|-5:193,1,70
35,209,115838,6,2,L|111:188,1,70
96,152,115884,6,2,L|172:131,1,70
172,85,115931,6,2,L|248:64,1,70
233,28,115977,6,2,L|309:7,1,70
200,48,116027,6,2,L|256:104,1,70
280,72,116073,6,2,L|336:128,1,70
376,104,116120,6,2,L|432:160,1,70
456,128,116166,6,2,L|512:184,1,70
472,168,116214,6,2,L|395:188,1,70
411,225,116260,6,2,L|334:245,1,70
335,292,116307,6,2,L|258:312,1,70
274,349,116353,6,2,L|197:369,1,70
307,329,116401,6,2,L|251:273,1,70
227,305,116447,6,2,L|171:249,1,70
131,273,116494,6,2,L|75:217,1,70
51,249,116540,6,2,L|-5:193,1,70
35,209,116588,6,2,L|111:188,1,70
96,152,116634,6,2,L|172:131,1,70
172,85,116681,6,2,L|248:64,1,70
233,28,116727,6,2,L|309:7,1,70
200,48,116777,6,2,L|256:104,1,70
280,72,116823,6,2,L|336:128,1,70
376,104,116870,6,2,L|432:160,1,70
456,128,116916,6,2,L|512:184,1,70
472,168,116964,6,2,L|395:188,1,70
411,225,117010,6,2,L|334:245,1,70
335,292,117057,6,2,L|258:312,1,70
274,349,117103,6,2,L|197:369,1,70
152,320,117151,6,0,L|224:272,16,70
248,232,117666,2,0,L|320:192,1,70
304,144,117713,2,0,L|376:96,16,70
400,56,118228,2,0,L|472:16,1,70
360,320,118276,6,0,L|288:272,16,70
264,232,118791,2,0,L|192:192,1,70
208,144,118838,2,0,L|136:96,16,70
112,56,119353,2,0,L|40:16,1,70
152,320,119401,6,0,L|224:272,16,70
248,232,119916,2,0,L|320:192,1,70
304,144,119963,2,0,L|376:96,16,70
400,56,120478,2,0,L|472:16,1,70
472,88,120526,2,0,L|472:200,9,105
440,184,120994,6,0,L|384:184,21,35
256,192,121338,6,0,L|200:192,21,35
64,192,121682,6,0,L|8:192,41,35
48,136,122338,6,0,P|56:104|88:128,30,70
112,152,123291,2,0,B|192:184|168:176,3,70
240,192,123385,2,8,L|280:192,107,35
256,192,129994,5,8,0:0:0:0:
352,32,132010,5,8,0:0:0:0:
312,64,132026,6,0,P|336:144|432:72,8,245
272,48,132932,6,0,P|280:112|152:56,8,280
80,320,134026,5,8,0:0:0:0:
96,280,134041,6,0,B|128:200|128:200|168:288|168:288|232:192|232:192|224:184,7,280
248,192,134932,5,8,0:0:0:0:
264,152,134947,6,0,B|296:72|296:72|336:160|336:160|400:64|400:64|392:56,8,280
256,280,135994,5,8,0:0:0:0:
256,240,136026,6,0,B|208:224|208:224|304:200|304:200|240:96,13,245,0|0|0|0|0|8|0|0|0|0|8|0|0|8,0:0|0:0|0:0|0:0|0:0|0:0|0:0|0:0|0:0|0:0|0:0|0:0|0:0|0:0,0:0:0:0:
160,64,137494,1,0,0:0:0:0:
256,56,137604,1,0,0:0:0:0:
360,64,137713,1,0,0:0:0:0:
424,136,137822,1,0,0:0:0:0:
336,176,137932,1,0,0:0:0:0:
256,256,138010,6,0,L|256:112,1,140
256,256,138135,2,0,L|256:112,1,140
256,256,138260,2,0,L|256:112,1,140
256,256,138385,2,0,L|256:112,1,140
256,256,138510,2,0,L|256:112,1,140
256,256,138635,2,0,L|256:112,1,140
256,256,138760,2,0,L|256:112,1,140
256,256,138885,2,0,L|256:112,1,140
256,256,139010,2,0,L|256:112,1,140
256,256,139135,2,0,L|256:112,1,140
256,256,139260,2,0,L|256:112,1,140
256,256,139385,2,0,L|256:112,1,140
256,256,139510,2,0,L|256:112,1,140
256,256,139635,2,0,L|256:112,1,140
256,256,139760,2,0,L|256:112,1,140
256,256,139885,2,0,L|256:112,1,140
408,48,140026,5,0,0:0:0:0:
448,64,140041,5,0,0:0:0:0:
400,80,140057,5,0,0:0:0:0:
440,96,140072,5,0,0:0:0:0:
376,136,140088,5,0,0:0:0:0:
416,144,140103,5,0,0:0:0:0:
368,168,140119,5,0,0:0:0:0:
408,184,140134,5,0,0:0:0:0:
352,208,140151,5,0,0:0:0:0:
392,224,140166,5,0,0:0:0:0:
344,240,140182,5,0,0:0:0:0:
384,256,140197,5,0,0:0:0:0:
320,296,140213,5,0,0:0:0:0:
360,304,140228,5,0,0:0:0:0:
312,328,140244,5,0,0:0:0:0:
352,344,140259,5,0,0:0:0:0:
348,327,140276,5,0,0:0:0:0:
307,337,140291,5,0,0:0:0:0:
336,296,140307,5,0,0:0:0:0:
294,306,140322,5,0,0:0:0:0:
322,236,140338,5,0,0:0:0:0:
285,254,140353,5,0,0:0:0:0:
310,206,140369,5,0,0:0:0:0:
268,216,140384,5,0,0:0:0:0:
300,164,140401,5,0,0:0:0:0:
258,175,140416,5,0,0:0:0:0:
287,134,140432,5,0,0:0:0:0:
245,144,140447,5,0,0:0:0:0:
274,74,140463,5,0,0:0:0:0:
237,91,140478,5,0,0:0:0:0:
261,44,140494,5,0,0:0:0:0:
220,54,140509,5,0,0:0:0:0:
208,32,140526,5,0,0:0:0:0:
248,48,140541,5,0,0:0:0:0:
200,64,140557,5,0,0:0:0:0:
240,80,140572,5,0,0:0:0:0:
176,120,140588,5,0,0:0:0:0:
216,128,140603,5,0,0:0:0:0:
168,152,140619,5,0,0:0:0:0:
208,168,140634,5,0,0:0:0:0:
152,192,140651,5,0,0:0:0:0:
192,208,140666,5,0,0:0:0:0:
144,224,140682,5,0,0:0:0:0:
184,240,140697,5,0,0:0:0:0:
120,280,140713,5,0,0:0:0:0:
160,288,140728,5,0,0:0:0:0:
112,312,140744,5,0,0:0:0:0:
152,328,140759,5,0,0:0:0:0:
148,311,140776,5,0,0:0:0:0:
107,321,140791,5,0,0:0:0:0:
136,280,140807,5,0,0:0:0:0:
94,290,140822,5,0,0:0:0:0:
122,220,140838,5,0,0:0:0:0:
85,238,140853,5,0,0:0:0:0:
110,190,140869,5,0,0:0:0:0:
68,200,140884,5,0,0:0:0:0:
100,148,140901,5,0,0:0:0:0:
58,159,140916,5,0,0:0:0:0:
87,118,140932,5,0,0:0:0:0:
45,128,140947,5,0,0:0:0:0:
74,58,140963,5,0,0:0:0:0:
37,75,140978,5,0,0:0:0:0:
61,28,140994,5,0,0:0:0:0:
20,38,141009,5,0,0:0:0:0:
104,48,141026,5,0,0:0:0:0:
64,64,141041,5,0,0:0:0:0:
112,80,141057,5,0,0:0:0:0:
72,96,141072,5,0,0:0:0:0:
136,136,141088,5,0,0:0:0:0:
96,144,141103,5,0,0:0:0:0:
144,168,141119,5,0,0:0:0:0:
104,184,141134,5,0,0:0:0:0:
160,208,141151,5,0,0:0:0:0:
120,224,141166,5,0,0:0:0:0:
168,240,141182,5,0,0:0:0:0:
128,256,141197,5,0,0:0:0:0:
192,296,141213,5,0,0:0:0:0:
152,304,141228,5,0,0:0:0:0:
200,328,141244,5,0,0:0:0:0:
160,344,141259,5,0,0:0:0:0:
164,327,141276,5,0,0:0:0:0:
205,337,141291,5,0,0:0:0:0:
176,296,141307,5,0,0:0:0:0:
218,306,141322,5,0,0:0:0:0:
190,236,141338,5,0,0:0:0:0:
227,254,141353,5,0,0:0:0:0:
202,206,141369,5,0,0:0:0:0:
244,216,141384,5,0,0:0:0:0:
212,164,141401,5,0,0:0:0:0:
254,175,141416,5,0,0:0:0:0:
225,134,141432,5,0,0:0:0:0:
267,144,141447,5,0,0:0:0:0:
238,74,141463,5,0,0:0:0:0:
275,91,141478,5,0,0:0:0:0:
292,54,141509,5,0,0:0:0:0:
304,32,141526,5,0,0:0:0:0:
264,48,141541,5,0,0:0:0:0:
312,64,141557,5,0,0:0:0:0:
272,80,141572,5,0,0:0:0:0:
336,120,141588,5,0,0:0:0:0:
296,128,141603,5,0,0:0:0:0:
344,152,141619,5,0,0:0:0:0:
304,168,141634,5,0,0:0:0:0:
360,192,141651,5,0,0:0:0:0:
320,208,141666,5,0,0:0:0:0:
368,224,141682,5,0,0:0:0:0:
328,240,141697,5,0,0:0:0:0:
392,280,141713,5,0,0:0:0:0:
352,288,141728,5,0,0:0:0:0:
400,312,141744,5,0,0:0:0:0:
360,328,141759,5,0,0:0:0:0:
364,311,141776,5,0,0:0:0:0:
405,321,141791,5,0,0:0:0:0:
376,280,141807,5,0,0:0:0:0:
418,290,141822,5,0,0:0:0:0:
390,220,141838,5,0,0:0:0:0:
427,238,141853,5,0,0:0:0:0:
402,190,141869,5,0,0:0:0:0:
444,200,141884,5,0,0:0:0:0:
412,148,141901,5,0,0:0:0:0:
454,159,141916,5,0,0:0:0:0:
425,118,141932,5,0,0:0:0:0:
467,128,141947,5,0,0:0:0:0:
438,58,141963,5,0,0:0:0:0:
475,75,141978,5,0,0:0:0:0:
451,28,141994,5,0,0:0:0:0:
492,38,142009,5,0,0:0:0:0:
384,24,142026,6,0,B|376:64|376:64|336:16|336:16|320:40|304:48,1,140
376,48,142104,6,0,B|368:88|368:88|328:40|328:40|312:64|296:72,1,140
368,88,142182,6,0,B|360:128|360:128|320:80|320:80|304:104|288:112,1,140
352,144,142260,6,0,B|344:184|344:184|304:136|304:136|288:160|272:168,1,140
328,208,142338,6,0,B|320:248|320:248|280:200|280:200|264:224|248:232,1,140
304,264,142416,6,0,B|296:304|296:304|256:256|256:256|240:280|224:288,1,140
280,328,142494,6,0,B|272:368|272:368|232:320|232:320|216:344|200:352,1,140
256,344,142572,6,0,B|248:304|248:304|208:352|208:352|192:328|176:320,1,140
240,288,142650,6,0,B|232:248|232:248|192:296|192:296|176:272|160:264,1,140
216,224,142728,6,0,B|208:184|208:184|168:232|168:232|152:208|136:200,1,140
192,168,142806,6,0,B|184:128|184:128|144:176|144:176|128:152|112:144,1,140
168,104,142884,6,0,B|160:64|160:64|120:112|120:112|104:88|88:80,1,140
72,32,142963,6,0,L|176:96,1,105
56,80,143026,2,0,L|160:144,1,105
48,128,143088,2,0,L|152:192,1,105
40,176,143151,2,0,L|144:240,1,105
24,224,143214,2,0,L|128:288,1,105
16,272,143276,2,0,L|120:336,1,105
160,320,143338,6,0,L|264:256,1,105
144,272,143401,2,0,L|248:208,1,105
136,224,143463,2,0,L|240:160,1,105
120,168,143526,2,0,L|224:104,1,105
112,120,143588,2,0,L|216:56,1,105
96,64,143651,2,0,L|200:0,1,105
56,80,143713,2,0,L|160:144,1,105
48,128,143775,2,0,L|152:192,1,105
40,176,143838,2,0,L|144:240,1,105
24,224,143901,2,0,L|128:288,1,105
16,272,143963,2,0,L|120:336,1,105
160,320,144025,6,0,L|264:256,1,105
144,272,144088,2,0,L|248:208,1,105
136,224,144150,2,0,L|240:160,1,105
120,168,144213,2,0,L|224:104,1,105
112,120,144275,2,0,L|216:56,1,105
96,64,144338,2,0,L|200:0,1,105
312,24,144401,6,0,L|416:88,1,105
296,72,144464,2,0,L|400:136,1,105
288,120,144526,2,0,L|392:184,1,105
280,168,144589,2,0,L|384:232,1,105
264,216,144652,2,0,L|368:280,1,105
256,264,144714,2,0,L|360:328,1,105
400,312,144776,6,0,L|504:248,1,105
384,264,144839,2,0,L|488:200,1,105
376,216,144901,2,0,L|480:152,1,105
360,160,144964,2,0,L|464:96,1,105
352,112,145026,2,0,L|456:48,1,105
336,56,145089,2,0,L|440:-8,1,105
296,72,145151,2,0,L|400:136,1,105
288,120,145213,2,0,L|392:184,1,105
280,168,145276,2,0,L|384:232,1,105
264,216,145339,2,0,L|368:280,1,105
256,264,145401,2,0,L|360:328,1,105
400,312,145463,6,0,L|504:248,1,105
384,264,145526,2,0,L|488:200,1,105
376,216,145588,2,0,L|480:152,1,105
360,160,145651,2,0,L|464:96,1,105
352,112,145713,2,0,L|456:48,1,105
336,56,145776,2,0,L|440:-8,1,105
432,24,145838,6,0,B|432:128|432:128|432:152,1,105
432,152,145901,2,0,B|432:256|432:256|432:280,1,105
432,272,145963,2,0,B|432:376|432:376|432:400,1,105
432,360,146026,6,0,B|432:256|432:256|432:232,1,105
432,232,146089,2,0,B|432:128|432:128|432:104,1,105
432,112,146151,2,0,B|432:8|432:8|432:-16,1,105
432,24,146213,6,0,B|432:128|432:128|432:152,1,105
432,152,146276,2,0,B|432:256|432:256|432:280,1,105
432,272,146338,2,0,B|432:376|432:376|432:400,1,105
368,360,146401,6,0,B|368:256|368:256|368:232,1,105
368,232,146464,2,0,B|368:128|368:128|368:104,1,105
368,112,146526,2,0,B|368:8|368:8|368:-16,1,105
368,24,146588,6,0,B|368:128|368:128|368:152,1,105
368,152,146651,2,0,B|368:256|368:256|368:280,1,105
368,272,146713,2,0,B|368:376|368:376|368:400,1,105
304,360,146776,6,0,B|304:256|304:256|304:232,1,105
304,232,146839,2,0,B|304:128|304:128|304:104,1,105
304,112,146901,2,0,B|304:8|304:8|304:-16,1,105
304,24,146963,6,0,B|304:128|304:128|304:152,1,105
304,152,147026,2,0,B|304:256|304:256|304:280,1,105
304,272,147088,2,0,B|304:376|304:376|304:400,1,105
248,360,147151,6,0,B|248:256|248:256|248:232,1,105
248,232,147214,2,0,B|248:128|248:128|248:104,1,105
248,112,147276,2,0,B|248:8|248:8|248:-16,1,105
248,24,147338,6,0,B|248:128|248:128|248:152,1,105
248,152,147401,2,0,B|248:256|248:256|248:280,1,105
248,272,147463,2,0,B|248:376|248:376|248:400,1,105
192,360,147526,6,0,B|192:256|192:256|192:232,1,105
192,232,147589,2,0,B|192:128|192:128|192:104,1,105
192,112,147651,2,0,B|192:8|192:8|192:-16,1,105
192,24,147713,6,0,B|192:128|192:128|192:152,1,105
192,152,147776,2,0,B|192:256|192:256|192:280,1,105
192,272,147838,2,0,B|192:376|192:376|192:400,1,105
136,360,147901,6,0,B|136:256|136:256|136:232,1,105
136,232,147964,2,0,B|136:128|136:128|136:104,1,105
136,112,148026,2,0,B|136:8|136:8|136:-16,1,105
136,24,148088,6,0,B|136:128|136:128|136:152,1,105
136,152,148151,2,0,B|136:256|136:256|136:280,1,105
136,272,148213,2,0,B|136:376|136:376|136:400,1,105
80,360,148276,6,0,B|80:256|80:256|80:232,1,105
80,232,148339,2,0,B|80:128|80:128|80:104,1,105
80,112,148401,2,0,B|80:8|80:8|80:-16,1,105
80,24,148463,6,0,B|80:128|80:128|80:152,1,105
80,152,148526,2,0,B|80:256|80:256|80:280,1,105
80,272,148588,2,0,B|80:376|80:376|80:400,1,105
24,360,148651,6,0,B|24:256|24:256|24:232,1,105
24,232,148714,2,0,B|24:128|24:128|24:104,1,105
24,112,148776,2,0,B|24:8|24:8|24:-16,1,105
24,24,148838,6,0,B|24:128|24:128|24:152,1,105
24,152,148901,2,0,B|24:256|24:256|24:280,1,105
24,272,148963,2,0,B|24:376|24:376|24:400,1,105
24,152,149026,2,0,B|24:256|24:256|24:280,1,105
24,272,149088,2,0,B|24:376|24:376|24:400,1,105
24,152,149151,2,0,B|24:256|24:256|24:280,1,105
24,272,149213,2,0,B|24:376|24:376|24:400,1,105
24,152,149276,2,0,B|24:256|24:256|24:280,1,105
24,272,149338,2,0,B|24:376|24:376|24:400,1,105
24,152,149401,2,0,B|24:256|24:256|24:280,1,105
24,272,149463,2,0,B|24:376|24:376|24:400,1,105
24,152,149526,2,0,B|24:256|24:256|24:280,1,105
24,272,149588,2,0,B|24:376|24:376|24:400,1,105
24,152,149651,2,0,B|24:256|24:256|24:280,1,105
24,272,149713,2,0,B|24:376|24:376|24:400,1,105
24,152,149776,2,0,B|24:256|24:256|24:280,1,105
24,272,149838,2,0,B|24:376|24:376|24:400,1,105
24,272,149901,2,0,L|24:384,87,105
176,272,154026,6,0,L|224:272|224:272,104,35
176,272,155666,6,0,L|224:272|224:272,98,35
232,224,157213,6,0,L|272:200,1,35
296,176,157244,2,0,L|336:176,39,35
368,192,157869,6,0,L|408:216,1,35
424,240,157901,2,0,L|480:240,27,35
464,296,158338,6,0,L|424:320,1,35
392,336,158369,2,0,L|344:336,25,35
328,304,158776,6,0,L|272:272,1,35
256,264,158807,2,0,L|192:264,1,35
184,288,158838,6,0,L|160:320,22,35
120,304,159197,6,0,B|80:248|96:272,1,35
120,232,159229,2,0,L|152:200,1,35
128,160,159260,2,0,L|80:120,22,35
128,88,159619,6,0,L|168:88,56,35
208,96,160510,6,0,L|288:144,1,70
288,168,160557,2,0,B|176:240|184:232,1,105
200,264,160619,2,0,L|352:336,1,175
392,312,160713,2,0,L|496:120,1,210
480,80,160822,6,0,L|440:72,44,35
400,72,161526,6,0,P|344:24|288:80,1,140
264,72,161604,2,0,P|208:24|152:80,1,140
128,96,161682,6,0,L|80:120,47,35
80,152,162432,6,0,P|118:214|188:179,1,140
224,200,162510,2,0,P|262:262|332:227,5,140
352,216,162838,6,0,L|400:216,41,35
400,264,163494,6,0,P|344:312|288:256,1,140
264,264,163572,2,0,P|208:312|152:256,5,140
120,240,163901,6,0,L|152:208,34,35
104,184,164447,6,0,P|160:136|216:192,1,140
240,184,164525,2,0,P|296:136|352:192,5,140
384,192,164854,6,0,L|424:168,35,35
416,128,165416,6,0,P|360:80|304:136,1,140
280,128,165494,2,0,P|224:80|168:136,5,140
200,176,165854,6,0,B|192:216|192:216|272:216|272:216|296:256,98,140
256,192,172026,5,8,0:0:0:0:
120,304,172994,5,8,0:0:0:0:
392,80,173994,5,8,0:0:0:0:
256,192,174994,5,10,0:0:0:0:
256,192,176026,5,14,0:0:0:0:
