osu file format v14

[General]
AudioFilename: Initial D OP First Stage Season 1.mp3
AudioLeadIn: 2000
PreviewTime: 54020
Countdown: 0
SampleSet: Normal
StackLeniency: 0.7
Mode: 0
LetterboxInBreaks: 0
WidescreenStoryboard: 0

[Editor]
DistanceSpacing: 1
BeatDivisor: 4
GridSize: 8
TimelineZoom: 1.1

[Metadata]
Title:Around the World (TV Size)
TitleUnicode:Around the World (TV Size)
Artist:m.o.v.e
ArtistUnicode:m.o.v.e
Creator:Kiloechovin
Version:Normal
Source:Initial D
Tags:move first stage opening 1 initial d
BeatmapID:770293
BeatmapSetID:349313

[Difficulty]
HPDrainRate:5
CircleSize:4
OverallDifficulty:5
ApproachRate:5
SliderMultiplier:0.999999904632569
SliderTickRate:1

[Events]
//Background and Video events
0,0,"InitialD.jpg",0,0
Video,0,"Initial D OP First Stage Season 1.avi"
//Break Periods
//Storyboard Layer 0 (Background)
//Storyboard Layer 1 (Fail)
//Storyboard Layer 2 (Pass)
//Storyboard Layer 3 (Foreground)
//Storyboard Sound Samples

[TimingPoints]
2020,500,4,1,0,40,1,0
54020,-100,4,1,0,50,0,1
70020,-100,4,1,0,40,0,0

[HitObjects]
256,192,395,12,8,2020,0:0:0:0:
256,192,4020,5,8,0:0:0:0:
256,96,4520,2,0,P|344:120|416:200,1,199.999980926514,0|12,0:0|0:0,0:0:0:0:
352,272,6020,5,8,0:0:0:0:
280,344,6520,2,0,P|176:336|104:264,1,199.999980926514,0|12,0:0|0:0,0:0:0:0:
104,176,8020,5,8,0:0:0:0:
168,96,8520,1,8,0:0:0:0:
264,96,9020,1,8,0:0:0:0:
360,96,9520,1,8,0:0:0:0:
360,192,10020,2,8,L|360:296|360:296,4,99.9999904632569,8|8|8|8|12,0:0|0:0|0:0|0:0|0:0,0:0:0:0:
280,256,12520,5,0,0:0:0:0:
208,184,13020,2,0,L|292:99|292:99,1,99.9999904632569,0|8,0:0|0:0,0:0:0:0:
376,112,14020,1,0,0:0:0:0:
376,208,14520,1,0,0:0:0:0:
280,208,15020,2,0,L|176:208|176:208,1,99.9999904632569,0|8,0:0|0:0,0:0:0:0:
120,128,16020,5,8,0:0:0:0:
200,72,16520,1,8,0:0:0:0:
280,128,17020,1,8,0:0:0:0:
248,224,17520,1,8,0:0:0:0:
152,224,18020,1,12,0:0:0:0:
256,192,18520,12,8,20020,0:0:0:0:
264,56,20520,6,0,P|392:144|368:240,1,249.999976158142,0|12,0:0|0:0,0:0:0:0:
304,168,22270,6,0,P|136:264|64:152,1,349.999966621399,0|12,0:0|0:0,0:0:0:0:
112,80,24520,5,8,0:0:0:0:
208,104,25020,1,0,0:0:0:0:
160,192,25520,1,8,0:0:0:0:
256,216,26020,1,0,0:0:0:0:
352,176,26520,5,8,0:0:0:0:
352,80,27020,1,0,0:0:0:0:
256,80,27520,2,8,L|200:80,1,49.9999952316285,8|12,0:0|0:0,0:0:0:0:
152,160,28270,6,0,L|152:216,1,49.9999952316285,0|8,0:0|0:0,0:0:0:0:
152,210,28770,2,0,L|208:208,1,49.9999952316285,0|8,0:0|0:0,0:0:0:0:
201,208,29270,2,0,L|201:264,1,49.9999952316285,0|8,0:0|0:0,0:0:0:0:
201,258,29770,1,4,0:0:0:0:
296,232,30270,5,0,0:0:0:0:
344,232,30520,1,8,0:0:0:0:
344,328,31020,1,0,0:0:0:0:
256,280,31520,1,8,0:0:0:0:
208,192,32020,5,0,0:0:0:0:
208,96,32520,1,8,0:0:0:0:
304,96,33020,1,0,0:0:0:0:
400,96,33520,1,8,0:0:0:0:
400,192,34020,2,0,P|368:248|320:248,1,99.9999904632569
136,32,36020,5,8,0:0:0:0:
184,40,36270,1,0,0:0:0:0:
224,72,36520,1,0,0:0:0:0:
248,112,36770,1,0,0:0:0:0:
256,160,37020,1,8,0:0:0:0:
256,208,37270,2,0,L|256:240|256:240,1,24.9999976158142,0|4,0:0|0:0,0:0:0:0:
328,128,38020,5,8,0:0:0:0:
336,176,38270,1,0,0:0:0:0:
336,224,38520,1,0,0:0:0:0:
312,272,38770,1,0,0:0:0:0:
264,288,39020,1,8,0:0:0:0:
216,288,39270,2,0,L|176:288|176:288,1,24.9999976158142,0|4,0:0|0:0,0:0:0:0:
112,192,40020,5,8,0:0:0:0:
144,160,40270,2,0,L|168:136,1,24.9999976158142,0|8,0:0|0:0,0:0:0:0:
216,88,40770,5,0,0:0:0:0:
256,120,41020,1,8,0:0:0:0:
288,88,41270,1,0,0:0:0:0:
328,120,41520,1,8,0:0:0:0:
360,80,41770,1,0,0:0:0:0:
392,120,42020,2,8,B|432:184|360:232|416:272,1,149.999985694885,8|12,0:0|0:0,0:0:0:0:
256,64,44020,6,0,L|312:80,1,49.9999952316285,0|8,0:0|0:0,0:0:0:0:
304,77,44520,2,0,L|360:56,1,49.9999952316285,0|8,0:0|0:0,0:0:0:0:
350,59,45020,2,0,P|398:75|430:131,1,99.9999904632569,0|12,0:0|0:0,0:0:0:0:
376,200,46020,6,0,L|320:200,1,49.9999952316285,0|8,0:0|0:0,0:0:0:0:
326,200,46520,2,0,L|264:200,1,49.9999952316285,0|8,0:0|0:0,0:0:0:0:
276,200,47020,2,0,P|228:184|196:128,1,99.9999904632569,0|12,0:0|0:0,0:0:0:0:
200,48,48020,6,0,P|256:64|280:112,1,99.9999904632569,8|0,0:0|0:0,0:0:0:0:
277,97,49020,2,0,P|333:113|357:161,1,99.9999904632569,8|0,0:0|0:0,0:0:0:0:
352,248,50020,5,8,0:0:0:0:
304,248,50270,1,8,0:0:0:0:
208,248,50770,1,8,0:0:0:0:
208,296,51020,1,8,0:0:0:0:
256,192,51520,12,8,53520,0:0:0:0:
88,40,54020,6,8,P|136:56|176:96,1,99.9999904632569
256,136,55020,1,8,0:0:0:0:
344,88,55520,1,12,0:0:0:0:
424,144,56020,6,8,P|376:160|336:200,1,99.9999904632569
256,240,57020,1,8,0:0:0:0:
168,192,57520,1,12,0:0:0:0:
168,288,58020,6,8,P|104:288|80:256,1,99.9999904632569
80,160,59020,2,8,P|144:160|168:128,1,99.9999904632569
216,48,60020,5,8,0:0:0:0:
256,144,60520,1,8,0:0:0:0:
296,48,61020,1,8,0:0:0:0:
144,176,62020,6,8,P|296:104|432:104,1,299.999971389771,8|12,0:0|0:0,0:0:0:0:
408,192,64020,6,8,P|296:192|144:312,1,299.999971389771,8|12,0:0|0:0,0:0:0:0:
136,200,66020,5,8,0:0:0:0:
136,104,66520,1,8,0:0:0:0:
216,40,67020,5,8,0:0:0:0:
216,136,67520,1,8,0:0:0:0:
256,192,68020,12,8,70020,0:0:0:0:
160,32,70520,6,0,B|256:32|256:32|256:96|256:96|312:96,1,199.999980926514,0|12,0:0|0:0,0:0:0:0:
352,184,72020,5,8,0:0:0:0:
352,184,72520,2,0,B|256:184|256:184|256:248|256:248|200:248,1,199.999980926514,0|12,0:0|0:0,0:0:0:0:
160,168,74020,5,8,0:0:0:0:
256,168,74520,1,8,0:0:0:0:
200,256,75020,1,8,0:0:0:0:
296,256,75520,1,12,0:0:0:0:
256,168,76020,6,8,L|256:288,4,99.9999904632569,8|8|8|8|12,0:0|0:0|0:0|0:0|0:0,0:0:0:0:
152,160,78520,5,8,0:0:0:0:
152,64,79020,1,8,0:0:0:0:
200,64,79270,1,0,0:0:0:0:
224,104,79520,1,8,0:0:0:0:
272,104,79770,1,12,0:0:0:0:
272,152,80020,5,8,0:0:0:0:
272,248,80520,2,8,L|192:184,1,99.9999952316285
160,224,81270,1,0,0:0:0:0:
128,264,81520,1,8,0:0:0:0:
96,304,81770,1,12,0:0:0:0:
72,264,82020,5,8,0:0:0:0:
72,160,82520,1,8,0:0:0:0:
120,160,82770,2,0,P|144:160|144:120,5,49.9999952316285,0|8|0|8|8|8,0:0|0:0|0:0|0:0|0:0|0:0,0:0:0:0:
256,192,84520,12,8,86020,0:0:0:0:
