osu file format v14

[General]
AudioFilename: Initial D OP First Stage Season 1.mp3
AudioLeadIn: 2000
PreviewTime: 54020
Countdown: 0
SampleSet: Normal
StackLeniency: 0.7
Mode: 0
LetterboxInBreaks: 0
WidescreenStoryboard: 1

[Editor]
DistanceSpacing: 1
BeatDivisor: 4
GridSize: 8
TimelineZoom: 1.1

[Metadata]
Title:Around the World (TV Size)
TitleUnicode:Around the World (TV Size)
Artist:m.o.v.e
ArtistUnicode:m.o.v.e
Creator:Kiloechovin
Version:Insane
Source:Initial D
Tags:move first stage opening 1 initial d
BeatmapID:777063
BeatmapSetID:349313

[Difficulty]
HPDrainRate:6
CircleSize:4
OverallDifficulty:7
ApproachRate:8
SliderMultiplier:2.19999990463257
SliderTickRate:1

[Events]
//Background and Video events
0,0,"InitialD.jpg",0,0
Video,0,"Initial D OP First Stage Season 1.avi"
//Break Periods
//Storyboard Layer 0 (Background)
//Storyboard Layer 1 (Fail)
//Storyboard Layer 2 (Pass)
//Storyboard Layer 3 (Foreground)
//Storyboard Sound Samples

[TimingPoints]
2020,500,4,1,0,40,1,0
42020,-85.4700854700855,4,1,0,40,0,0
42770,-100,4,1,0,40,0,0
54020,-100,4,1,0,50,0,1
57895,-83.3333333333333,4,1,0,50,0,1
59645,-100,4,1,0,50,0,1
63020,-83.3333333333333,4,1,0,50,0,1
63520,-100,4,1,0,50,0,1
70020,-100,4,1,0,40,0,0

[HitObjects]
256,192,395,12,8,2020,0:0:0:0:
32,40,4020,5,8,0:0:0:0:
72,80,4145,1,0,0:0:0:0:
184,80,4395,1,0,0:0:0:0:
224,40,4520,1,8,0:0:0:0:
336,40,4770,1,0,0:0:0:0:
376,80,4895,1,0,0:0:0:0:
256,192,5270,1,8,0:0:0:0:
368,192,5520,1,8,0:0:0:0:
256,192,5770,1,4,0:0:0:0:
480,344,6020,5,8,0:0:0:0:
440,304,6145,1,0,0:0:0:0:
328,304,6395,1,0,0:0:0:0:
288,344,6520,1,8,0:0:0:0:
176,344,6770,1,0,0:0:0:0:
136,304,6895,1,0,0:0:0:0:
256,192,7270,1,8,0:0:0:0:
144,192,7520,1,8,0:0:0:0:
256,192,7770,1,4,0:0:0:0:
256,32,8020,5,8,0:0:0:0:
256,32,8145,1,8,0:0:0:0:
256,144,8395,1,0,0:0:0:0:
256,144,8520,1,8,0:0:0:0:
256,32,8770,1,8,0:0:0:0:
256,32,8895,1,8,0:0:0:0:
256,200,9270,2,0,L|256:312,2,109.999995231629,0|8|4,0:0|0:0|0:0,0:0:0:0:
144,192,10020,6,0,L|168:128,1,54.9999976158142,8|0,0:0|0:0,0:0:0:0:
192,192,10270,2,0,L|216:256,1,54.9999976158142,8|0,0:0|0:0,0:0:0:0:
240,192,10520,2,0,L|264:128,1,54.9999976158142,8|0,0:0|0:0,0:0:0:0:
288,192,10770,2,0,L|312:256,1,54.9999976158142,8|0,0:0|0:0,0:0:0:0:
288,296,11020,6,0,L|264:360,1,54.9999976158142,8|0,0:0|0:0,0:0:0:0:
240,296,11270,2,0,L|216:232,1,54.9999976158142,8|0,0:0|0:0,0:0:0:0:
192,296,11520,2,0,L|168:360,1,54.9999976158142,8|0,0:0|0:0,0:0:0:0:
144,296,11770,2,0,L|120:232,1,54.9999976158142,8|0,0:0|0:0,0:0:0:0:
104,192,12020,6,8,L|80:128,1,54.9999976158142
64,80,12395,1,0,0:0:0:0:
64,80,12520,1,8,0:0:0:0:
176,80,12770,2,8,L|176:144,1,54.9999976158142
312,40,13270,1,8,0:0:0:0:
312,40,13520,1,8,0:0:0:0:
312,40,13770,1,12,0:0:0:0:
408,192,14020,6,8,L|432:256,1,54.9999976158142
448,304,14395,1,0,0:0:0:0:
448,304,14520,1,8,0:0:0:0:
336,304,14770,2,8,L|336:240,1,54.9999976158142
200,344,15270,1,8,0:0:0:0:
200,344,15520,1,8,0:0:0:0:
200,344,15770,1,12,0:0:0:0:
104,192,16020,5,8,0:0:0:0:
160,192,16145,1,8,0:0:0:0:
272,192,16395,1,0,0:0:0:0:
216,192,16520,1,8,0:0:0:0:
328,192,16770,1,8,0:0:0:0:
328,192,16895,1,8,0:0:0:0:
184,112,17270,2,8,P|232:80|256:120,2,109.999995231628,8|8|12,0:0|0:0|0:0,0:0:0:0:
112,224,18020,5,8,0:0:0:0:
112,280,18145,1,8,0:0:0:0:
112,112,18520,1,8,0:0:0:0:
200,40,18770,1,8,0:0:0:0:
256,40,18895,1,8,0:0:0:0:
256,152,19145,1,8,0:0:0:0:
256,208,19270,1,0,0:0:0:0:
256,264,19395,1,0,0:0:0:0:
256,320,19520,1,12,0:0:0:0:
256,40,20020,5,8,0:0:0:0:
216,142,20520,1,0,0:0:0:0:
270,130,20645,1,0,0:0:0:0:
313,164,20770,1,0,0:0:0:0:
313,219,20895,1,0,0:0:0:0:
270,253,21020,1,0,0:0:0:0:
216,241,21145,1,0,0:0:0:0:
192,191,21270,1,0,0:0:0:0:
296,144,21520,2,8,P|320:184|286:244,1,109.999995231628,8|12,0:0|0:0,0:0:0:0:
152,192,22270,6,0,L|152:248,1,54.9999976158142
216,160,22520,2,0,L|216:232,1,54.9999976158142,8|0,0:0|0:0,0:0:0:0:
280,192,22770,2,0,L|280:257,1,54.9999976158142
336,152,23020,2,0,L|336:264,1,109.999995231628,8|0,0:0|0:0,0:0:0:0:
400,360,23520,1,8,0:0:0:0:
256,360,23770,1,8,0:0:0:0:
112,360,24020,1,12,0:0:0:0:
112,144,24520,5,8,0:0:0:0:
136,96,24645,1,0,0:0:0:0:
176,56,24770,1,0,0:0:0:0:
232,56,24895,1,0,0:0:0:0:
272,96,25020,1,8,0:0:0:0:
296,144,25145,1,0,0:0:0:0:
336,248,25395,1,8,0:0:0:0:
400,160,25645,5,8,0:0:0:0:
400,160,25770,1,8,0:0:0:0:
400,160,25895,1,8,0:0:0:0:
400,160,26020,1,8,0:0:0:0:
392,48,26270,6,0,L|352:88,1,54.9999976158142,8|0,0:0|0:0,0:0:0:0:
353,86,26520,2,0,L|296:88,1,54.9999976158142,8|0,0:0|0:0,0:0:0:0:
298,87,26770,2,0,L|256:128,1,54.9999976158142,8|0,0:0|0:0,0:0:0:0:
258,125,27020,2,0,L|200:128,1,54.9999976158142,8|0,0:0|0:0,0:0:0:0:
203,127,27270,2,0,L|152:168,1,54.9999976158142,8|0,0:0|0:0,0:0:0:0:
159,161,27520,2,0,L|104:160,1,54.9999976158142,8|0,0:0|0:0,0:0:0:0:
105,160,27770,2,0,L|48:216,1,54.9999976158142,8|0,0:0|0:0,0:0:0:0:
8,200,28020,1,12,0:0:0:0:
40,96,28270,1,0,0:0:0:0:
152,80,28520,6,0,L|152:136|216:136,1,109.999995231628,8|0,0:0|0:0,0:0:0:0:
304,80,29020,2,0,L|304:136|240:136,1,109.999995231628,8|0,0:0|0:0,0:0:0:0:
224,240,29520,2,8,B|288:240|288:240|288:288|288:288|352:288|352:288|352:344,1,219.999990463257,8|12,0:0|0:0,0:0:0:0:
200,96,30270,1,0,0:0:0:0:
201,287,30520,1,8,0:0:0:0:
366,191,30770,1,0,0:0:0:0:
146,192,31020,1,8,0:0:0:0:
311,97,31270,1,0,0:0:0:0:
311,287,31520,1,8,0:0:0:0:
256,192,31770,1,4,0:0:0:0:
154,90,32020,5,8,0:0:0:0:
256,336,32270,1,0,0:0:0:0:
357,90,32520,1,8,0:0:0:0:
112,192,32770,1,0,0:0:0:0:
357,293,33020,1,8,0:0:0:0:
256,48,33270,1,0,0:0:0:0:
154,293,33520,1,8,0:0:0:0:
400,192,33770,1,0,0:0:0:0:
256,192,34020,2,0,L|256:224,8,27.4999988079071
360,80,35020,5,0,0:0:0:0:
256,120,35270,1,0,0:0:0:0:
152,80,35520,1,0,0:0:0:0:
48,120,35770,1,0,0:0:0:0:
48,120,36020,6,0,P|128:120|128:136,1,109.999995231628,8|0,0:0|0:0,0:0:0:0:
128,232,36520,2,0,P|48:232|48:248,1,109.999995231628,8|0,0:0|0:0,0:0:0:0:
88,336,37020,1,8,0:0:0:0:
88,336,37270,1,0,0:0:0:0:
88,336,37395,1,0,0:0:0:0:
256,336,37770,1,4,0:0:0:0:
464,264,38020,6,0,P|384:264|384:248,1,109.999995231628,8|0,0:0|0:0,0:0:0:0:
384,152,38520,2,0,P|464:152|464:136,1,109.999995231628,8|0,0:0|0:0,0:0:0:0:
424,48,39020,1,8,0:0:0:0:
424,48,39270,1,0,0:0:0:0:
424,48,39395,1,0,0:0:0:0:
256,48,39770,1,4,0:0:0:0:
256,160,40020,5,8,0:0:0:0:
256,272,40270,2,0,L|256:208,1,54.9999976158142,0|8,0:0|0:0,0:0:0:0:
144,96,40770,5,0,0:0:0:0:
256,96,41020,1,8,0:0:0:0:
144,96,41270,1,0,0:0:0:0:
256,96,41520,1,8,0:0:0:0:
256,208,41770,1,0,0:0:0:0:
272,280,42020,2,0,P|280:136|328:224,1,386.099984735871,0|8,0:0|0:0,0:0:0:0:
432,248,43020,1,0,0:0:0:0:
432,136,43270,1,0,0:0:0:0:
432,248,43520,1,0,0:0:0:0:
432,136,43770,1,4,0:0:0:0:
368,264,44020,5,8,0:0:0:0:
368,120,44270,1,0,0:0:0:0:
312,296,44520,1,8,0:0:0:0:
312,88,44770,1,0,0:0:0:0:
256,328,45020,1,8,0:0:0:0:
256,56,45270,1,0,0:0:0:0:
256,112,45395,1,0,0:0:0:0:
256,168,45520,2,0,L|256:224,1,54.9999976158142,8|0,0:0|0:0,0:0:0:0:
256,280,45770,1,4,0:0:0:0:
144,264,46020,5,8,0:0:0:0:
144,120,46270,1,0,0:0:0:0:
200,296,46520,1,8,0:0:0:0:
200,88,46770,1,0,0:0:0:0:
256,328,47020,1,8,0:0:0:0:
256,56,47270,1,0,0:0:0:0:
256,112,47395,1,0,0:0:0:0:
256,168,47520,2,0,L|256:224,1,54.9999976158142,8|0,0:0|0:0,0:0:0:0:
256,280,47770,1,4,0:0:0:0:
48,33,48020,6,0,L|144:32,1,54.9999976158143,8|0,0:0|0:0,0:0:0:0:
320,32,48395,1,8,0:0:0:0:
440,152,48770,1,0,0:0:0:0:
328,152,49020,2,0,L|272:152,1,54.9999976158142,8|0,0:0|0:0,0:0:0:0:
56,152,49395,1,8,0:0:0:0:
224,152,49770,1,4,0:0:0:0:
256,48,50020,5,8,0:0:0:0:
256,336,50270,1,8,0:0:0:0:
464,192,50770,1,8,0:0:0:0:
48,192,51020,1,8,0:0:0:0:
48,48,51520,1,8,0:0:0:0:
464,336,51770,1,12,0:0:0:0:
350,256,52020,5,0,0:0:0:0:
370,205,52145,1,0,0:0:0:0:
363,150,52270,1,0,0:0:0:0:
331,105,52395,1,0,0:0:0:0:
282,80,52520,1,0,0:0:0:0:
227,80,52645,1,0,0:0:0:0:
179,106,52770,1,0,0:0:0:0:
148,151,52895,1,0,0:0:0:0:
142,206,53020,1,0,0:0:0:0:
161,257,53145,1,0,0:0:0:0:
203,294,53270,1,0,0:0:0:0:
256,306,53395,1,0,0:0:0:0:
309,293,53520,1,12,0:0:0:0:
256,192,53770,5,8,0:0:0:0:
256,192,54020,2,8,L|368:192,1,109.999995231628
256,192,54520,1,8,0:0:0:0:
368,184,54770,1,8,0:0:0:0:
368,72,55020,2,8,L|368:128,1,54.9999976158142
368,240,55395,1,8,0:0:0:0:
256,192,55770,5,8,0:0:0:0:
256,192,56020,2,8,L|144:192,1,109.999995231628
256,192,56520,1,8,0:0:0:0:
144,184,56770,1,8,0:0:0:0:
144,296,57020,2,8,L|144:240,1,54.9999976158142
144,128,57395,1,8,0:0:0:0:
40,288,57770,1,8,0:0:0:0:
368,288,58020,6,8,B|288:184|240:256|144:144,1,263.999980499268
144,288,58770,1,8,0:0:0:0:
144,288,59020,6,8,B|224:184|272:256|368:144,1,263.999980499268
408,32,59770,1,8,0:0:0:0:
408,32,60020,5,8,0:0:0:0:
104,32,60520,1,8,0:0:0:0:
256,296,61020,1,8,0:0:0:0:
112,136,61520,5,8,0:0:0:0:
104,248,61770,1,8,0:0:0:0:
112,136,62020,2,8,L|224:104,1,109.999995231628
192,216,62520,2,8,L|280:136,1,109.999995231628
320,48,63020,2,8,P|384:176|352:296,1,263.999980499268
264,352,63770,1,8,0:0:0:0:
222,254,64020,6,8,L|334:222,1,109.999995231628
328,224,64520,2,8,L|416:144,1,109.999995231628
408,40,65020,1,8,0:0:0:0:
352,40,65145,1,8,0:0:0:0:
128,40,65395,1,8,0:0:0:0:
144,112,66020,5,8,0:0:0:0:
200,112,66145,1,8,0:0:0:0:
256,112,66270,1,8,0:0:0:0:
296,152,66395,1,8,0:0:0:0:
336,192,66520,1,8,0:0:0:0:
256,272,66770,1,8,0:0:0:0:
168,208,67020,5,8,0:0:0:0:
224,208,67145,1,8,0:0:0:0:
280,208,67270,1,8,0:0:0:0:
320,248,67395,1,8,0:0:0:0:
360,288,67520,1,8,0:0:0:0:
256,192,67770,12,8,70020,0:0:0:0:
96,328,70395,6,0,L|96:272,1,54.9999976158142,0|8,0:0|0:0,0:0:0:0:
208,272,70770,2,0,L|208:336,1,54.9999976158142
208,160,71270,1,0,0:0:0:0:
368,312,71520,1,8,0:0:0:0:
208,160,71770,1,4,0:0:0:0:
384,48,72020,5,8,0:0:0:0:
384,48,72145,1,0,0:0:0:0:
384,160,72395,2,0,L|384:216,1,54.9999976158142,0|8,0:0|0:0,0:0:0:0:
384,328,72770,1,0,0:0:0:0:
384,328,72895,1,0,0:0:0:0:
320,176,73270,1,0,0:0:0:0:
176,344,73520,1,8,0:0:0:0:
32,176,73770,1,4,0:0:0:0:
96,280,74020,5,8,0:0:0:0:
96,280,74145,1,0,0:0:0:0:
96,168,74395,1,0,0:0:0:0:
96,168,74520,1,8,0:0:0:0:
96,280,74770,1,0,0:0:0:0:
96,280,74895,1,8,0:0:0:0:
256,256,75270,1,0,0:0:0:0:
256,40,75520,1,8,0:0:0:0:
256,256,75770,1,4,0:0:0:0:
168,192,76020,6,8,P|272:136|344:200,1,219.999990463257
284,280,76770,1,0,0:0:0:0:
285,103,77020,1,8,0:0:0:0:
180,247,77270,1,0,0:0:0:0:
350,192,77520,1,8,0:0:0:0:
180,137,77770,1,4,0:0:0:0:
72,136,78020,5,8,0:0:0:0:
72,192,78145,1,0,0:0:0:0:
72,304,78395,1,0,0:0:0:0:
72,248,78520,1,8,0:0:0:0:
192,136,78895,2,0,L|248:136,1,54.9999976158142,0|8,0:0|0:0,0:0:0:0:
248,192,79145,2,0,L|192:192,1,54.9999976158142
192,248,79395,2,0,L|248:248,1,54.9999976158142,0|8,0:0|0:0,0:0:0:0:
216,352,79770,1,12,0:0:0:0:
328,344,80020,5,8,0:0:0:0:
272,344,80145,1,0,0:0:0:0:
160,344,80395,1,0,0:0:0:0:
216,336,80520,1,8,0:0:0:0:
264,304,80645,1,0,0:0:0:0:
296,264,80770,1,0,0:0:0:0:
312,216,80895,1,0,0:0:0:0:
320,160,81020,1,8,0:0:0:0:
320,48,81270,1,0,0:0:0:0:
256,256,81520,1,8,0:0:0:0:
192,48,81770,1,4,0:0:0:0:
136,144,82020,5,8,0:0:0:0:
136,144,82145,1,0,0:0:0:0:
80,48,82395,1,0,0:0:0:0:
80,48,82520,1,8,0:0:0:0:
80,160,82770,1,0,0:0:0:0:
80,160,82895,1,0,0:0:0:0:
248,160,83270,1,0,0:0:0:0:
248,376,83520,1,8,0:0:0:0:
248,160,83770,1,0,0:0:0:0:
360,160,84020,1,12,0:0:0:0:
256,192,84270,12,8,86020,0:0:0:0:
