osu file format v14

[General]
AudioFilename: Initial D OP First Stage Season 1.mp3
AudioLeadIn: 2000
PreviewTime: 54020
Countdown: 0
SampleSet: Normal
StackLeniency: 0.7
Mode: 0
LetterboxInBreaks: 0
WidescreenStoryboard: 0

[Editor]
DistanceSpacing: 1
BeatDivisor: 4
GridSize: 8
TimelineZoom: 1.1

[Metadata]
Title:Around the World (TV Size)
TitleUnicode:Around the World (TV Size)
Artist:m.o.v.e
ArtistUnicode:m.o.v.e
Creator:Kiloechovin
Version:Hard
Source:Initial D
Tags:move first stage opening 1 initial d
BeatmapID:770292
BeatmapSetID:349313

[Difficulty]
HPDrainRate:6
CircleSize:4
OverallDifficulty:6
ApproachRate:7
SliderMultiplier:1.99999990463257
SliderTickRate:1

[Events]
//Background and Video events
0,0,"InitialD.jpg",0,0
Video,0,"Initial D OP First Stage Season 1.avi"
//Break Periods
//Storyboard Layer 0 (Background)
//Storyboard Layer 1 (Fail)
//Storyboard Layer 2 (Pass)
//Storyboard Layer 3 (Foreground)
//Storyboard Sound Samples

[TimingPoints]
2020,500,4,1,0,40,1,0
54020,-100,4,1,0,50,0,1
57895,-83.3333333333333,4,1,0,50,0,1
59645,-100,4,1,0,50,0,1
70020,-100,4,1,0,40,0,0

[HitObjects]
256,192,395,12,8,2020,0:0:0:0:
48,40,4020,5,8,0:0:0:0:
248,40,4520,1,8,0:0:0:0:
344,40,4770,2,0,L|400:40,1,49.9999976158143
280,144,5270,1,8,0:0:0:0:
176,144,5520,1,8,0:0:0:0:
112,224,5770,1,4,0:0:0:0:
48,304,6020,5,8,0:0:0:0:
248,304,6520,1,8,0:0:0:0:
344,304,6770,2,0,L|344:248,1,49.9999976158143
192,272,7270,1,8,0:0:0:0:
128,192,7520,1,8,0:0:0:0:
192,112,7770,1,4,0:0:0:0:
256,40,8020,5,8,0:0:0:0:
320,120,8270,1,0,0:0:0:0:
384,192,8520,1,8,0:0:0:0:
320,272,8770,1,0,0:0:0:0:
256,344,9020,1,8,0:0:0:0:
192,272,9270,1,0,0:0:0:0:
128,192,9520,1,8,0:0:0:0:
192,112,9770,1,4,0:0:0:0:
256,40,10020,6,0,L|360:80|360:80,1,99.9999952316285
256,120,10520,2,0,L|368:136|368:136,1,99.9999952316285
256,200,11020,2,0,L|368:192|368:192,1,99.9999952316285
256,280,11520,2,0,L|360:248|360:248,1,99.9999952316285
64,80,12520,5,0,0:0:0:0:
160,80,12770,1,0,0:0:0:0:
264,80,13020,2,0,L|384:80|384:80,2,99.9999952316285,0|0|8,0:0|0:0|0:0,0:0:0:0:
360,80,13770,1,4,0:0:0:0:
464,80,14020,1,0,0:0:0:0:
416,168,14270,1,0,0:0:0:0:
368,256,14520,1,0,0:0:0:0:
272,256,14770,1,0,0:0:0:0:
168,256,15020,2,0,L|64:256|64:256,2,99.9999952316285,0|0|8,0:0|0:0|0:0,0:0:0:0:
168,152,15770,1,4,0:0:0:0:
184,56,16020,5,8,0:0:0:0:
256,128,16270,1,0,0:0:0:0:
328,56,16520,1,8,0:0:0:0:
400,128,16770,1,0,0:0:0:0:
400,224,17020,1,8,0:0:0:0:
328,296,17270,1,0,0:0:0:0:
256,224,17520,1,8,0:0:0:0:
184,296,17770,1,4,0:0:0:0:
112,224,18020,5,8,0:0:0:0:
112,224,18145,1,0,0:0:0:0:
112,128,18520,1,8,0:0:0:0:
208,128,18770,1,8,0:0:0:0:
208,128,18895,1,8,0:0:0:0:
304,136,19145,1,8,0:0:0:0:
304,136,19270,1,0,0:0:0:0:
304,136,19395,1,0,0:0:0:0:
304,136,19520,1,12,0:0:0:0:
192,40,20020,5,8,0:0:0:0:
40,40,20520,6,0,L|144:40,3,99.9999952316285
240,40,21520,1,0,0:0:0:0:
320,104,21770,1,12,0:0:0:0:
440,264,22270,6,0,L|360:200,4,99.9999952316285
360,328,23520,1,0,0:0:0:0:
264,328,23770,1,8,0:0:0:0:
160,328,24020,1,12,0:0:0:0:
112,136,24520,5,8,0:0:0:0:
208,104,24770,1,0,0:0:0:0:
280,176,25020,2,0,L|320:216,1,49.9999976158143
400,272,25395,1,0,0:0:0:0:
440,208,25645,1,0,0:0:0:0:
440,208,25770,2,0,L|360:144|360:144,1,99.9999952316285,0|8,0:0|0:0,0:0:0:0:
392,48,26270,6,0,L|280:48|280:48,1,99.9999952316285,0|8,0:0|0:0,0:0:0:0:
292,48,26770,2,0,L|224:136|224:136,1,99.9999952316285,0|8,0:0|0:0,0:0:0:0:
230,127,27270,2,0,L|208:224|208:224,1,99.9999952316285,0|8,0:0|0:0,0:0:0:0:
192,320,27770,1,8,0:0:0:0:
96,320,28020,1,12,0:0:0:0:
96,224,28270,1,0,0:0:0:0:
96,120,28520,6,0,L|96:184|96:184,2,49.9999976158143,8|0|0,0:0|0:0|0:0,0:0:0:0:
192,120,29020,2,0,L|192:184|192:184,2,49.9999976158143,8|0|0,0:0|0:0|0:0,0:0:0:0:
288,120,29520,2,8,L|288:184|288:184,4,49.9999976158143
360,56,30270,5,0,0:0:0:0:
360,152,30520,1,8,0:0:0:0:
360,352,31020,1,8,0:0:0:0:
192,248,31520,1,8,0:0:0:0:
64,88,32020,5,8,0:0:0:0:
120,176,32270,1,0,0:0:0:0:
176,88,32520,1,8,0:0:0:0:
232,176,32770,1,0,0:0:0:0:
288,264,33020,1,8,0:0:0:0:
344,176,33270,1,0,0:0:0:0:
400,88,33520,1,8,0:0:0:0:
456,176,33770,1,0,0:0:0:0:
400,264,34020,2,0,L|400:296|400:296,8,24.9999988079071
256,160,35020,5,0,0:0:0:0:
160,160,35270,1,0,0:0:0:0:
96,104,35520,1,0,0:0:0:0:
96,104,35770,1,0,0:0:0:0:
96,104,36020,6,0,L|169:30,1,99.9999952316285,8|0,0:0|0:0,0:0:0:0:
160,136,36520,2,0,L|233:62,1,99.9999952316285,8|0,0:0|0:0,0:0:0:0:
328,64,37020,1,8,0:0:0:0:
408,128,37270,1,0,0:0:0:0:
408,176,37395,1,0,0:0:0:0:
408,312,37770,1,4,0:0:0:0:
408,312,38020,6,0,L|334:238,1,99.9999952316285,8|0,0:0|0:0,0:0:0:0:
344,344,38520,2,0,L|270:270,1,99.9999952316285,8|0,0:0|0:0,0:0:0:0:
176,272,39020,1,8,0:0:0:0:
88,216,39270,1,0,0:0:0:0:
88,168,39395,1,0,0:0:0:0:
160,40,39770,1,4,0:0:0:0:
256,16,40020,5,8,0:0:0:0:
256,112,40270,2,0,L|256:176,1,49.9999976158143,0|8,0:0|0:0,0:0:0:0:
256,312,40770,5,0,0:0:0:0:
160,272,41020,1,8,0:0:0:0:
256,232,41270,1,0,0:0:0:0:
352,272,41520,1,8,0:0:0:0:
448,232,41770,1,0,0:0:0:0:
352,192,42020,2,0,B|320:64|248:168|128:224|152:64,1,299.999985694885,0|8,0:0|0:0,0:0:0:0:
64,136,43020,1,0,0:0:0:0:
16,224,43270,1,0,0:0:0:0:
112,224,43520,1,0,0:0:0:0:
64,136,43770,1,0,0:0:0:0:
64,40,44020,6,0,P|128:48|168:80,1,99.9999952316285
156,67,44520,2,0,P|208:104|260:107,1,99.9999952316285
242,108,45020,2,0,P|306:116|346:148,1,99.9999952316285
352,184,45395,1,0,0:0:0:0:
392,208,45520,2,0,L|448:208,1,49.9999976158143,8|0,0:0|0:0,0:0:0:0:
488,184,45770,1,4,0:0:0:0:
448,40,46020,6,0,P|384:48|344:80,1,99.9999952316285
356,67,46520,2,0,P|304:104|252:107,1,99.9999952316285
270,108,47020,2,0,P|206:116|166:148,1,99.9999952316285
160,184,47395,1,0,0:0:0:0:
120,208,47520,2,0,L|64:208,1,49.9999976158143,8|0,0:0|0:0,0:0:0:0:
24,184,47770,1,4,0:0:0:0:
40,40,48020,6,0,L|136:39,1,49.9999976158143,8|0,0:0|0:0,0:0:0:0:
192,40,48395,1,8,0:0:0:0:
80,136,48770,1,0,0:0:0:0:
104,232,49020,2,0,L|192:232,1,49.9999976158143,8|0,0:0|0:0,0:0:0:0:
256,232,49395,1,8,0:0:0:0:
256,80,49770,1,0,0:0:0:0:
356,56,50020,5,8,0:0:0:0:
356,256,50270,1,8,0:0:0:0:
456,156,50770,1,8,0:0:0:0:
256,156,51020,1,8,0:0:0:0:
256,256,51520,1,8,0:0:0:0:
256,56,51770,1,12,0:0:0:0:
256,192,52020,12,8,53520,0:0:0:0:
40,40,53770,5,8,0:0:0:0:
40,40,54020,2,8,L|160:40,1,99.9999952316285
208,112,54520,1,8,0:0:0:0:
272,40,54770,1,8,0:0:0:0:
344,112,55020,2,8,L|400:112,1,49.9999976158143
432,208,55395,1,8,0:0:0:0:
472,344,55770,5,8,0:0:0:0:
472,344,56020,2,8,L|352:344,1,99.9999952316285
304,272,56520,1,8,0:0:0:0:
240,344,56770,1,8,0:0:0:0:
168,272,57020,2,8,L|112:272,1,49.9999976158143
80,176,57395,1,8,0:0:0:0:
40,272,57770,1,8,0:0:0:0:
136,288,58020,6,8,P|224:216|304:288,1,239.99998123169
376,288,58770,1,8,0:0:0:0:
376,288,59020,6,8,P|288:216|208:288,1,239.99998123169
207,187,59770,1,8,0:0:0:0:
152,96,60020,5,8,0:0:0:0:
352,96,60520,1,8,0:0:0:0:
256,272,61020,1,8,0:0:0:0:
160,104,61520,5,8,0:0:0:0:
160,104,61770,1,8,0:0:0:0:
160,104,62020,2,8,P|256:56|320:112,3,199.999990463257
239,156,63770,1,8,0:0:0:0:
160,208,64020,6,8,P|256:256|320:200,2,199.999990463257
160,208,65145,1,8,0:0:0:0:
239,156,65395,1,8,0:0:0:0:
176,40,66020,5,8,0:0:0:0:
328,40,66520,1,8,0:0:0:0:
256,224,67020,5,8,0:0:0:0:
256,320,67270,1,8,0:0:0:0:
256,224,67520,1,8,0:0:0:0:
256,192,67770,12,8,70020,0:0:0:0:
128,192,70395,6,0,L|72:192|72:192,1,49.9999976158143,8|0,0:0|0:0,0:0:0:0:
64,96,70770,1,0,0:0:0:0:
112,120,70895,1,0,0:0:0:0:
200,160,71270,1,0,0:0:0:0:
240,72,71520,1,8,0:0:0:0:
312,144,71770,1,4,0:0:0:0:
368,64,72020,5,8,0:0:0:0:
368,64,72145,1,0,0:0:0:0:
368,208,72395,2,0,L|328:248|328:248,1,49.9999976158143,8|0,0:0|0:0,0:0:0:0:
416,336,72770,1,0,0:0:0:0:
368,328,72895,1,0,0:0:0:0:
224,288,73270,1,0,0:0:0:0:
128,256,73520,1,8,0:0:0:0:
88,168,73770,1,4,0:0:0:0:
152,88,74020,5,8,0:0:0:0:
152,88,74145,1,0,0:0:0:0:
336,176,74395,1,0,0:0:0:0:
336,176,74520,1,8,0:0:0:0:
144,224,74770,1,0,0:0:0:0:
144,224,74895,1,8,0:0:0:0:
256,120,75270,1,0,0:0:0:0:
344,168,75520,1,8,0:0:0:0:
344,72,75770,1,4,0:0:0:0:
256,120,76020,6,0,L|256:328,1,199.999990463257
352,320,76770,1,0,0:0:0:0:
256,320,77020,1,0,0:0:0:0:
160,320,77270,1,0,0:0:0:0:
64,296,77520,1,0,0:0:0:0:
32,200,77770,1,8,0:0:0:0:
32,104,78020,5,0,0:0:0:0:
72,80,78145,1,0,0:0:0:0:
168,48,78395,1,0,0:0:0:0:
216,48,78520,1,0,0:0:0:0:
360,48,78895,2,0,L|424:48,1,49.9999976158143
408,96,79145,2,0,L|352:96,1,49.9999976158143
360,144,79395,2,0,L|416:144,1,49.9999976158143
384,240,79770,1,12,0:0:0:0:
368,336,80020,5,0,0:0:0:0:
368,336,80145,1,0,0:0:0:0:
272,336,80395,1,0,0:0:0:0:
224,336,80520,2,0,L|144:272,2,99.9999952316285
256,240,81270,1,0,0:0:0:0:
320,160,81520,1,0,0:0:0:0:
256,80,81770,1,12,0:0:0:0:
176,128,82020,5,0,0:0:0:0:
152,176,82145,1,0,0:0:0:0:
104,264,82395,1,0,0:0:0:0:
88,312,82520,1,0,0:0:0:0:
168,248,82770,2,0,P|200:280|256:296,4,99.9999952316285,0|0|0|0|8,0:0|0:0|0:0|0:0|0:0,0:0:0:0:
168,248,84020,1,12,0:0:0:0:
256,192,84270,12,8,86020,0:0:0:0:
