osu file format v7

[General]
AudioFilename: Gravity.mp3
AudioLeadIn: 1991
PreviewTime: 49769
Countdown: 0
SampleSet: Soft
StackLeniency: 0.6
Mode: 0
LetterboxInBreaks: 1

[Editor]
Bookmarks: 18274,49451
DistanceSpacing: 0.800000011920929
BeatDivisor: 4
GridSize: 8

[Metadata]
Title:Gravity
Artist:m.o.e.v
Creator:owl13
Version:Insane
Source:Lucky Star
Tags:Initial D m.o.v.e

[Difficulty]
HPDrainRate:6
CircleSize:4
OverallDifficulty:8
SliderMultiplier:2
SliderTickRate:1

[Events]
//Background and Video events
Video,-600,"Gravity.avi"
0,0,"Gravity-bgi.jpg"
//Break Periods
2,13753,19077
2,38850,41038
//Storyboard Layer 0 (Background)
//Storyboard Layer 1 (Fail)
//Storyboard Layer 2 (Pass)
//Storyboard Layer 3 (Foreground)
//Storyboard Sound Samples
//Background Colour Transformations
3,100,163,162,255

[TimingPoints]
1004,392.156862745098,4,2,0,30,1,0
1200,-100,4,2,0,97,0,0
4141,-100,4,2,0,51,0,0
4337,-100,4,2,0,95,0,0
7278,-100,4,2,0,61,0,0
7474,-100,4,2,0,100,0,0
10415,-100,4,1,0,100,0,0
12180,-100,4,2,0,100,0,0
48062,-100,4,1,0,100,0,0
49631,-100,4,2,0,100,0,0
51200,-100,4,2,0,100,0,1
75905,-100,4,2,0,100,0,0
82572,-100,4,1,0,95,0,0

[Colours]
Combo1 : 255,150,0
Combo2 : 5,240,5
Combo3 : 204,204,0
Combo4 : 240,5,5

[HitObjects]
120,96,1005,1,6
184,160,1200,1,0
200,240,1396,1,2
392,96,1984,5,2
328,160,2180,1,0
312,240,2376,1,2
80,224,2768,6,0,B|256:328|256:328|432:216|432:216,1,400
120,112,4141,5,6
192,176,4337,1,0
192,272,4533,1,2
384,112,5121,5,2
320,176,5317,1,0
320,272,5513,1,2
208,336,5905,6,0,B|256:320|320:336,3,100
144,336,6886,1,0
72,192,7278,5,2
144,232,7474,1,0
144,152,7670,1,2
384,192,8258,5,2
312,232,8454,1,0
312,152,8651,1,2
432,48,9435,5,0
456,96,9533,1,0
472,144,9631,1,2
464,200,9729,1,0
448,248,9827,1,0
368,312,10023,1,0
272,152,10415,5,12
208,224,10611,1,0
272,296,10807,1,12
376,228,11396,6,0,B|264:228,2,100,12|0|12
272,104,12180,5,2
336,136,12376,1,0
368,120,12474,1,2
264,216,12768,5,0
344,208,12964,1,2
416,240,13160,1,2
448,264,13258,1,2
464,296,13356,1,2
344,304,13553,5,4
160,192,19827,6,0,B|56:192,2,100,2|2|0
144,152,20317,1,0
232,144,20611,5,0
256,120,20709,1,0
280,144,20807,1,0
304,120,20905,1,0
336,136,21004,1,2
384,96,21200,1,0
416,160,21396,5,2
368,216,21592,1,0
400,288,21788,1,0
392,328,21886,2,0,B|440:352,6,50
360,344,22572,1,0
280,336,22768,1,0
168,352,22964,5,2
168,352,23160,1,2
80,344,23356,1,0
80,344,23454,1,2
40,272,23651,1,2
96,208,23847,1,2
144,272,24043,1,0
144,272,24141,1,0
208,208,24337,6,0,B|272:288,1,100,4|0
304,192,24729,2,0,B|376:120,1,100,4|0
384,224,25121,2,0,B|464:304,1,100,4|0
480,208,25513,6,0,B|480:152,6,50,4|0|0|0|0|0|4
480,320,26494,6,0,B|416:200|416:200|488:144|488:144|456:64|336:80|320:104|320:104|344:256|344:256|296:336|296:336|184:344|96:336|48:320|32:160,1,1000,2|2
120,208,28651,1,0
144,136,28847,1,2
224,152,29043,1,0
256,80,29239,1,2
376,40,29631,6,0,B|480:64|480:64|368:136|368:136|480:184|480:184|368:240|368:240|488:288|488:288|376:344|376:344,1,700,0|2
336,360,31200,1,2
264,328,31396,1,2
200,208,31788,5,0
120,240,31984,1,2
56,288,32180,2,0,B|96:336|168:360|168:360|184:304|184:304|272:392|376:304|376:304,1,400
456,312,33160,1,0
488,240,33356,1,0
480,160,33553,1,0
464,80,33749,1,0
400,32,33945,1,0
416,112,34141,5,2
352,64,34337,1,2
288,32,34533,1,2
208,32,34729,1,0
208,32,34925,2,0,B|160:144,2,100
240,104,35513,6,0,B|208:208|104:192|112:96,1,200
48,64,36102,1,2
32,144,36298,1,0
32,224,36494,1,0
56,296,36690,1,0
128,328,36886,1,0
184,272,37082,1,0
152,200,37278,5,2
232,192,37474,2,2,B|232:296,2,100,2|0|2
312,192,38062,1,0
232,192,38258,2,0,B|232:80,2,100,2|0|4
136,96,41788,5,10
208,136,41984,1,0
208,216,42180,1,10
360,160,42572,2,0,B|352:164|408:132|456:164,1,100,0|8
408,232,42964,1,8
136,184,43356,5,10
80,240,43553,1,0
136,296,43749,1,2
176,296,43847,1,2
216,296,43945,1,2
296,296,44141,1,2
376,296,44337,1,2
456,296,44533,1,10
416,192,44925,5,10
480,112,45121,1,0
416,32,45317,1,10
240,56,45709,6,0,B|304:64|308:148,1,100,0|8
256,208,46102,1,8
448,152,46494,1,10
456,40,46690,5,0
376,40,46886,1,2
336,40,46984,1,2
296,40,47082,1,2
216,40,47278,1,2
136,40,47474,1,2
56,40,47670,1,10
168,144,48062,6,0,B|117:136|117:136|120:198|120:198,2,100,0|0|0
352,144,49043,2,0,B|402:136|402:136|399:198|399:198,2,100,0|0|0
96,200,50023,6,0,B|184:128|184:128|240:192|240:192|312:128|312:128|400:216|400:216,1,400,0|2
328,56,51200,5,12
408,64,51396,1,0
464,120,51592,1,8
472,200,51788,1,0
400,160,51984,1,0
376,192,52082,1,0
384,232,52180,1,0
416,256,52278,1,0
456,272,52376,1,10
400,328,52572,1,0
320,352,52768,5,12
240,352,52964,1,0
160,344,53160,1,8
88,304,53356,1,0
160,272,53553,1,0
184,240,53651,1,0
184,200,53749,1,0
160,168,53847,1,0
120,168,53945,1,10
56,216,54141,1,0
40,136,54337,5,12
72,64,54533,1,0
144,32,54729,1,8
216,56,54925,1,0
160,112,55121,1,0
176,144,55219,1,0
216,160,55317,1,0
256,160,55415,1,0
288,136,55513,1,10
344,80,55709,1,0
264,64,55905,5,8
336,24,56102,1,0
408,64,56298,1,8
440,136,56494,1,0
408,208,56690,1,8
336,248,56886,1,0
256,224,57082,1,8
216,152,57278,1,0
144,112,57474,5,12
216,80,57670,1,0
288,120,57866,1,8
360,80,58062,1,0
424,128,58258,1,0
456,200,58454,1,0
432,272,58651,1,10
368,320,58847,1,0
296,296,59043,6,0,B|291:303|348:208|348:208|456:200,3,200,8|0|0|10
392,144,60415,1,0
312,120,60611,2,0,B|408:48,2,100,10|0|10
232,120,61200,1,0
224,200,61396,5,0
144,224,61592,1,0
112,200,61690,1,0
88,168,61788,1,0
72,128,61886,1,0
80,88,61984,1,0
104,56,62082,1,0
144,48,62180,1,10
160,128,62376,5,0
232,96,62572,1,10
304,136,62768,1,0
232,176,62964,2,0,B|244:174|172:182|172:246,3,100,10|0|10|0
240,288,63749,5,14
296,344,63945,1,0
376,368,64141,1,8
456,352,64337,1,0
488,280,64533,1,0
456,256,64631,1,0
416,248,64729,1,0
376,256,64827,1,0
344,280,64925,1,10
264,288,65121,1,0
216,224,65317,5,14
160,280,65513,1,0
104,224,65709,1,10
160,168,65905,1,0
232,136,66102,1,0
264,112,66200,1,0
264,72,66298,1,0
240,40,66396,1,0
200,40,66494,1,10
136,88,66690,1,0
176,168,66886,5,14
248,240,67082,1,0
248,168,67278,1,10
176,240,67474,1,0
112,312,67670,1,0
152,344,67768,1,0
192,312,67866,1,0
232,344,67964,1,0
272,312,68062,1,10
360,344,68258,1,0
256,192,68454,12,2,69629
416,96,70023,5,6
344,136,70219,1,0
288,200,70415,1,8
352,248,70611,1,0
424,288,70807,1,0
352,328,71004,1,0
272,344,71200,1,10
192,344,71396,1,0
136,296,71592,5,8
136,296,71788,1,8
136,296,71984,1,8
248,192,72376,6,2,B|232:248|160:216|160:136|248:80|336:120|360:240|240:272|240:272,1,300,0|0
256,192,73160,12,0,75905
256,128,76298,5,2
352,192,76494,1,0
448,256,76690,1,2
224,192,77278,5,2
152,264,77474,1,0
64,320,77670,1,2
136,64,78062,5,0
192,64,78258,1,2
224,64,78356,1,2
256,64,78454,1,2
312,64,78651,1,2
368,64,78847,1,2
424,64,79043,1,2
160,192,79435,5,4
216,256,79631,1,0
160,320,79827,1,2
352,192,80415,1,2
296,256,80611,1,0
352,320,80807,1,2
112,96,81200,5,0
168,96,81396,1,2
200,96,81494,1,2
232,96,81592,1,2
256,152,81788,5,2
256,208,81984,1,2
256,264,82180,1,2
72,192,82572,6,0,B|152:120,2,100,0|0|0
440,192,83553,2,0,B|360:120,2,100,4|0|4
