osu file format v14

[General]
AudioFilename: 08-Astrosexy.mp3
AudioLeadIn: 0
PreviewTime: 48235
Countdown: 1
SampleSet: None
StackLeniency: 0.7
Mode: 2
LetterboxInBreaks: 1
WidescreenStoryboard: 1

[Editor]
DistanceSpacing: 1
BeatDivisor: 4
GridSize: 4
TimelineZoom: 1

[Metadata]
Title:Astrosexy
TitleUnicode:Astrosexy
Artist:m-flo loves CHEMISTRY
ArtistUnicode:m-flo loves CHEMISTRY
Creator:iRevi
Version:CtB distance test
Source:
Tags:
BeatmapID:677548
BeatmapSetID:302234

[Difficulty]
HPDrainRate:7
CircleSize:4
OverallDifficulty:8
ApproachRate:8
SliderMultiplier:2.5
SliderTickRate:2

[Events]
//Background and Video events
0,0,"astromantic.jpg",0,0
//Break Periods
//Storyboard Layer 0 (Background)
//Storyboard Layer 1 (Fail)
//Storyboard Layer 2 (Pass)
//Storyboard Layer 3 (Foreground)
//Storyboard Sound Samples

[TimingPoints]
8360,500,4,1,0,50,1,0
16360,-100,4,1,0,50,0,0
48360,-100,4,1,0,70,0,1
62360,-100,4,1,0,20,0,0
96610,-100,4,1,0,70,0,1
120360,-100,4,1,0,70,0,0
168610,-100,4,1,0,70,0,1
184360,-100,4,1,0,70,0,0
260360,-100,4,1,0,70,0,1
276360,-100,4,1,0,70,0,0
278610,-100,4,1,0,70,0,1
326360,-100,4,1,0,40,0,0

[Colours]
Combo1 : 188,188,188
Combo2 : 86,94,101

[HitObjects]
6,192,8360,5,0,0:0:0:0:
256,192,8860,1,0,0:0:0:0:
6,192,9360,1,0,0:0:0:0:
256,192,9860,1,0,0:0:0:0:
6,192,10360,1,0,0:0:0:0:
6,192,12360,5,0,0:0:0:0:
257,192,12860,1,0,0:0:0:0:
6,192,13360,1,0,0:0:0:0:
257,192,13860,1,0,0:0:0:0:
6,192,14360,1,0,0:0:0:0:
6,192,16360,5,0,0:0:0:0:
256,192,16610,1,0,0:0:0:0:
506,192,16860,1,0,0:0:0:0:
256,192,17110,1,0,0:0:0:0:
6,192,17360,1,0,0:0:0:0:
256,192,17610,1,0,0:0:0:0:
506,192,17860,1,0,0:0:0:0:
256,192,18110,1,0,0:0:0:0:
6,192,18360,1,0,0:0:0:0:
0,192,20360,5,0,0:0:0:0:
256,192,20610,1,0,0:0:0:0:
512,192,20860,1,0,0:0:0:0:
256,192,21110,1,0,0:0:0:0:
0,192,21360,1,0,0:0:0:0:
256,192,21610,1,0,0:0:0:0:
512,192,21860,1,0,0:0:0:0:
256,192,22110,1,0,0:0:0:0:
0,192,22360,1,0,0:0:0:0:
6,192,24360,5,0,0:0:0:0:
256,192,24610,1,0,0:0:0:0:
6,192,24860,5,0,0:0:0:0:
257,192,25110,1,0,0:0:0:0:
6,192,25360,5,0,0:0:0:0:
258,192,25610,1,0,0:0:0:0:
6,192,25860,5,0,0:0:0:0:
259,192,26110,1,0,0:0:0:0:
6,192,26360,5,0,0:0:0:0:
260,192,26610,1,0,0:0:0:0:
6,192,26860,5,0,0:0:0:0:
261,191,27110,1,0,0:0:0:0:
6,192,27360,5,0,0:0:0:0:
262,192,27610,1,0,0:0:0:0:
6,192,27860,5,0,0:0:0:0:
263,192,28110,1,0,0:0:0:0:
6,192,28360,5,0,0:0:0:0:
264,192,28610,1,0,0:0:0:0:
6,192,28860,5,0,0:0:0:0:
265,192,29110,1,0,0:0:0:0:
6,192,29360,5,0,0:0:0:0:
266,192,29610,1,0,0:0:0:0:
6,192,29860,5,0,0:0:0:0:
267,192,30110,1,0,0:0:0:0:
6,192,30360,5,0,0:0:0:0:
268,192,30610,1,0,0:0:0:0:
6,192,30860,5,0,0:0:0:0:
269,192,31110,1,0,0:0:0:0:
6,192,31360,5,0,0:0:0:0:
270,192,31610,1,0,0:0:0:0:
6,192,31860,5,0,0:0:0:0:
271,192,32110,1,0,0:0:0:0:
6,192,32360,5,0,0:0:0:0:
272,192,32610,1,0,0:0:0:0:
6,192,32860,5,0,0:0:0:0:
273,192,33110,1,0,0:0:0:0:
6,192,33360,5,0,0:0:0:0:
274,192,33610,1,0,0:0:0:0:
6,192,33860,5,0,0:0:0:0:
275,192,34110,1,0,0:0:0:0:
6,192,34360,5,0,0:0:0:0:
276,192,34610,1,0,0:0:0:0:
6,192,34860,5,0,0:0:0:0:
277,192,35110,1,0,0:0:0:0:
6,192,35360,5,0,0:0:0:0:
278,192,35610,1,0,0:0:0:0:
6,192,35860,5,0,0:0:0:0:
279,192,36110,1,0,0:0:0:0:
6,192,36360,5,0,0:0:0:0:
280,192,36610,1,0,0:0:0:0:
6,192,36860,5,0,0:0:0:0:
280,192,37110,1,0,0:0:0:0:
6,192,37360,5,0,0:0:0:0:
281,192,37610,1,0,0:0:0:0:
6,192,37860,5,0,0:0:0:0:
282,192,38110,1,0,0:0:0:0:
6,192,38360,5,0,0:0:0:0:
283,192,38610,1,0,0:0:0:0:
6,192,38860,5,0,0:0:0:0:
284,192,39110,1,0,0:0:0:0:
6,192,39360,5,0,0:0:0:0:
285,192,39610,1,0,0:0:0:0:
6,192,39860,5,0,0:0:0:0:
286,192,40110,1,0,0:0:0:0:
6,192,40360,5,0,0:0:0:0:
287,192,40610,1,0,0:0:0:0:
6,192,40860,5,0,0:0:0:0:
288,192,41110,1,0,0:0:0:0:
6,192,41360,5,0,0:0:0:0:
289,192,41610,1,0,0:0:0:0:
6,192,41860,5,0,0:0:0:0:
290,192,42110,1,0,0:0:0:0:
6,192,42360,5,0,0:0:0:0:
291,192,42610,1,0,0:0:0:0:
6,192,42860,5,0,0:0:0:0:
292,192,43110,1,0,0:0:0:0:
6,192,43360,5,0,0:0:0:0:
293,192,43610,1,0,0:0:0:0:
6,192,43860,5,0,0:0:0:0:
294,192,44110,1,0,0:0:0:0:
6,192,44360,5,0,0:0:0:0:
295,192,44610,1,0,0:0:0:0:
6,192,44860,5,0,0:0:0:0:
296,192,45110,1,0,0:0:0:0:
6,192,45360,5,0,0:0:0:0:
297,192,45610,1,0,0:0:0:0:
6,192,45860,5,0,0:0:0:0:
298,192,46110,1,0,0:0:0:0:
6,192,46360,5,0,0:0:0:0:
299,192,46610,1,0,0:0:0:0:
6,192,46860,5,0,0:0:0:0:
300,192,47110,1,0,0:0:0:0:
6,192,47360,5,0,0:0:0:0:
301,192,47610,1,0,0:0:0:0:
6,192,47860,5,0,0:0:0:0:
302,192,48110,1,0,0:0:0:0:
6,192,48360,5,0,0:0:0:0:
303,192,48610,1,0,0:0:0:0:
6,192,48860,5,0,0:0:0:0:
304,192,49110,1,0,0:0:0:0:
6,192,49360,5,0,0:0:0:0:
305,192,49610,1,0,0:0:0:0:
6,192,49860,5,0,0:0:0:0:
306,192,50110,1,0,0:0:0:0:
6,192,50360,5,0,0:0:0:0:
307,192,50610,1,0,0:0:0:0:
6,192,50860,5,0,0:0:0:0:
308,192,51110,1,0,0:0:0:0:
6,192,51360,5,0,0:0:0:0:
309,192,51610,1,0,0:0:0:0:
6,192,51860,5,0,0:0:0:0:
310,192,52110,1,0,0:0:0:0:
6,192,52360,5,0,0:0:0:0:
311,192,52610,1,0,0:0:0:0:
6,192,52860,5,0,0:0:0:0:
312,192,53110,1,0,0:0:0:0:
6,192,53360,5,0,0:0:0:0:
313,192,53610,1,0,0:0:0:0:
6,192,53860,5,0,0:0:0:0:
314,192,54110,1,0,0:0:0:0:
6,192,54360,5,0,0:0:0:0:
315,192,54610,1,0,0:0:0:0:
6,192,54860,5,0,0:0:0:0:
316,192,55110,1,0,0:0:0:0:
6,192,55360,5,0,0:0:0:0:
317,192,55610,1,0,0:0:0:0:
6,192,55860,5,0,0:0:0:0:
318,192,56110,1,0,0:0:0:0:
6,192,56360,5,0,0:0:0:0:
319,192,56610,1,0,0:0:0:0:
6,192,56860,5,0,0:0:0:0:
320,192,57110,1,0,0:0:0:0:
6,192,57360,5,0,0:0:0:0:
321,192,57610,1,0,0:0:0:0:
6,192,57860,5,0,0:0:0:0:
322,192,58110,1,0,0:0:0:0:
6,192,58360,5,0,0:0:0:0:
323,192,58610,1,0,0:0:0:0:
6,192,58860,5,0,0:0:0:0:
324,192,59110,1,0,0:0:0:0:
6,192,59360,5,0,0:0:0:0:
325,192,59610,1,0,0:0:0:0:
6,192,59860,5,0,0:0:0:0:
326,192,60110,1,0,0:0:0:0:
6,192,60360,5,0,0:0:0:0:
327,192,60610,1,0,0:0:0:0:
6,192,60860,5,0,0:0:0:0:
328,192,61110,1,0,0:0:0:0:
6,192,61360,5,0,0:0:0:0:
329,192,61610,1,0,0:0:0:0:
6,192,61860,5,0,0:0:0:0:
330,192,62110,1,0,0:0:0:0:
6,192,62360,5,0,0:0:0:0:
331,192,62610,1,0,0:0:0:0:
6,192,62860,5,0,0:0:0:0:
332,192,63110,1,0,0:0:0:0:
6,192,63360,5,0,0:0:0:0:
333,192,63610,1,0,0:0:0:0:
6,192,63860,5,0,0:0:0:0:
334,192,64110,1,0,0:0:0:0:
6,192,64360,5,0,0:0:0:0:
335,192,64610,1,0,0:0:0:0:
6,192,64860,5,0,0:0:0:0:
336,192,65110,1,0,0:0:0:0:
6,192,65360,5,0,0:0:0:0:
337,192,65610,1,0,0:0:0:0:
6,192,65860,5,0,0:0:0:0:
338,192,66110,1,0,0:0:0:0:
6,192,66360,5,0,0:0:0:0:
339,192,66610,1,0,0:0:0:0:
6,192,66860,5,0,0:0:0:0:
340,192,67110,1,0,0:0:0:0:
6,192,67360,5,0,0:0:0:0:
341,192,67610,1,0,0:0:0:0:
6,192,67860,5,0,0:0:0:0:
342,192,68110,1,0,0:0:0:0:
6,192,68360,5,0,0:0:0:0:
343,192,68610,1,0,0:0:0:0:
