osu file format v4

[General]
AudioFilename: m-flo loves BoA -the Love Bug.mp3
AudioLeadIn: 0
AudioHash: fdcd00268666852410714d6ebe21ee32
PreviewTime: -1
Countdown: 1
SampleSet: Normal
EditorBookmarks: 17224,50044,66455,101326,109531,142352,160814,193680

[Metadata]
Title:the Love Bug
Artist:m-flo loves BoA
Creator:eyup
Version:Normal

[Difficulty]
HPDrainRate:3
CircleSize:6
OverallDifficulty:5
SliderMultiplier: 1.6
SliderTickRate: 2

[Events]
//Background and Video events
0,-100000,"background.png"
//Break Periods
2,49002,65316
2,101566,108393
2,141824,159689
//Storyboard Layer 0 (Background)
//Storyboard Layer 1 (Failing)
//Storyboard Layer 2 (Passing)
//Storyboard Layer 3 (Foreground)
//Storyboard Sound Samples
//Background Colour Transformations
3,100,163,162,255

[TimingPoints]
854,512.820512820513,4,1,1,100
158816,512.820512820513,4,1,1,100

[Colours]
Combo1 : 20,104,20
Combo2 : 235,46,104
Combo3 : 20,104,20
Combo4 : 235,46,104

[HitObjects]
232,56,17264,6,0,B|232:56|342:56|488:104|363:168|256:144|201:155|-40:197|308:236|605:275|318:307|224:328,1,640
80,192,20212,5,0
136,192,20597,1,4
256,304,21366,5,0
224,256,21623,1,0
288,256,21879,1,0
256,120,23289,2,0,B|256:120|256:-8,1,120
424,192,24315,5,0
368,192,24700,1,4
184,64,25469,6,0,B|184:64|74:64|-72:112|53:176|160:152|215:163|427:196|108:244|-189:283|98:315|192:336,1,600
232,336,27777,1,0
256,304,29571,5,0
224,256,29828,1,0
288,256,30084,1,0
200,184,30597,1,0
312,184,31110,1,0
256,208,31623,5,0
256,208,31879,5,0
256,208,32136,5,0
256,208,32392,5,0
256,208,32648,5,6
144,192,33930,5,0
112,144,34187,1,0
72,72,34571,2,0,B|72:72|208:72,1,120
248,72,35212,1,0
328,72,35597,2,0,B|328:72|240:184,1,120
256,272,36879,1,4
256,272,37007,1,4
368,192,38033,5,0
400,144,38290,1,0
440,72,38674,2,0,B|440:72|304:72,1,120
264,72,39315,1,0
184,72,39700,2,0,B|184:72|272:184,1,120
216,272,40597,1,0
296,272,40982,1,0
256,200,41366,1,4
256,32,42136,6,0,B|256:32|256:120,1,80
256,192,42777,2,0,B|256:192|160:272,1,120
120,304,43418,1,0
200,304,43802,2,0,B|200:304|328:304,1,120
376,304,44443,1,0
376,216,44828,2,0,B|376:216|240:216,1,120
200,216,45469,1,4
256,192,45982,12,4,48802
24,232,66366,6,0,B|24:232|64:233|129:240|180:260|232:292|288:368,1,280
328,344,67520,6,0,B|328:344|464:224,1,160
488,152,68418,6,0,B|488:152|448:151|383:144|332:124|280:92|224:16,1,280
184,40,69572,6,0,B|184:40|48:160,1,160
32,224,70469,6,0,B|32:224|56:264|128:312,1,120
168,328,71110,2,0,B|168:328|216:360|264:376|328:376,2,160
168,240,72520,6,0,B|168:240|201:271|288:304,1,120
384,320,73418,1,0
384,264,73674,2,0,B|384:264|333:253|273:229|208:176,1,160
112,88,74956,5,0
112,88,75084,1,0
168,88,75341,1,0
168,88,75469,1,0
224,88,75725,2,0,B|224:88|273:131|391:118|424:80,1,200
416,176,76751,5,0
384,224,77007,1,0
416,272,77264,1,0
384,320,77520,2,0,B|384:320|350:360|280:360,3,80
256,192,78802,12,2,80084
232,128,80854,5,4
280,152,81110,1,0
232,184,81366,1,4
280,208,81623,1,0
232,240,81879,1,4
280,264,82136,1,4
448,128,83674,5,0
384,216,84187,5,0
312,128,84700,5,0
240,216,85212,5,0
168,128,85725,5,0
168,128,85854,1,0
136,168,86110,1,0
136,168,86238,1,0
104,208,86495,1,4
176,296,87007,6,0,B|176:296|344:296,1,160
336,240,87777,1,0
336,184,88033,1,0
336,96,88418,1,4
224,8,89059,6,0,B|224:8|196:68|188:119|185:166|203:218|224:256,2,240
128,64,91110,5,0
88,104,91366,1,0
48,144,91623,1,0
88,184,91879,1,0
128,224,92136,1,0
168,264,92392,1,0
128,304,92648,1,4
224,352,93161,6,0,B|224:352|252:292|260:241|263:194|245:142|224:104,2,240
336,328,95212,5,0
376,288,95469,2,0,B|376:288|408:256|408:200,5,80
256,192,97264,12,4,101366
200,120,109443,6,0,B|200:120|227:105|268:84|320:128,1,120
288,168,110084,1,0
288,224,110341,1,0
312,272,110597,2,0,B|312:272|285:287|244:308|192:264,1,120
88,272,111495,5,0
88,184,111879,1,0
128,144,112136,1,0
168,104,112392,1,0
224,104,112648,2,0,B|224:104|352:104,1,120
424,104,113418,5,0
424,160,113674,2,2,B|424:160|424:320,6,120
376,56,116495,5,0
320,56,116751,1,0
264,56,117007,2,0,B|264:56|216:56,4,40
264,112,117777,6,0,B|264:112|192:128|144:160,1,120
152,296,118802,2,0,B|152:296|208:352|272:368,1,120
392,360,119828,2,0,B|392:360|464:344|512:312,1,120
496,176,120853,2,0,B|496:176|440:120|376:104,1,120
256,192,121879,12,4,123418
184,192,123930,2,0,B|184:192|224:160|264:200|296:216|360:168,2,160
488,152,125854,6,0,B|488:152|448:151|383:144|332:124|280:92|224:16,1,280
184,40,127008,6,0,B|184:40|48:160,1,160
24,232,127906,6,0,B|24:232|64:233|129:240|180:260|232:292|288:368,1,280
328,344,129060,6,0,B|328:344|464:224,1,160
480,160,129957,6,0,B|480:160|456:120|384:72,1,120
344,56,130598,2,0,B|344:56|296:24|248:8|184:8,2,160
344,144,132008,6,0,B|344:144|311:113|224:80,1,120
128,64,132906,1,0
128,120,133162,2,0,B|128:120|179:131|239:155|304:208,1,160
400,296,134444,5,0
400,296,134572,1,0
344,296,134829,1,0
344,296,134957,1,0
288,296,135213,2,0,B|288:296|239:253|121:266|88:304,1,200
96,208,136239,5,0
128,160,136495,1,0
96,112,136752,1,0
128,64,137008,2,0,B|128:64|162:24|232:24,3,80
256,192,138290,12,2,139572
280,256,140342,5,4
232,232,140598,1,0
280,200,140854,1,4
232,176,141111,1,0
280,144,141367,1,4
232,120,141624,1,4
432,160,160739,6,0,B|432:160|432:120|415:69|371:40|328:25|288:24,1,200
256,24,161636,1,0
208,24,161892,2,0,B|208:24|169:28|120:54|88:87|80:152,1,160
80,224,162790,6,0,B|80:224|80:264|97:315|141:344|184:359|224:360,1,200
256,360,163687,1,0
304,360,163943,2,0,B|304:360|343:356|392:330|424:297|432:232,1,160
464,192,164841,5,0
384,192,165226,2,0,B|384:192|288:192,5,80
216,192,166892,6,0,B|216:192|88:192,1,120
96,80,167790,1,0
96,80,168046,1,4
352,192,169328,5,0
352,192,169457,1,0
312,232,169713,1,0
312,232,169841,1,0
272,192,170098,2,0,B|272:192|232:168|184:152|128:160|80:200,1,200
128,272,171124,5,0
168,312,171380,1,0
208,352,171637,1,0
256,312,171893,2,0,B|256:312|176:240,3,80
128,160,173174,6,0,B|128:160|184:122|264:188|320:144,1,160
200,232,174200,2,0,B|200:232|256:194|336:260|392:216,1,160
392,320,175227,5,4
336,320,175483,1,0
288,352,175739,1,4
232,352,175996,1,0
184,320,176252,1,4
128,320,176509,1,4
80,64,178303,5,0
120,104,178559,1,0
120,104,178687,1,4
160,144,178944,1,0
160,144,179072,1,4
376,72,180098,5,0
376,72,180226,1,4
336,112,180482,1,0
336,112,180610,1,4
296,152,180867,1,4
64,312,182149,5,0
64,312,182277,1,4
104,272,182533,1,0
144,232,182790,1,0
144,232,182918,1,4
264,112,183687,5,2
256,224,184200,5,2
368,224,184713,5,2
480,224,185226,5,2
480,112,185739,5,0
480,112,185868,1,0
440,152,186124,1,0
440,152,186252,1,0
400,112,186509,2,0,B|400:112|360:88|312:72|256:80|208:120,1,200
208,200,187533,5,0
264,216,187790,1,0
208,240,188046,1,0
264,256,188303,2,0,B|264:256|336:280|424:312,1,160
344,152,189841,5,0
312,136,190012,1,0
280,152,190183,1,2
280,288,190867,1,0
312,304,191038,1,0
344,288,191209,1,2
312,192,191636,5,4
256,192,191892,5,0
200,192,192149,5,4
256,192,192405,5,0
312,192,192662,5,4
256,192,192918,5,6
