osu file format v4

[General]
AudioFilename: m-flo loves BoA -the Love Bug.mp3
AudioLeadIn: 0
AudioHash: fdcd00268666852410714d6ebe21ee32
PreviewTime: -1
Countdown: 1
SampleSet: Normal
EditorBookmarks: 17224,50044,66455,101326,109531,142352,160814,193680

[Metadata]
Title:the Love Bug
Artist:m-flo loves BoA
Creator:eyup
Version:Hard

[Difficulty]
HPDrainRate:5
CircleSize:6
OverallDifficulty:6
SliderMultiplier: 1.6
SliderTickRate: 2

[Events]
//Background and Video events
0,-100000,"background.png"
//Break Periods
2,49002,65316
2,101566,108393
2,141824,159689
//Storyboard Layer 0 (Background)
//Storyboard Layer 1 (Failing)
//Storyboard Layer 2 (Passing)
//Storyboard Layer 3 (Foreground)
//Storyboard Sound Samples
//Background Colour Transformations
3,100,163,162,255

[TimingPoints]
854,512.820512820513,4,1,1,100
158816,512.820512820513,4,1,1,100

[Colours]
Combo1 : 20,104,20
Combo2 : 235,46,104
Combo3 : 20,104,20
Combo4 : 235,46,104

[HitObjects]
232,56,17264,6,0,B|232:56|282:56|342:56|407:56|447:83|469:114|499:151|496:222|489:288|446:317|368:334|208:328,1,640
80,192,20212,5,0
136,192,20469,1,4
136,192,20597,1,4
256,304,21366,5,0
224,256,21623,1,0
288,256,21879,1,0
200,184,22392,1,0
312,184,22905,1,0
256,120,23289,2,0,B|256:120|256:-8,1,120
424,192,24315,5,0
368,192,24571,1,4
368,192,24700,1,4
264,64,25469,6,0,B|264:64|214:64|154:64|89:64|26:85|-10:115|-24:167|-28:240|-12:276|20:312|74:345|192:344,1,600
256,344,27777,1,0
416,288,28546,6,0,B|416:288|368:240,1,40
344,304,28930,1,0
304,264,29187,1,4
304,264,29315,1,4
256,304,29571,5,0
224,256,29828,1,0
256,208,30084,1,0
200,112,30597,1,0
312,112,31110,1,0
256,208,31623,5,0
256,208,31751,1,0
256,208,31879,5,0
256,208,32007,1,0
256,208,32136,5,0
256,208,32264,1,0
256,208,32392,5,0
256,208,32520,1,0
256,208,32648,5,6
256,320,33161,5,0
144,192,33930,5,0
112,144,34187,1,0
80,96,34443,1,0
80,96,34571,1,0
136,96,34828,1,0
136,96,34956,1,0
168,144,35212,1,0
200,192,35469,1,0
200,192,35597,1,0
256,192,35854,1,0
256,192,35982,1,0
224,144,36238,1,0
192,96,36495,1,0
192,96,36623,1,0
160,48,36879,1,0
160,48,37007,1,0
272,128,37520,5,4
368,192,38033,5,0
400,144,38290,1,0
432,96,38546,1,0
432,96,38674,1,0
376,96,38931,1,0
376,96,39059,1,0
344,144,39315,1,0
312,192,39572,1,0
312,192,39700,1,0
256,192,39957,1,0
256,192,40085,1,0
288,144,40341,1,0
320,96,40598,1,0
320,96,40726,1,0
352,48,40982,1,0
352,48,41110,1,0
240,128,41623,5,4
240,128,41751,1,4
208,232,42264,6,0,B|208:232|208:288,1,40
208,328,42648,2,0,B|208:328|208:360,1,40
264,368,43033,2,0,B|264:368|264:328,1,40
320,328,43418,1,0
320,272,43674,2,0,B|320:272|320:240,1,40
264,232,44059,2,0,B|264:232|264:280,1,40
208,272,44443,1,0
208,216,44700,2,0,B|208:216|208:168,1,40
208,120,45084,2,0,B|208:120|208:64,1,40
264,80,45469,1,4
256,192,45982,12,4,47520
256,40,48033,5,0
288,88,48289,1,0
288,88,48418,1,4
224,88,48674,1,0
224,88,48802,1,4
96,216,66366,6,0,B|96:216|128:217|150:232|168:264,1,80
162,254,66751,1,0
200,296,67007,1,0
224,344,67264,1,0
280,344,67520,2,0,B|280:344|288:312|312:272|368:248|408:248,1,160
416,168,68418,6,0,B|416:168|384:167|362:152|344:120,1,80
350,130,68803,1,0
312,88,69059,1,0
288,40,69316,1,0
232,40,69572,2,0,B|232:40|224:72|200:112|144:136|104:136,1,160
72,208,70469,6,0,B|72:208|47:253|128:296,1,80
96,276,70854,1,0
136,312,71110,2,0,B|136:312|184:344|232:360|296:360,2,160
72,208,72520,6,0,B|72:208|47:253|128:296,1,80
96,276,72905,1,0
136,312,73161,1,0
184,336,73418,1,0
240,344,73674,2,0,B|240:344|416:344,1,160
400,344,74315,5,0
400,344,74443,1,0
400,344,74571,1,0
400,256,74956,5,0
400,256,75084,1,0
400,200,75341,1,0
400,200,75469,1,0
400,144,75725,1,0
392,112,75854,1,0
376,88,75982,1,0
352,64,76110,2,0,B|352:64|324:32|280:24,1,80
280,104,76751,5,0
232,136,77007,1,0
176,144,77264,1,0
136,104,77520,2,0,B|136:104|102:144|32:144,3,80
256,192,78802,12,2,79315
256,192,79828,12,2,80341
224,168,80854,5,0
280,168,81110,1,0
280,224,81366,1,0
224,224,81623,1,0
224,280,81879,1,0
280,280,82136,1,0
256,168,82648,5,4
256,168,82777,1,4
448,128,83674,5,2
384,216,84187,5,2
312,128,84700,5,2
240,216,85212,5,2
168,128,85725,5,0
168,128,85854,1,0
136,168,86110,1,0
136,168,86238,1,0
104,208,86495,1,4
192,272,87007,5,0
216,272,87136,1,0
240,272,87264,1,0
264,272,87392,1,0
288,272,87520,1,0
336,240,87777,1,0
336,184,88033,1,0
336,128,88289,1,4
336,128,88418,1,4
248,8,89059,6,0,B|248:8|184:80,1,80
192,120,89571,2,0,B|192:120|272:200,1,80
256,224,90084,2,0,B|256:224|192:296,1,80
200,336,90596,2,0,B|200:336|264:408,1,80
304,376,91110,5,0
304,376,91238,1,0
344,336,91495,1,0
304,296,91751,1,0
344,256,92007,1,0
384,216,92264,1,0
384,216,92392,1,0
344,176,92648,1,0
384,136,92905,1,4
344,96,93161,6,0,B|344:96|312:72|264:88,1,80
216,112,93674,2,0,B|216:112|184:136|128:144,1,80
88,168,94187,2,0,B|88:168|40:200|40:240,1,80
40,288,94700,2,0,B|40:288|36:331|96:368,1,80
128,368,95212,5,0
184,376,95469,2,0,B|184:376|240:376,7,40
280,376,96623,1,4
256,192,97264,12,4,101366
200,120,109443,2,0,B|200:120|227:105|268:84|320:128,1,120
288,168,110084,1,0
288,224,110341,1,0
312,272,110597,2,0,B|312:272|285:287|244:308|192:264,1,120
128,224,111366,5,0
128,224,111495,1,0
128,168,111751,1,0
128,168,111879,1,0
176,192,112136,1,0
232,192,112392,1,0
288,192,112648,2,0,B|288:192|416:192,1,120
408,104,113418,5,0
368,64,113674,2,0,B|368:64|304:0,1,80
311,7,114059,2,0,B|311:7|248:72,1,80
255,64,114443,2,0,B|255:64|192:8,1,80
195,10,114828,2,0,B|195:10|128:72,1,80
136,64,115212,2,0,B|136:64|200:8,1,80
196,11,115597,2,0,B|196:11|264:72,1,80
255,64,115982,1,0
256,144,116366,5,0
256,144,116495,1,0
256,200,116751,1,0
256,256,117007,2,0,B|256:256|256:296,4,40
312,256,117777,5,4
352,216,118033,2,0,B|352:216|384:184,1,40
496,256,118802,1,4
496,256,118930,1,4
464,216,119059,2,0,B|464:216|432:184,1,40
408,48,119828,1,4
408,104,120084,2,0,B|408:104|408:136,1,40
408,280,120854,1,4
408,280,120982,1,4
408,224,121110,2,0,B|408:224|408:184,1,40
256,192,121879,12,4,123418
184,192,123930,2,2,B|184:192|224:160|264:200|296:216|360:168,2,160
416,168,125854,6,0,B|416:168|384:167|362:152|344:120,1,80
350,130,126239,1,0
312,88,126495,1,0
288,40,126752,1,0
232,40,127008,2,0,B|232:40|224:72|200:112|144:136|104:136,1,160
96,216,127906,6,0,B|96:216|128:217|150:232|168:264,1,80
162,254,128291,1,0
200,296,128547,1,0
224,344,128804,1,0
280,344,129060,2,0,B|280:344|288:312|312:272|368:248|408:248,1,160
440,176,129957,6,0,B|440:176|465:131|384:88,1,80
416,108,130342,1,0
376,72,130598,2,0,B|376:72|328:40|280:24|216:24,2,160
440,176,132008,6,0,B|440:176|465:131|384:88,1,80
416,108,132393,1,0
376,72,132649,1,0
328,48,132906,1,0
272,40,133162,2,0,B|272:40|96:40,1,160
112,40,133803,5,0
112,40,133931,1,0
112,40,134059,1,0
112,128,134444,5,0
112,128,134572,1,0
112,184,134829,1,0
112,184,134957,1,0
112,240,135213,1,0
120,272,135342,1,0
136,296,135470,1,0
160,320,135598,2,0,B|160:320|188:352|232:360,1,80
232,280,136239,5,0
280,248,136495,1,0
336,240,136752,1,0
376,280,137008,2,0,B|376:280|410:240|480:240,3,80
256,192,138290,12,2,138803
256,192,139315,12,2,139828
288,216,140342,5,4
232,216,140598,1,0
232,160,140854,1,4
288,160,141111,1,0
288,104,141367,1,4
232,104,141624,1,4
432,160,160739,6,0,B|432:160|432:120|415:69|371:40|328:25|288:24,1,200
256,24,161636,1,0
208,24,161892,2,0,B|208:24|169:28|120:54|88:87|80:152,1,160
80,224,162790,6,0,B|80:224|80:264|97:315|141:344|184:359|224:360,1,200
256,360,163687,1,0
304,360,163943,2,0,B|304:360|343:356|392:330|424:297|432:232,1,160
464,192,164842,6,0,B|464:192|418:192|376:192,1,80
384,192,165226,2,0,B|384:192|288:192,5,80
216,192,166892,6,0,B|216:192|120:192,1,80
136,192,167277,2,0,B|136:192|224:192,1,80
272,192,167790,1,0
272,192,168046,1,4
272,48,168687,2,0,B|272:48|272:88,2,40
200,88,169328,6,0,B|200:88|200:32,1,40
200,48,169713,2,0,B|200:48|200:80,1,40
200,144,170098,1,0
200,168,170226,1,0
200,192,170354,1,0
200,216,170482,1,0
200,216,170739,1,4
256,272,171124,5,0
216,312,171380,1,0
176,352,171637,1,0
128,312,171893,2,0,B|128:312|208:240,3,80
128,160,173174,6,0,B|128:160|184:122|264:188|320:144,1,160
200,232,174200,2,0,B|200:232|256:194|336:260|392:216,1,160
392,320,175227,5,0
336,320,175483,1,0
288,352,175739,1,0
232,352,175996,1,0
184,320,176252,1,0
128,320,176509,1,0
256,248,177021,5,4
256,248,177149,1,4
80,64,178303,5,0
120,104,178559,1,0
120,104,178687,1,4
160,144,178944,1,0
160,144,179072,1,4
376,72,180098,5,0
376,72,180226,1,4
336,112,180482,1,0
336,112,180610,1,4
296,152,180867,1,4
64,312,182149,5,0
64,312,182277,1,4
104,272,182533,1,0
144,232,182790,1,0
144,232,182918,1,4
144,232,183046,1,4
144,232,183174,1,4
224,160,183687,5,2
288,248,184200,5,2
352,160,184713,5,2
416,248,185226,5,2
352,344,185739,5,0
352,344,185867,1,0
296,344,186123,1,0
296,344,186251,1,0
208,344,186572,1,0
192,320,186700,1,0
208,296,186828,1,0
192,272,186957,1,0
192,232,187149,1,4
128,176,187533,5,0
184,160,187790,1,0
128,136,188046,1,0
184,120,188303,2,0,B|184:120|256:96|344:64,1,160
335,67,189072,1,4
384,168,189585,6,0,B|384:168|336:184|272:152,1,80
264,160,190012,1,0
224,168,190183,1,0
280,240,190610,2,0,B|280:240|232:256|168:224,1,80
160,232,191038,1,0
120,240,191209,1,0
200,192,191636,5,4
256,192,191892,5,0
312,192,192149,5,4
256,192,192405,5,0
200,192,192662,5,4
256,192,192854,5,0
256,192,192918,1,4
