osu file format v5

[General]
AudioFilename: m-flo loves BENNIE K. - Taste Your Stuff(Happy Drive).mp3
AudioLeadIn: 0
PreviewTime: -1
Countdown: 1
SampleSet: Normal
StackLeniency: 0.7
Mode: 0

[Metadata]
Title:Taste Your Stuff
Artist:m-flo loves BENNIE K
Creator:James
Version:Normal
Source:
Tags:

[Difficulty]
HPDrainRate:3
CircleSize:4
OverallDifficulty:4
SliderMultiplier:1.6
SliderTickRate:1

[Events]
//Background and Video events
//Break Periods
2,33708,40827
2,89384,102743
//Storyboard Layer 0 (Background)
//Storyboard Layer 1 (Failing)
//Storyboard Layer 2 (Passing)
//Storyboard Layer 3 (Foreground)
//Storyboard Sound Samples
//Background Colour Transformations
3,100,255,255,255

[TimingPoints]
11430,480,4,1,0,100

[HitObjects]
88,96,18150,2,0,B|192:96,4,80
448,312,20550,2,2,B|372:279|272:312,1,160
40,256,22470,2,2,B|19:175|148:180|112:272,1,160
312,80,23910,2,0,C|384:80|352:184,4,160
184,104,26310,6,2,B|120:168|16:136,1,160
336,336,28230,2,2,B|408:272|504:312,1,160
56,144,30150,2,2,B|120:112|184:160|232:128,1,160
456,64,31590,1,0
328,80,32070,1,0
264,96,32310,1,0
208,136,32550,1,0
112,224,33030,1,0
40,328,33510,1,0
40,144,42150,6,0,B|120:208,3,80
144,240,43110,2,0,B|240:248,3,80
288,256,44070,2,0,B|344:184,3,80
400,80,45270,1,2
448,192,47910,5,0
320,192,48390,1,0
192,192,48870,1,0
64,192,49350,1,0
120,304,49830,6,0,B|208:272,3,80
256,256,50790,1,2
256,256,51030,1,2
256,256,51270,1,2
384,280,51750,2,0,B|392:184|488:152,1,160
424,112,52470,1,2
368,80,52710,2,0,B|296:136|184:112,2,160
368,144,53910,1,2
312,184,54150,2,0,B|208:216|200:304,1,160
168,232,54870,1,2
184,168,55110,2,0,B|200:70|96:32,1,160
176,48,55830,1,2
240,40,56070,2,0,B|336:40|408:96,2,160
64,72,57510,5,2
40,128,57750,1,0
80,176,57990,1,2
40,224,58230,1,0
72,280,58470,1,2
128,304,58710,1,0
160,248,58950,1,2
216,280,59190,1,0
264,232,59430,1,2
304,280,59670,1,0
360,256,59910,1,2
424,248,60150,1,0
472,288,60390,6,2,B|400:352,1,80
352,320,60870,2,2,B|248:288,1,80
224,256,61350,2,2,B|264:176,1,80
200,160,61830,2,2,B|120:128,1,80
80,88,62310,2,2,B|176:32,1,80
208,32,62790,2,2,B|312:48,1,80
352,48,63270,2,2,B|384:144,1,80
392,184,63750,2,2,B|288:216,1,80
256,192,64230,12,0,65190
408,104,65910,1,0
344,96,66150,1,0
280,112,66390,1,0
216,96,66630,1,0
160,120,66870,1,0
96,112,67110,1,0
64,304,67830,1,0
120,272,68070,1,0
176,296,68310,1,0
232,264,68550,1,0
288,280,68790,1,0
336,320,69030,2,0,B|432:264|512:312,1,160
288,40,70470,5,0
176,104,70950,1,0
264,192,71430,1,0
208,224,71670,1,0
152,256,71910,1,0
40,192,72390,1,0
80,144,72630,1,0
136,120,72870,1,0
200,112,73110,1,0
264,112,73350,1,0
328,120,73590,1,0
392,136,73830,5,0
432,184,74070,2,0,B|336:224,1,80
296,240,74550,2,0,B|296:336,1,80
40,136,76230,2,2,B|128:72|200:144,1,160
456,88,78150,2,2,B|384:56|336:120|280:88,1,160
56,72,79590,1,2
96,120,79830,1,0
56,168,80070,1,2
96,216,80310,1,0
64,272,80550,1,2
168,344,81030,1,0
280,288,81510,1,2
184,200,81990,6,2,B|264:144|336:216,1,160
416,40,83910,2,2,B|372:122|512:100|464:176,1,160
152,48,85830,2,2,B|152:216,1,160
472,336,87270,1,2
400,232,87750,1,2
336,240,87990,1,0
288,200,88230,1,2
160,232,88710,1,0
64,152,89190,1,2
56,104,104070,6,0,B|131:41|232:104,2,160
176,328,105990,2,0,B|288:320|328:232,2,160
136,40,107910,2,0,B|88:96|184:152|120:208,1,160
64,296,108870,2,0,B|176:272|240:344,1,160
344,296,109830,2,0,B|236:275|232:168,1,160
272,72,110790,6,0,B|360:120,3,80
400,144,111750,2,0,B|400:248,3,80
400,288,112710,2,0,B|320:248,3,80
272,224,113670,2,0,B|272:320,3,80
232,352,114630,2,0,B|136:352,1,80
88,360,115110,6,0,B|112:280|16:192,1,160
120,112,116070,2,0,B|144:208|232:224,1,160
272,104,117030,2,0,B|352:64|440:120,1,160
352,216,117990,2,0,B|336:312|224:336,1,160
200,208,118950,2,0,B|152:120|48:136,1,160
176,64,119910,2,0,B|264:120|336:88,1,160
232,184,120870,2,0,B|304:240|232:344,1,160
352,264,121830,6,0,B|456:240|520:296,2,160
104,64,124230,2,0,C|88:168|112:176|152:192,1,160
160,320,126150,2,0,C|256:320,2,80
384,56,127590,1,0
296,152,128070,1,0
400,216,128550,1,0
352,336,129030,1,0
224,304,129510,1,0
96,328,129990,5,2
152,296,130230,1,0
160,232,130470,1,2
216,208,130710,1,0
248,152,130950,1,2
224,88,131190,1,0
160,80,131430,1,2
120,128,131670,1,0
80,176,131910,6,2,C|104:264,1,80
120,312,132390,2,2,C|232:312,1,80
248,272,132870,2,2,C|336:352,1,80
368,344,133350,2,2,C|368:240,1,80
368,200,133830,2,2,C|456:240,1,80
496,256,134310,2,2,C|496:168,7,80
432,176,136230,2,4,C|360:176,16,40
64,120,139590,6,2,C|160:88|224:136,1,160
368,288,141510,2,2,B|402:206|419:414|464:288,1,160
216,216,142950,2,0,L|132:228|89:245|80:184,4,160
344,200,145350,2,2,B|456:192|424:264|488:256,1,160
128,48,147270,2,2,B|192:88|176:128|136:152|72:128,1,160
160,312,149190,2,2,L|304:312|312:264,1,160
304,40,150630,2,0,B|452:38|257:102|448:40,4,160
176,40,153030,5,0
48,40,153510,1,0
104,152,153990,1,2
56,272,154470,1,2
176,304,154950,1,0
264,216,155430,1,0
344,312,155910,1,2
472,320,156390,1,2
392,216,156870,1,0
448,104,157350,1,0
320,72,157830,1,2
216,144,158310,6,0,B|137:194|64:104|160:224,4,160
336,96,160710,6,0,B|416:64|496:136,1,160
384,208,161670,1,2
384,336,162150,1,2
272,280,162630,2,0,B|185:236|96:312,1,160
88,168,163590,1,2
192,96,164070,1,2
304,152,164550,2,0,B|360:176|209:264|264:288,1,160
440,184,165990,1,2
312,184,166470,1,0
248,184,166710,1,2
184,184,166950,1,0
56,184,167430,2,2,B|184:312,1,160
216,256,168150,5,0
264,296,168390,1,2
312,256,168630,1,0
360,296,168870,1,2
384,64,170310,1,0
344,112,170550,1,2
392,152,170790,1,0
56,56,172230,1,2
120,64,172470,1,0
112,128,172710,1,2
176,144,172950,1,0
64,280,173670,5,2
112,320,173910,1,0
160,280,174150,1,2
208,320,174390,1,0
256,280,174630,1,2
304,320,174870,1,0
352,280,175110,1,2
400,320,175350,1,0
448,280,175590,1,2
368,176,176070,6,0,B|312:104,2,80
80,192,177990,2,0,B|80:296,2,80
296,304,179910,2,0,B|384:304,3,80
432,64,181350,2,0,B|392:144,1,80
360,184,181830,2,0,B|296:128,1,80
248,88,182310,2,0,B|184:168,1,80
152,192,182790,2,0,B|96:128,2,80
448,312,184230,5,0
384,64,185190,1,0
320,312,186150,1,0
240,64,187110,1,0
184,312,188070,1,0
72,240,188550,1,0
184,184,189030,1,0
72,120,189510,1,0
184,64,189990,1,0
240,176,190470,1,0
296,64,190950,1,0
360,176,191430,1,0
424,64,191910,6,0,B|472:144,1,80
488,192,192390,2,0,B|400:192,2,80
464,320,193350,2,0,B|384:272,1,80
336,256,193830,2,0,B|336:352,1,80
280,304,194310,2,0,B|208:248,2,80
312,176,195270,2,0,B|312:72,1,80
264,136,195750,2,0,B|192:208,1,80
160,232,196230,2,0,B|160:144,2,80
256,192,197190,12,0,198630
