osu file format v5

[General]
AudioFilename: m-flo loves BENNIE K. - Taste Your Stuff(Happy Drive).mp3
AudioLeadIn: 0
PreviewTime: -1
Countdown: 1
SampleSet: Normal
StackLeniency: 0.7
Mode: 0

[Metadata]
Title:Taste Your Stuff
Artist:m-flo loves BENNIE K
Creator:James
Version:Hard
Source:
Tags:

[Difficulty]
HPDrainRate:7
CircleSize:4
OverallDifficulty:6
SliderMultiplier:1.6
SliderTickRate:1

[Events]
//Background and Video events
//Break Periods
2,34688,41117
2,89383,103013
//Storyboard Layer 0 (Background)
//Storyboard Layer 1 (Failing)
//Storyboard Layer 2 (Passing)
//Storyboard Layer 3 (Foreground)
//Storyboard Sound Samples
//Background Colour Transformations
3,100,255,255,255

[TimingPoints]
11430,480,4,1,0,100
65906,480,4,2,0,100
74785,480,4,1,0,100
103583,480,4,2,0,100
126621,480,4,1,0,100

[HitObjects]
256,48,18150,1,0
192,64,18390,2,0,B|143:76|112:120,1,80
184,112,18870,2,0,B|230:112|272:152,1,80
352,224,19590,1,2
464,160,20070,1,2
344,112,20550,2,0,B|253:84|168:112,1,160
64,136,21510,1,2
144,240,21990,1,2
264,208,22470,2,0,B|330:184|370:232|432:192,1,160
440,72,23910,1,0
376,72,24150,2,0,B|264:72,1,80
232,72,24630,2,0,B|136:72,1,80
72,168,25350,2,0,B|184:168|264:168,1,160
296,168,26070,5,0
360,168,26310,2,0,B|281:176|192:240,1,160
104,296,27270,1,2
224,328,27750,1,2
344,288,28230,2,0,B|263:245|160:240,1,160
64,224,29190,1,2
176,168,29670,1,2
296,128,30150,2,0,B|352:106|402:148|456:120,1,160
40,248,31590,5,0
104,224,31830,2,0,B|216:184,1,80
240,184,32310,1,0
304,168,32550,2,0,B|384:137|472:168,2,160
256,192,33630,12,0,34470
392,232,42150,6,0,B|376:136,1,80
360,88,42630,2,0,B|264:112,1,80
224,128,43110,2,0,B|192:232,3,80
184,264,44070,2,0,B|280:264,2,80
120,256,44790,2,0,B|32:88,1,160
48,112,45510,5,6
256,0,47910,5,2
24,192,48390,1,2
256,376,48870,1,2
488,192,49350,1,2
376,128,49830,5,0
376,128,49950,1,2
312,104,50190,1,0
312,104,50310,1,2
248,104,50550,1,0
184,112,50790,2,2,B|137:113|96:144,1,80
56,168,51270,1,2
112,192,51510,2,0,B|168:214|256:208,1,120
229,209,51990,5,2
229,209,52110,1,0
229,209,52230,2,2,B|332:220|400:168,1,160
400,200,52830,1,0
400,200,52950,1,2
400,200,53070,1,0
400,200,53190,2,2,B|348:258|368:368,1,160
376,360,53790,5,0
376,360,53910,1,2
375,358,54030,1,0
375,360,54150,2,2,B|283:367|211:303,1,160
238,329,54750,1,0
240,328,54870,1,2
240,328,54990,1,0
240,328,55110,2,2,B|280:240|216:176,1,160
256,192,55830,12,0,57030
48,48,57510,2,2,L|120:104,1,80
112,96,57870,1,0
112,96,57990,2,2,L|200:48,1,80
184,56,58350,1,0
184,56,58470,2,2,L|264:112,1,80
248,104,58830,1,0
248,104,58950,2,2,L|304:32,1,80
297,40,59310,1,0
297,40,59430,6,2,L|384:80,1,80
369,73,59790,1,2
369,73,59910,2,2,L|488:64,1,80
448,66,60270,1,0
448,66,60390,2,2,L|464:184,1,80
458,145,60750,1,0
458,145,60870,2,2,L|352:168,1,80
379,161,61230,1,0
379,161,61350,6,2,L|368:264,1,80
370,240,61710,1,0
370,240,61830,2,2,L|432:312,1,80
422,300,62190,1,0
422,300,62310,2,2,L|328:344,1,80
349,333,62670,1,0
349,333,62790,2,2,L|256:320,1,80
208,312,63270,5,2
152,272,63510,1,2
192,224,63750,1,2
176,160,63990,1,2
200,96,64230,1,2
216,120,64350,1,0
248,128,64470,1,2
272,152,64590,1,0
304,160,64710,1,2
328,184,64830,1,0
360,184,64950,1,2
376,208,65070,1,0
408,216,65190,5,6
472,88,65906,5,2
384,48,66146,1,0
312,112,66386,1,2
224,64,66626,2,0,L|128:88,1,80
48,64,67106,1,2
48,336,67826,2,0,L|144:288,1,80
208,272,68306,1,2
288,328,68546,2,0,L|400:344,1,80
464,352,69026,2,2,B|420:275|357:227|272:200|168:200,1,320
64,88,70466,6,0,B|152:64|232:120,1,160
384,208,71426,1,2
456,144,71666,1,0
392,72,71906,2,2,B|373:140|339:169|248:168,1,160
184,168,72626,1,0
96,136,72866,1,2
168,80,73106,1,0
208,168,73346,1,2
160,248,73586,1,0
240,304,73826,5,0
336,312,74066,2,0,B|400:312|440:288,1,80
504,272,74546,2,0,B|448:224|416:224,1,80
264,152,75265,1,2
80,208,75745,1,2
160,32,76225,2,0,B|200:120|312:120,1,160
480,120,77185,1,2
296,64,77665,1,2
48,184,78145,2,0,B|95:214|164:164|216:224,1,160
456,328,79585,2,0,B|464:240,1,80
392,184,80065,2,0,B|304:256,1,80
248,280,80545,2,2,B|232:188|120:184,2,160
344,296,81745,5,0
368,200,81985,2,0,B|408:112|488:104,1,160
296,72,82945,1,2
104,88,83425,1,2
48,336,83905,2,0,B|144:280|232:328,1,160
392,344,84865,1,2
504,192,85345,1,2
320,144,85825,2,0,B|260:126|195:177|144:128,1,160
32,320,86785,1,2
216,272,87265,5,2
304,304,87505,1,0
344,320,87625,1,0
384,336,87745,1,2
472,296,87985,1,0
432,208,88225,1,2
384,200,88345,1,0
336,192,88465,1,0
240,168,88705,2,2,B|177:157|123:158|56:176,1,160
56,144,103583,5,0
208,96,104063,2,2,B|288:136|392:120,2,160
224,256,105503,1,0
336,144,105983,2,2,B|401:80|512:104,2,160
448,264,107423,1,0
304,192,107903,2,2,B|228:149|120:192,1,160
72,208,108623,1,0
120,264,108863,2,2,B|168:344|280:320,1,160
336,312,109583,2,0,B|392:304|424:264,1,80
480,240,110063,2,0,B|416:208|400:168,1,80
368,128,110543,2,0,B|312:120|264:152,1,80
176,192,111023,5,0
104,288,111263,1,2
216,336,111503,1,0
160,224,111743,1,2
256,152,111983,1,0
352,216,112223,1,2
248,288,112463,1,0
136,248,112703,1,2
152,88,112943,5,0
248,208,113183,1,2
408,208,113423,1,0
392,48,113663,1,2
264,144,113903,1,0
384,248,114143,1,2
248,336,114383,1,0
408,352,114623,1,2
400,192,114863,1,0
264,216,115103,5,2
264,216,115223,2,2,B|152:184,1,80
187,194,115583,1,2
48,48,116063,1,2
48,48,116183,2,2,B|48:160,1,80
48,128,116543,1,2
48,208,116783,5,0
48,208,116903,1,0
48,208,117023,1,2
48,208,117143,2,2,B|152:208,1,80
128,208,117503,1,2
208,200,117743,1,0
208,200,117863,1,0
208,200,117983,1,2
208,200,118103,2,2,B|288:120,1,80
264,144,118463,1,2
296,72,118703,5,0
336,56,118823,1,0
368,48,118943,1,2
448,64,119183,1,0
480,136,119423,1,2
480,176,119543,1,0
472,216,119663,1,0
400,232,119903,5,2
360,232,120023,1,0
320,232,120143,1,0
280,232,120263,1,0
248,232,120383,1,2
208,232,120503,1,0
168,232,120623,1,0
128,232,120743,1,0
88,232,120863,5,2
56,144,121103,1,0
104,80,121343,1,2
176,48,121583,5,0
192,72,121703,1,0
208,96,121823,1,0
224,120,121943,1,0
240,144,122063,1,0
256,168,122183,1,0
272,192,122303,1,2
288,216,122423,1,0
304,240,122543,1,2
320,264,122663,1,0
336,288,122783,1,2
168,96,124223,6,0,B|256:64|336:104,1,160
384,288,126143,1,0
320,312,126383,1,0
256,288,126621,1,2
192,280,126861,5,0
160,288,126981,1,0
128,296,127101,1,2
72,240,127341,1,0
72,208,127461,1,0
72,176,127581,1,2
144,144,127821,1,0
176,136,127941,1,0
208,128,128061,1,2
288,112,128301,5,0
296,144,128421,1,0
304,176,128541,1,2
328,248,128781,1,0
360,240,128901,1,0
392,232,129021,1,2
472,208,129261,1,0
480,176,129381,1,0
488,144,129501,1,2
408,120,129741,5,0
376,112,129861,1,0
344,104,129981,1,2
312,96,130101,1,0
280,88,130221,1,0
200,72,130461,6,2,B|192:168,1,80
184,232,130941,1,0
112,272,131181,1,0
192,272,131421,2,2,B|296:272,1,80
352,264,131901,6,0,B|424:200,1,80
352,152,132381,1,2
280,184,132621,1,2
208,144,132861,1,0
136,176,133101,1,0
104,104,133341,2,2,B|160:184,1,80
200,232,133821,6,0,B|112:192,1,80
16,152,134301,1,2
96,64,134541,1,0
152,168,134781,1,2
48,224,135021,1,0
152,272,135261,1,2
88,168,135501,1,0
208,192,135741,1,2
168,80,135981,1,0
280,40,136221,5,2
288,72,136341,1,0
312,88,136461,1,2
320,120,136581,1,0
344,136,136701,1,2
352,168,136821,1,0
352,200,136941,1,2
376,216,137061,1,0
376,248,137181,1,2
392,272,137301,1,0
408,296,137421,6,2,B|408:320,12,20
280,272,138621,1,2
216,256,138861,1,0
216,256,138981,1,2
152,240,139221,1,0
152,240,139341,1,2
56,208,139581,2,0,B|146:215|200:136,1,160
256,32,140541,5,2
320,48,140781,1,0
320,48,140901,1,2
384,64,141141,1,0
384,64,141261,1,2
472,96,141501,2,0,B|376:124|416:240,1,160
440,344,142461,5,2
336,264,142941,5,2
280,224,143181,1,0
216,248,143421,1,2
200,312,143661,1,0
256,344,143901,1,2
480,32,144381,1,0
32,32,144861,1,2
88,48,145101,1,0
152,56,145341,2,2,B|248:80|336:40,1,160
400,144,146301,1,4
320,240,146781,5,2
256,216,147021,1,0
256,216,147141,1,2
200,240,147381,1,0
200,240,147501,1,2
144,208,147741,5,2
168,152,147981,1,0
168,152,148101,1,2
136,96,148341,1,0
136,96,148461,1,2
192,64,148701,1,2
256,64,148941,1,0
256,64,149061,1,2
256,64,149181,6,2,B|344:63|424:120,2,160
48,64,150621,5,2
48,160,150861,1,0
120,216,151101,1,2
208,248,151341,1,0
256,328,151581,1,2
32,32,152061,1,0
480,32,152541,1,0
416,48,152781,5,0
352,64,153021,1,0
288,56,153261,1,0
224,32,153501,1,0
48,208,153981,1,2
240,344,154461,1,2
464,264,154941,2,0,B|384:200|296:256,1,160
88,320,155901,1,2
288,192,156381,1,2
48,184,156861,2,0,B|136:216|216:168,1,160
424,80,157821,1,2
256,352,158301,5,4
64,96,158781,1,4
384,120,159261,1,4
80,224,159741,1,4
384,328,160221,1,4
176,80,160701,6,2,B|264:48|360:96,1,160
368,320,161661,1,2
152,208,162141,1,2
384,168,162621,2,2,B|304:120|216:160,3,160
8,256,164541,2,2,B|24:355|144:368,1,160
352,336,165501,1,2
192,152,165981,5,0
424,88,166461,1,0
392,144,166701,1,0
328,128,166941,2,2,B|232:104|168:160,2,160
392,144,168141,5,0
440,184,168381,1,2
456,240,168621,1,0
440,304,168861,1,2
376,304,169101,2,0,B|320:224,1,80
264,248,169581,2,0,B|152:248,1,80
72,312,170301,5,2
128,280,170541,1,2
112,216,170781,2,0,B|200:160,1,80
232,144,171261,2,0,B|232:248,2,80
328,64,172221,5,2
392,56,172461,1,0
440,96,172701,1,2
416,152,172941,1,0
360,184,173181,2,0,B|416:264,1,80
344,256,173661,6,0,B|240:256,1,80
200,256,174141,1,0
144,224,174381,2,0,B|96:152,1,80
64,104,174861,1,0
128,88,175101,2,0,B|136:184,2,80
120,24,175821,1,0
184,40,176061,2,2,B|272:56,1,80
328,64,176541,1,2
392,80,176781,2,0,B|400:192,1,80
464,160,177261,2,0,B|472:264,1,80
384,336,177981,5,2
328,304,178221,1,0
264,320,178461,1,2
208,296,178701,2,0,B|144:240,1,80
104,192,179181,2,0,B|96:304,2,80
112,128,179901,1,2
144,72,180141,1,2
200,96,180381,1,2
256,64,180621,1,0
320,72,180861,2,0,B|272:152,1,80
240,192,181341,6,0,B|136:192,1,80
96,192,181821,1,2
136,240,182061,1,2
200,240,182301,2,0,B|288:240,1,80
344,240,182781,2,2,B|384:152,2,80
320,296,183501,1,0
376,328,183741,1,2
432,304,183981,1,0
496,248,184221,5,2
480,184,184461,1,0
480,184,184581,1,2
464,120,184821,1,0
464,120,184941,1,2
392,88,185181,1,2
328,80,185421,1,0
328,80,185541,1,2
264,72,185781,1,0
264,72,185901,1,2
184,64,186141,5,2
176,128,186381,1,0
176,128,186501,1,2
168,192,186741,1,0
168,192,186861,1,2
160,272,187101,1,2
216,240,187341,1,0
216,240,187461,1,2
272,208,187701,1,0
272,208,187821,1,2
344,168,188061,5,2
392,208,188301,1,0
416,232,188421,1,2
456,280,188661,1,0
432,304,188781,1,2
368,352,189021,1,2
304,336,189261,1,0
272,328,189381,1,2
208,312,189621,1,0
208,280,189741,1,2
216,200,189981,5,2
160,224,190221,1,0
128,240,190341,1,2
72,272,190581,1,0
40,288,190701,1,2
80,216,190941,1,2
112,160,191181,1,0
128,128,191301,1,2
192,128,191541,1,0
224,128,191661,1,2
288,128,191901,6,0,B|296:224,1,80
304,272,192381,2,0,B|416:272,2,80
80,72,193341,2,0,B|80:160,1,80
144,152,193821,2,0,B|144:48,1,80
208,72,194301,2,0,B|208:168,2,80
440,72,195261,2,0,B|376:136,1,80
424,176,195741,2,0,B|352:248,1,80
416,272,196221,2,0,B|344:344,2,80
256,192,196941,12,0,198621
