osu file format v4

[General]
AudioFilename: luvotomy.mp3
AudioLeadIn: 1000
AudioHash: b95d588dd998b2b42998798d99738958
PreviewTime: -1
SampleSet: Normal
EditorBookmarks: 5289,19301,32875,61346,89152,117402,121343,145435,157696,159006,213745,215284,243532,257543,271996,285572

[Metadata]
Title:Luvotomy
Artist:m-flo
Creator:chan
Version:Easy

[Difficulty]
HPDrainRate:5
CircleSize:5
OverallDifficulty:5
SliderMultiplier: 1
SliderTickRate: 1

[Events]
2,88699,95396
2,145631,157806
2,210663,214299
2,285772,287876
2,289276,291380
2,292780,294883
3,100,0,0,64

[TimingPoints]
5288,437.956204379562,4,2,0
101638,437.956204379562,4,1,0
157687,437.956204379562,4,2,0
213745,437.956204379562,4,1,0

[HitObjects]
304,96,5287,2,0,B|304:96|370:126|464:96,2,150
208,96,7039,2,0,B|208:96|142:126|48:96,2,150
304,128,8791,2,0,B|304:128|464:160,2,150
208,128,10543,2,0,B|208:128|48:160,2,150
304,176,12295,2,0,B|304:176|464:176,2,150
208,176,14047,2,0,B|208:176|48:176,2,150
304,176,15798,5,4
448,176,16455,1,4
448,320,17112,1,4
352,320,17550,1,4
208,320,18207,1,4
208,176,18864,1,4
208,80,19302,6,0,B|208:80|368:80,2,150
304,80,21054,2,0,B|304:80|464:80,2,150
224,144,22806,2,0,B|224:144|384:144,2,150
320,144,24558,2,0,B|320:144|480:144,2,150
240,208,26309,2,0,B|240:208|400:208,2,150
336,208,28061,2,0,B|336:208|496:208,2,150
256,144,29813,1,4
400,144,30470,1,4
400,288,31127,1,4
304,288,31565,1,4
16,192,32879,5,0
112,192,33317,1,2
304,192,34193,1,0
400,192,34631,1,0
400,96,35069,1,2
224,192,35944,1,0
128,192,36382,1,0
128,96,36820,1,2
320,96,37696,1,0
320,192,38134,1,0
320,288,38572,1,6
32,192,39886,6,2,B|32:192|32:128,1,50
176,144,40762,1,0
272,144,41200,1,0
368,144,41638,2,0,B|368:144|368:80,1,50
368,240,42514,6,0,B|368:240|312:276|256:240,1,100
172,250,43390,2,0,B|172:250|172:186,1,50
320,176,44266,1,0
320,80,44704,1,0
224,80,45142,2,4,B|224:80|224:144,1,50
0,320,47331,6,0,B|0:320|208:320,1,200
304,320,48645,1,2
400,320,49083,2,0,B|400:320|400:256,2,50
400,224,49959,1,2
496,224,50397,5,0
432,144,50835,2,0,B|432:144|403:206|304:192,2,100
336,144,52149,2,0,B|336:144|336:208,1,50
144,256,53244,1,2
80,336,53682,1,2
208,256,54339,5,0
304,256,54777,2,0,B|304:256|384:256|400:208,1,100
320,144,55652,1,2
224,144,56090,1,0
128,144,56528,2,0,B|128:144|106:100|176:48,1,100
128,256,57842,6,0,B|128:256|240:256,2,100
32,256,59156,2,2,B|32:256|32:192,1,50
128,160,59813,1,2
224,112,60251,1,2
128,64,60689,1,2
208,192,61346,6,4,B|208:192|284:175|384:240,1,150
432,96,62660,2,4,B|432:96|356:46|288:176,1,150
352,288,63974,5,0
320,192,64412,2,0,B|320:192|304:144,1,50
208,176,65069,1,0
112,224,65506,1,0
208,272,65944,1,0
112,304,66382,1,0
112,208,66820,2,0,B|112:208|144:176,1,50
448,192,68353,5,4
304,192,69010,1,4
160,192,69667,1,4
16,192,70324,1,4
240,288,71419,5,0
256,192,71857,1,0
304,112,72295,2,2,B|304:112|368:192,1,100
384,288,73171,1,0
416,192,73609,1,0
464,112,74047,2,2,B|464:112|528:192,1,100
368,80,75360,5,4
256,176,76017,1,4
144,80,76674,1,4
48,192,77331,1,4
144,304,77988,5,0
240,304,78426,2,0,B|240:304|265:302|304:272,1,50
288,176,79083,1,0
384,176,79521,1,0
480,176,79959,2,0,B|480:176|531:219|480:304,1,100
400,256,80835,2,0,B|400:256|336:256,1,50
80,128,82368,5,4
80,272,83025,1,4
208,192,83682,1,4
208,336,84339,1,4
336,256,84996,5,0
240,256,85433,2,0,B|240:256|119:296,1,100
48,288,86309,2,0,B|48:288|48:352,2,50
144,288,87185,1,0
240,288,87623,1,0
240,192,88061,1,4
336,192,88499,1,4
32,192,96601,5,2
128,192,97039,1,2
224,192,97477,2,2,B|224:192|288:192,1,50
400,112,98353,5,0
304,112,98791,1,0
208,112,99229,2,0,B|208:112|144:112,1,50
32,192,100105,5,2
128,192,100543,1,2
224,192,100981,2,2,B|224:192|288:192,1,50
400,112,101856,5,0
304,112,102294,1,0
208,112,102732,2,0,B|208:112|144:112,1,50
64,112,103389,1,4
64,304,104265,5,0
160,256,104703,1,0
64,224,105141,1,0
160,176,105579,1,0
64,128,106017,1,0
160,80,106455,1,0
256,128,106893,1,4
416,240,107769,6,0,B|416:240|364:272|303:232,3,100
400,176,109521,1,0
256,112,110178,6,4,B|256:112|256:48,1,50
112,192,111273,1,0
160,288,111710,1,0
208,192,112148,1,0
256,288,112586,1,0
304,192,113024,1,0
352,288,113462,1,0
448,288,113900,5,4
256,256,114776,1,4
64,224,115652,1,4
256,192,116528,1,4
256,192,116966,1,2
256,288,117404,5,4
256,288,117842,1,0
352,256,118280,1,0
352,256,118718,1,0
256,224,119156,1,0
256,224,119594,1,0
352,192,120032,1,0
352,192,120470,1,0
448,192,120908,5,2
448,192,121346,1,0
352,176,121783,1,0
352,176,122221,1,0
256,160,122659,1,0
256,160,123097,1,0
160,144,123535,1,0
160,144,123973,1,0
160,240,124411,5,2
256,240,124849,2,0,B|256:240|312:278|364:228,2,100
176,192,126163,1,0
176,192,126601,1,0
256,144,127039,1,0
256,144,127477,1,0
256,48,127915,5,2
352,48,128353,1,2
256,48,128791,1,2
352,48,129229,1,2
256,48,129667,1,4
48,48,130543,1,4
48,240,131419,5,0
48,240,131856,1,0
144,224,132294,1,0
144,224,132732,1,0
240,208,133170,1,0
240,208,133608,1,0
336,192,134046,1,0
336,192,134484,1,0
336,288,134922,5,4
336,288,135360,1,0
240,272,135798,1,0
240,272,136236,1,0
144,256,136674,1,0
144,256,137112,1,2
48,240,137550,2,2,B|48:240|48:96,1,100
128,192,138426,5,0
128,192,138864,1,0
224,176,139302,1,0
224,176,139740,1,0
320,160,140178,1,0
320,160,140616,1,0
416,144,141054,1,0
416,144,141492,1,0
256,48,143243,2,2,B|256:48|305:72|390:37,4,100
160,48,145433,1,4
64,240,159000,6,0,L|64:240|80:192|208:272,1,200
304,272,160314,1,0
400,272,160752,2,2,B|400:272|400:208,1,50
256,192,161628,2,0,B|256:192|205:217|146:184,1,100
64,192,162504,2,2,B|64:192|64:128,1,50
208,192,163380,2,0,B|208:192|259:217|318:184,1,100
384,240,164256,2,4,B|384:240|384:176,1,50
64,240,166008,6,0,L|64:240|80:192|208:272,1,200
304,272,167322,1,0
304,176,167759,2,2,B|304:176|304:112,1,50
176,208,168635,5,0
272,208,169073,1,0
368,208,169511,2,2,B|368:208|368:144,1,50
224,160,170387,2,0,B|224:160|173:185|114:152,1,100
48,112,171263,2,2,B|48:112|48:176,1,50
16,304,173453,6,0,B|16:304|128:304,1,100
112,208,174329,1,2
160,304,174767,1,0
256,304,175205,1,0
352,304,175643,1,0
352,208,176081,1,2
400,304,176519,5,0
304,304,176957,1,0
208,304,177395,2,0,B|208:304|157:329|128:256,1,100
208,208,178270,2,2,B|208:208|256:224,1,50
448,224,179365,1,0
448,224,179803,1,4
304,224,180460,5,0
208,224,180898,1,0
208,128,181336,1,2
208,224,181774,1,0
112,224,182212,1,0
16,224,182650,1,0
16,128,183088,1,2
208,128,183964,6,0,B|208:128|256:160|325:118,2,100
112,176,185278,2,2,B|112:176|112:112,1,50
208,96,185935,1,2
304,64,186373,1,2
400,96,186811,1,2
384,240,187468,5,4
320,368,188124,1,4
320,224,188781,1,4
256,352,189438,1,4
128,272,190095,5,0
208,208,190533,2,2,B|208:208|208:144,1,50
304,192,191190,1,0
400,224,191628,1,0
304,272,192066,1,0
400,320,192504,1,0
496,272,192942,2,2,B|496:272|496:208,1,50
192,192,194475,5,4
256,320,195132,1,4
256,176,195789,1,4
320,304,196446,1,4
80,256,197541,5,0
160,192,197978,1,0
240,128,198416,2,2,L|240:128|240:240,1,100
336,256,199292,5,0
416,192,199730,1,0
496,128,200168,2,2,L|496:128|496:240,1,100
384,64,201482,6,4,B|384:64|336:64|272:192,1,150
176,64,202796,2,4,B|176:64|128:48|80:192,1,150
96,320,204110,5,0
144,224,204548,2,0,B|144:224|250:101|320:368,1,250
400,304,206081,2,0,B|400:304|336:240|464:224|320:80,1,250
272,96,208489,5,4
128,96,209146,1,4
272,96,209803,1,4
128,96,210460,1,4
32,352,215496,5,4
128,352,215934,1,0
80,256,216372,1,0
176,256,216810,1,0
128,160,217248,1,0
224,160,217686,1,0
176,64,218124,1,0
272,64,218562,1,0
320,160,219000,5,4
320,160,219438,1,0
224,160,219876,1,0
224,160,220314,1,0
128,160,220752,1,0
128,160,221190,1,0
32,160,221628,1,0
32,160,222066,1,0
32,256,222504,5,4
128,256,222942,1,0
80,176,223380,1,0
176,176,223817,1,0
128,96,224255,1,0
224,96,224693,1,0
176,16,225131,1,0
272,16,225569,1,0
304,112,226007,5,2
304,208,226445,1,2
304,112,226883,1,2
304,208,227321,1,2
304,304,227759,5,4
304,112,228635,1,4
256,304,229511,5,4
352,304,229949,1,0
448,304,230387,1,0
448,208,230825,1,0
352,240,231263,1,0
256,240,231701,1,0
160,240,232139,1,0
160,144,232577,1,0
256,176,233015,5,4
352,176,233453,1,0
448,176,233890,1,0
448,80,234328,1,0
352,112,234766,1,0
256,112,235204,5,2
160,112,235642,2,2,B|160:112|160:240,1,100
96,288,236518,5,4
192,288,236956,1,0
288,288,237394,1,0
384,240,237832,1,0
288,240,238270,1,0
192,240,238708,1,0
96,240,239146,1,0
0,208,239584,1,0
96,192,240022,1,4
352,32,241336,1,6
352,128,241774,1,2
496,272,243526,6,0,B|496:272|496:192,1,75
352,240,244401,2,0,B|352:240|352:160,1,75
208,208,245277,2,0,B|208:208|208:128,1,75
64,176,246153,2,0,B|64:176|64:96,1,75
128,256,247029,5,0
224,256,247467,1,0
224,160,247905,1,0
128,160,248343,1,0
128,256,248781,1,0
224,256,249219,1,0
320,256,249657,1,0
416,256,250095,1,4
416,160,250533,6,0,B|416:160|352:160,1,50
208,160,251409,2,0,B|208:160|272:160,1,50
400,96,252285,2,0,B|400:96|336:96,1,50
192,96,253161,2,0,B|192:96|256:96,1,50
384,96,254036,6,4,B|384:96|298:172|192:91,1,200
208,192,255350,1,0
144,112,255788,1,0
80,192,256226,1,0
16,112,256664,1,0
80,32,257102,1,2
80,128,257540,5,0
176,128,257978,1,0
272,128,258416,2,0,B|272:128|272:56,2,50
176,176,259292,5,0
272,176,259730,1,0
368,176,260168,1,0
464,176,260606,1,4
464,272,261044,5,0
368,272,261482,1,0
272,272,261920,1,0
176,272,262358,1,0
80,272,262796,2,0,B|80:272|80:144,2,100
80,64,264547,6,0,B|80:64|144:64,2,50
128,144,265423,2,0,B|128:144|192:144,2,50
176,224,266299,2,0,B|176:224|240:224,2,50
224,304,267175,2,0,B|224:304|288:304,2,50
320,304,268051,5,0
416,304,268489,1,0
416,208,268927,1,0
416,112,269365,1,0
256,192,269803,12,4,271117
48,192,271993,2,0,B|48:192|240:192,1,175
336,144,273307,1,0
240,144,273744,1,0
336,112,274182,1,0
240,112,274620,1,0
144,112,275058,2,0,B|144:112|208:112,2,50
144,208,275934,2,0,B|144:208|208:208,2,50
144,304,276810,2,0,B|144:304|208:304,2,50
512,192,279000,6,0,B|512:192|320:192,1,175
208,192,280314,1,0
112,160,280752,1,0
208,128,281190,2,0,B|208:128|224:96,2,50
304,128,282066,6,0,B|304:128|240:128,2,50
304,224,282942,2,0,B|304:224|368:224,2,50
304,320,283817,2,0,B|304:320|272:320,2,50
208,320,284693,2,4,B|208:320|129:231|224:112,1,200
256,16,289073,5,4
256,192,292577,1,4
320,160,296080,6,2,B|320:160|256:80,1,100
192,160,296956,6,2,B|192:160|128:80,1,100
64,0,297832,1,4
64,288,299584,5,4
64,288,300022,1,0
160,272,300460,1,0
160,272,300898,1,0
256,256,301336,1,0
256,256,301774,1,0
352,240,302212,1,0
352,240,302650,1,0
448,208,303088,5,4
352,176,303526,2,0,B|352:176|304:192|224:176,1,100
160,176,304401,2,0,B|160:176|208:192|288:176,1,100
352,176,305277,2,0,B|352:176|304:192|224:176,1,100
144,176,306153,1,0
144,272,306591,5,4
240,272,307029,2,0,B|240:272|352:272,2,100
144,240,308343,1,0
144,240,308781,1,0
240,208,309219,1,0
240,208,309657,1,0
320,160,310095,5,2
320,64,310533,1,2
224,64,310971,1,2
224,160,311409,1,2
224,256,311847,1,0
224,64,312723,1,4
224,256,313599,5,0
224,256,314036,1,0
128,240,314474,1,0
128,240,314912,1,0
224,224,315350,1,0
320,224,315788,2,0,B|320:224|368:112,1,100
448,160,316664,1,0
448,256,317102,1,0
352,304,317540,1,0
256,304,317978,1,0
64,64,319292,1,2
160,64,319730,2,2,B|160:64|304:64,1,100
257,164,320606,5,0
356,166,321044,1,0
455,169,321482,2,0,B|455:169|480:60|312:64,1,200
272,144,322796,5,0
176,112,323234,1,0
80,144,323672,1,0
80,48,324109,1,0
80,144,324547,1,0
256,48,325423,5,2
256,48,325861,1,2
432,336,327613,5,0
352,288,328051,1,0
272,240,328489,1,0
32,272,329803,5,0
80,176,330241,1,0
128,272,330679,1,0
176,368,331117,1,0
224,272,331555,1,0
320,272,331993,1,0
496,16,333307,1,2
496,112,333744,2,2,B|496:112|496:256,1,100
496,304,334620,5,0
400,304,335058,1,0
304,272,335496,1,0
16,208,336810,5,0
112,176,337248,1,0
208,176,337686,1,0
272,96,338124,1,0
272,192,338562,1,0
128,48,339438,5,2
128,144,339876,1,2
256,304,340752,1,4
256,304,340901,1,4
256,304,341047,1,4
256,304,341190,1,4
