osu file format v4

[General]
AudioFilename: love song (cut).mp3
AudioLeadIn: 0
AudioHash: 22bb93d62ffdb603a00d62243f304a48
PreviewTime: -1
Countdown: 0
SampleSet: Soft
EditorBookmarks: 20403,40403,60403,80403,100403,120403,140403,160403,180403,200403,220403

[Metadata]
Title:Love Song
Artist:m-flo
Creator:chan
Version:Easy

[Difficulty]
HPDrainRate:3
CircleSize:3
OverallDifficulty:4
SliderMultiplier: 1.1
SliderTickRate: 2

[Events]
//Background and Video events
0,-100000,"Mflo_lovesongprom.jpg"
//Break Periods
2,119352,126390
2,130446,132640
2,159978,168734
//Storyboard Layer 0 (Background)
//Storyboard Layer 1 (Failing)
//Storyboard Layer 2 (Passing)
//Storyboard Layer 3 (Foreground)
//Storyboard Sound Samples
//Background Colour Transformations
3,100,162,161,254

[TimingPoints]
403,625,4,2,0,100
19778,625,4,1,0,100
38527,625,4,2,0,100
41027,625,4,1,0,100
41339,625,4,2,0,100
41964,625,4,1,0,100
45402,625,4,2,0,100
46027,625,4,1,0,100
46652,625,4,2,0,100
46964,625,4,1,0,100
50402,625,4,2,0,100
51027,625,4,1,0,100
51339,625,4,2,0,100
51964,625,4,1,0,100
55402,625,4,2,0,100
56027,625,4,1,0,100
56652,625,4,2,0,100
56964,625,4,1,0,100
139777,625,4,1,0,100
175245,625,4,2,0,100
175870,625,4,1,0,100
180402,625,4,2,0,100
199777,625,4,1,0,100
218527,625,4,2,0,100

[Colours]
Combo1 : 140,0,130
Combo2 : 15,188,5
Combo3 : 202,0,5
Combo4 : 75,156,254

[HitObjects]
256,192,12278,12,4,16653
304,192,17903,6,0,B|304:192|192:192,2,110
240,72,20403,6,0,B|240:72|180:101|128:64,2,110
240,160,22121,1,0
240,248,22590,1,0
336,176,23215,6,4,L|336:176|440:176,2,82.4999999999999
336,288,24778,1,4
336,168,25403,6,0,B|336:168|275:209|208:184,1,110
112,192,26653,1,0
168,256,27121,1,0
232,312,27590,1,4
136,24,29153,6,2,B|136:24|64:24,2,55
256,24,30403,6,0,B|256:24|304:37|368:32,2,110
304,104,32121,1,0
352,176,32590,1,4
256,104,33215,6,0,B|256:104|192:108|160:112,2,82.4999999999999
176,200,34778,1,4
144,104,35403,6,4,B|144:104|183:68|256:48,1,110
352,88,36653,2,0,B|352:88|444:128|270:147|400:232,1,165
360,272,37903,1,0
360,272,38215,1,0
256,192,38528,12,4,39778
256,40,40402,1,0
256,40,40714,1,0
256,96,41028,1,4
256,152,41339,1,0
256,152,41651,1,0
256,208,41965,1,4
256,208,42278,1,4
360,152,42903,5,0
360,208,43215,1,0
360,264,43528,1,4
264,192,44153,1,0
264,248,44465,1,0
264,304,44778,1,4
184,216,45401,5,0
184,216,45714,1,0
128,216,46028,1,4
240,216,46652,1,0
296,216,46965,1,4
296,216,47278,1,4
408,192,47903,5,0
360,152,48215,1,0
304,128,48528,1,0
256,160,48840,1,0
208,128,49151,1,0
152,152,49464,1,0
104,192,49776,1,0
216,192,50401,5,0
216,192,50714,1,0
216,248,51028,1,4
272,248,51339,5,0
272,248,51651,1,0
272,304,51965,1,4
272,304,52276,1,4
328,304,52590,5,0
368,264,52903,1,0
328,216,53215,1,0
368,176,53528,1,0
328,136,53840,1,0
368,96,54153,1,0
328,56,54465,1,0
328,56,54778,1,4
256,144,55401,5,0
256,144,55714,1,0
256,200,56028,1,4
152,144,56652,5,0
152,200,56965,1,4
152,200,57278,1,4
216,296,57901,2,0,B|216:296|136:296,2,55
216,360,58840,1,0
272,360,59153,2,6,B|272:360|368:360,1,82.4999999999999
392,280,60089,5,0
392,216,60401,1,0
392,152,60715,1,0
392,88,61028,1,2
328,88,61339,5,0
264,88,61651,1,0
200,88,61965,2,0,B|200:88|163:84|136:40,2,55
200,144,62901,1,0
200,200,63215,1,0
200,256,63527,2,0,B|200:256|200:312,1,55
136,312,64153,2,2,B|136:312|136:248,1,55
72,256,64776,2,6,B|72:256|72:312,1,55
8,312,65403,5,0
8,248,65714,1,0
8,184,66026,1,0
48,136,66339,1,0
80,88,66651,1,0
168,88,67120,1,4
224,88,67434,1,4
216,176,67903,1,6
272,160,68215,1,0
328,144,68528,1,0
384,120,68840,2,0,B|384:120|312:80,1,55
248,56,69621,1,4
248,56,69932,1,4
168,96,70401,6,0,B|168:96|104:96,1,55
112,152,71028,1,2
168,152,71340,1,2
168,208,71653,2,0,B|168:208|224:224|264:200,1,82.5
312,208,72434,1,2
312,264,72746,6,4,B|312:264|224:264,1,82.5
168,264,73528,1,0
104,264,73840,1,0
40,264,74153,2,0,B|40:264|16:233|64:226|40:168,1,82.5
48,128,74934,1,4
107,131,75246,5,2
107,187,75559,1,2
200,192,76028,1,0
256,192,76340,1,0
312,192,76653,2,0,B|312:192|464:192,1,137.5
512,192,77746,1,4
448,128,78214,1,0
384,128,78526,2,0,B|384:128|232:128,1,137.5
184,128,79620,1,2
120,128,79934,1,4
160,272,80715,5,0
208,240,81028,1,0
256,200,81340,1,2
312,200,81653,1,2
144,272,82590,1,0
80,272,82903,2,0,B|80:272|64:230|107:221|80:152,2,110
120,232,84465,1,0
160,184,84778,1,2
200,144,85090,1,4
200,264,85715,5,0
256,264,86028,2,0,B|256:264|304:285|376:272,1,110
184,280,87590,1,0
136,312,87903,2,0,B|136:312|92:360|72:328,2,55
144,192,89153,2,4,B|144:192|188:142|231:260|320:200,1,165
408,256,90715,5,0
344,256,91028,1,0
296,216,91340,1,2
232,216,91653,1,2
72,304,92590,1,0
8,304,92903,1,0
8,240,93215,1,2
72,240,93528,1,2
176,296,94151,1,0
208,240,94465,1,0
240,192,94778,1,0
272,144,95090,1,0
304,96,95403,6,0,B|304:96|386:98|400:168,2,110
272,144,96965,1,0
240,192,97278,1,0
208,240,97590,1,0
144,240,97903,1,0
80,240,98215,1,0
48,184,98528,2,4,B|48:184|132:171|152:112,1,110
368,320,100715,6,0,B|368:320|323:298|312:272,1,55
296,232,101340,2,2,B|296:232|292:189|296:152,1,55
192,328,102590,1,0
128,328,102903,1,0
128,264,103215,1,2
192,264,103528,1,2
288,336,104151,1,4
320,280,104465,1,0
352,232,104778,1,0
365,173,105090,1,4
280,256,105715,5,0
216,256,106028,1,0
216,192,106340,1,2
280,192,106653,1,2
400,192,107278,1,0
336,192,107590,1,0
296,240,107903,1,0
256,192,108215,1,2
192,192,108528,1,2
104,112,109153,2,4,B|104:112|44:143|201:195|96:256,1,165
208,320,110715,5,0
144,320,111028,1,0
144,256,111340,1,0
208,256,111653,1,0
328,256,112278,1,6
432,320,112903,1,0
432,256,113215,1,0
488,256,113528,1,2
368,296,114153,1,0
368,232,114465,1,0
368,168,114778,1,0
368,104,115090,1,0
368,40,115403,5,2
248,56,116028,2,0,B|248:56|197:55|120:80,1,110
112,192,117276,2,0,B|112:192|163:193|240:168,1,110
216,48,118528,2,6,B|216:48|296:-2|323:27,1,110
104,184,127590,5,0
104,120,127903,1,4
48,144,128215,1,0
104,184,128528,1,4
160,184,128840,1,0
216,184,129153,1,4
336,184,129778,2,4,B|336:184|350:116|400:112,1,82.5
256,120,133840,5,0
256,56,134153,1,0
304,88,134465,1,0
352,120,134778,1,0
256,192,135090,12,4,136653
8,272,137278,5,0
64,328,137903,1,4
120,304,138215,1,0
176,272,138528,1,0
176,208,138840,2,2,B|176:208|255:190|288:240,1,110
408,104,140403,6,0,B|408:104|346:146|280:96,2,110
440,192,142121,1,0
352,216,142590,1,0
272,128,143215,2,4,B|272:128|218:160|192:112,2,82.5
200,224,144778,1,4
144,120,145403,6,0,B|144:120|83:150|32:112,2,110
200,192,147121,1,0
144,264,147590,1,4
384,80,149153,2,2,B|384:80|448:80,2,55
264,80,150403,6,0,B|264:80|181:116|144:64,2,110
280,168,152121,1,4
360,200,152590,1,4
424,80,153215,2,2,B|424:80|349:82|328:104,1,82.5
264,136,154153,1,0
224,176,154465,1,0
176,136,154778,1,0
128,96,155090,1,0
88,48,155403,6,0,B|88:48|179:12|208:72,2,110
128,96,156965,1,0
176,136,157278,1,0
224,176,157590,1,0
280,176,157903,1,0
336,176,158215,1,0
384,136,158528,1,2
256,344,159778,1,4
88,192,170403,5,0
144,192,170715,1,0
200,192,171028,1,0
256,192,171340,2,0,B|256:192|256:264,1,55
328,192,172121,1,4
384,192,172434,1,4
440,192,172746,1,6
384,264,173215,5,0
320,264,173528,1,0
256,264,173840,1,0
192,264,174153,1,0
104,264,174621,1,6
40,264,174934,1,6
40,200,175246,5,2
104,200,175559,1,2
40,200,175871,5,4
104,200,176184,1,4
192,200,176653,1,0
280,200,177121,1,4
488,200,178215,2,0,B|488:200|488:136,1,55
256,192,178840,12,4,180090
8,48,180715,6,2,B|8:48|30:43|72:8,1,55
176,24,181653,2,2,B|176:24|200:32|224:72,1,55
176,176,182590,1,0
176,176,182903,2,0,B|176:176|224:264|296:240|328:216,1,165
432,192,184464,2,4,B|432:192|456:149|440:128,2,55
360,96,185715,6,2,B|360:96|305:84|296:64,1,55
184,72,186653,2,2,B|184:72|137:84|136:112,1,55
140,221,187590,1,0
140,221,187903,2,0,B|140:221|206:260|263:266|324:253,1,165
256,144,189465,1,0
304,112,189778,1,0
256,72,190089,1,4
152,128,190715,6,2,B|152:128|131:99|160:56,1,55
272,80,191652,6,2,B|272:80|293:109|264:152,1,55
216,240,192590,1,4
112,176,193215,2,2,B|112:176|121:138|160:120,1,55
264,128,194152,2,0,B|264:128|229:156|327:202|264:224,1,110
152,224,195403,2,2,B|152:224|77:145|160:64,1,165
312,152,197278,5,2
336,96,197590,1,2
296,48,197903,1,6
240,32,198215,1,2
176,32,198528,1,6
120,48,198840,1,2
32,128,199465,1,6
232,40,200403,6,0,B|232:40|306:72|352:40,2,110
152,80,202121,1,0
232,128,202590,1,0
344,80,203215,2,4,B|344:80|392:112|440:80,2,82.5
344,136,204465,1,4
288,104,204778,1,4
240,72,205090,1,4
176,72,205403,6,0,B|176:72|131:106|56:80,2,110
176,160,207121,1,0
176,248,207590,1,4
464,152,209152,2,2,L|464:152|440:80,1,55
446,99,209776,1,6
320,88,210403,6,0,B|320:88|257:123|216:88,2,110
304,176,212121,1,0
216,192,212590,1,0
136,96,213215,2,4,B|136:96|92:119|32:104,2,82.5
168,144,214465,1,4
224,120,214778,1,4
272,88,215090,1,4
320,56,215402,6,0,B|320:56|390:16|440:40,1,110
424,152,216652,2,0,B|424:152|352:192|512:240|432:288,1,165
376,280,217903,1,0
312,280,218215,1,0
256,192,218527,12,4,219777
