osu file format v4

[General]
AudioFilename: lovecomes.mp3
AudioLeadIn: 0
AudioHash: d0c705df6e1638a65482d63a5a0889c0
PreviewTime: -1
Countdown: 1
SampleSet: Normal

[Metadata]
Title:Love Comes and Goes
Artist:m-flo
Creator:peppy
Version:Normal

[Difficulty]
HPDrainRate:6
CircleSize:5
OverallDifficulty:7
SliderMultiplier: 1.4
SliderTickRate: 2

[Events]
//Background and Video events
0,-100000,"background.jpg"
1,0,"lovecomes.avi"
//Break Periods
2,94085,95387
2,104895,112684
2,156787,158087
//Storyboard Layer 0 (Background)
4,0,0,"info.png",5,425 F,0,0,1000,0,1 M,1,0,1000,-50,425,5,425 F,0,10000,11000,1,0 M,1,10000,11000,5,425,-50,425
//Storyboard Layer 1 (Failing)
4,1,1,"beat.png",0,0 L,27440,68 C,0,0,0,255,0,0,255,0,0 M,0,0,540,160,150,160,150 F,0,0,540,1,0 M,0,540,1081,160,210,160,210 F,0,540,1081,1,0 M,0,1081,1621,160,270,160,270 F,0,1081,1621,1,0 M,0,1621,2162,160,330,160,330 F,0,1621,2162,1,0
4,1,1,"beat.png",0,0 L,27440,68 C,0,0,0,255,0,0,255,0,0 M,0,0,540,480,150,480,150 F,0,0,540,1,0 M,0,540,1081,480,210,480,210 F,0,540,1081,1,0 M,0,1081,1621,480,270,480,270 F,0,1081,1621,1,0 M,0,1621,2162,480,330,480,330 F,0,1621,2162,1,0
//Storyboard Layer 2 (Passing)
4,2,1,"beat.png",0,0 L,27440,32 C,0,0,0,0,255,0,0,255,0 M,0,0,540,320,360,320,360 F,0,0,540,1,0 M,0,540,1081,160,240,160,240 F,0,540,1081,1,0 L,62030,16 C,0,0,0,0,255,0,0,255,0 M,0,0,540,80,120,80,120 F,0,0,540,1,0 M,0,540,1081,240,120,240,120 F,0,540,1081,1,0 M,0,1081,1621,400,120,400,120 F,0,1081,1621,1,0 M,0,1621,2162,560,120,560,120 F,0,1621,2162,1,0 L,96630,24 C,0,0,0,0,255,0,0,255,0 M,0,0,540,320,360,320,360 F,0,0,540,1,0 M,0,540,1081,160,240,160,240 F,0,540,1081,1,0 L,124740,16 C,0,0,0,0,255,0,0,255,0 M,0,0,540,80,120,80,120 F,0,0,540,1,0 M,0,540,1081,240,120,240,120 F,0,540,1081,1,0 M,0,1081,1621,400,120,400,120 F,0,1081,1621,1,0 M,0,1621,2162,560,120,560,120 F,0,1621,2162,1,0 L,159330,16 C,0,0,0,0,255,0,0,255,0 M,0,0,540,320,360,320,360 F,0,0,540,1,0 M,0,540,1081,160,240,160,240 F,0,540,1081,1,0
4,2,1,"beat.png",0,0 L,27440,32 C,0,0,0,0,255,0,0,255,0 M,0,0,0,320,120,320,120 F,0,0,540,1,0 M,0,540,1081,480,240,480,240 F,0,540,1081,1,0 L,62030,16 C,0,0,0,0,255,0,0,255,0 M,0,0,540,80,360,80,360 F,0,0,540,1,0 M,0,540,1081,240,360,240,360 F,0,540,1081,1,0 M,0,1081,1621,400,360,400,360 F,0,1081,1621,1,0 M,0,1621,2162,560,360,560,360 F,0,1621,2162,1,0 L,96630,24 C,0,0,0,0,255,0,0,255,0 M,0,0,0,320,120,320,120 F,0,0,540,1,0 M,0,540,1081,480,240,480,240 F,0,540,1081,1,0 L,125010,16 C,0,0,0,0,255,0,0,255,0 M,0,0,540,80,360,80,360 F,0,0,540,1,0 M,0,540,1081,240,360,240,360 F,0,540,1081,1,0 M,0,1081,1621,400,360,400,360 F,0,1081,1621,1,0 M,0,1621,2162,560,360,560,360 F,0,1621,2162,1,0 L,159330,16 C,0,0,0,0,255,0,0,255,0 M,0,0,0,320,120,320,120 F,0,0,540,1,0 M,0,540,1081,480,240,480,240 F,0,540,1081,1,0
//Storyboard Layer 3 (Foreground)
//Storyboard Sound Samples
//Background Colour Transformations
3,100,44,44,70

[TimingPoints]
10150,540.529999999998,4,1,0,58
113930,540.529999999998,4,2,0,84
123659,540.529999999998,4,1,0,58

[Colours]
Combo1 : 241,230,14
Combo2 : 128,0,255
Combo3 : 120,177,220
Combo4 : 236,19,160

[HitObjects]
96,56,27717,1,0
224,56,28239,1,0
256,56,28392,1,0
288,56,28528,1,0
432,176,29338,5,0
376,136,29609,1,0
328,176,29879,1,0
280,136,30149,1,0
232,176,30419,1,0
184,136,30690,1,0
136,176,30960,1,0
232,40,31500,5,0
232,104,31771,2,0,B|232:104|232:264,1,140
344,296,32852,1,0
464,152,33663,1,0
432,96,33933,1,2
384,56,34203,1,0
328,32,34473,1,0
264,32,34744,1,0
264,96,35014,5,2
232,152,35284,1,0
176,184,35554,1,0
112,184,35825,1,0
48,136,36095,5,6
160,80,36635,1,0
224,72,36906,1,0
288,72,37176,1,2
392,136,37717,1,6
432,168,39068,5,0
400,224,39338,1,0
352,264,39608,1,0
296,296,39879,1,0
240,328,40149,1,0
192,288,40419,5,2
144,248,40689,1,0
104,200,40960,1,0
88,136,41230,1,0
128,88,41500,1,2
184,56,41771,5,0
232,96,42041,1,0
264,152,42311,1,0
304,104,42581,1,2
344,48,42852,1,0
400,72,43122,1,0
448,112,43392,1,0
424,176,43662,1,6
360,176,43933,5,0
360,176,44068,1,0
360,176,44203,1,0
360,176,44338,1,0
360,176,44473,1,0
296,176,44743,2,0,B|296:176|160:174|160:32,1,210
288,40,46095,5,0
288,40,46230,1,0
288,40,46365,1,0
288,104,46635,1,0
288,168,46906,1,0
224,168,47176,1,0
224,168,47311,1,0
160,168,47446,1,0
96,168,47716,1,0
80,40,48257,5,0
144,40,48527,1,0
208,40,48797,1,0
248,88,49068,1,4
296,40,49338,1,0
360,40,49608,1,0
424,40,49878,1,0
464,88,50149,1,4
464,152,50419,1,0
464,248,50824,5,0
464,248,50960,1,0
400,248,51230,1,0
336,248,51500,1,0
272,248,51770,1,0
208,248,52041,1,0
176,192,52311,1,0
176,192,52446,1,0
144,248,52716,1,0
40,128,53122,5,0
104,128,53392,1,0
168,128,53662,1,0
232,128,53932,1,0
296,128,54203,1,0
392,208,54743,5,0
432,160,55013,1,0
392,112,55284,1,0
336,80,55554,2,4,B|336:80|231:31|104:88,1,210
56,176,56905,1,0
120,280,57446,5,0
120,280,57581,1,0
160,232,57716,1,0
160,232,57851,1,0
200,184,58122,1,0
256,256,58527,1,0
296,208,58797,1,4
296,208,58932,1,0
336,160,59203,1,0
440,64,59608,5,0
376,64,59878,1,4
312,64,60149,1,0
248,64,60419,1,0
184,64,60689,2,0,B|184:64|32:64,1,140
40,128,61500,1,4
40,192,61770,1,0
48,256,62040,6,0,B|48:256|168:265|272:184,2,210
32,320,63932,1,2
160,320,64473,1,0
224,320,64743,1,0
288,320,65013,1,0
352,320,65284,1,2
480,320,65824,1,2
480,192,66365,6,0,B|480:192|440:176|408:192,2,70
480,128,67175,1,0
368,64,67716,1,0
240,64,68256,1,0
280,168,68797,1,0
248,112,69067,1,0
216,168,69338,1,0
184,112,69608,1,2
64,72,70148,1,2
128,176,70689,5,0
240,120,71229,1,0
272,176,71500,1,0
384,120,72040,1,0
496,176,72581,1,2
384,232,73121,1,0
264,272,73662,1,2
144,312,74202,1,0
32,336,74743,5,0
96,312,75013,2,2,B|96:312|196:263|264:176,1,210
312,72,76364,1,0
312,136,76635,1,2
56,112,77716,5,0
56,112,77851,1,0
56,112,77986,1,0
56,176,78256,1,0
168,176,78797,1,0
48,256,79337,6,0,B|48:256|168:265|272:184,2,210
32,320,81229,1,2
160,320,81770,1,0
224,320,82040,1,2
288,320,82310,1,0
352,320,82581,1,2
480,320,83121,1,2
480,192,83662,6,2,B|480:192|382:240|373:80|488:121,1,210
376,64,85013,1,0
248,40,85553,1,2
280,168,86094,1,0
248,112,86364,1,2
216,168,86634,1,0
184,112,86905,1,2
64,72,87445,1,2
64,248,87986,6,2,B|64:248|157:335|384:335|472:232,1,420
456,120,90148,2,2,B|456:120|216:120,2,210
448,248,92310,5,2
320,248,92851,2,2,B|320:248|216:248,1,70
120,248,93661,1,0
56,248,93932,1,6
80,56,96634,5,0
112,56,96769,1,0
144,64,96905,1,0
168,80,97040,1,0
192,96,97175,1,0
240,136,97445,1,0
304,136,97715,1,2
384,232,98256,1,2
432,120,98796,5,0
408,104,98932,1,0
376,120,99067,1,0
344,104,99202,1,0
320,120,99337,1,0
264,120,99607,1,0
216,120,99877,2,4,B|216:120|160:120,3,35
184,240,100688,5,0
184,240,100823,1,0
184,240,100959,1,0
288,240,101499,1,0
392,240,101769,1,0
392,240,101904,1,0
392,240,102040,1,0
392,112,102580,1,4
280,56,103121,5,0
248,64,103256,1,0
216,80,103391,1,0
192,104,103526,1,0
168,128,103661,1,0
136,184,103931,1,0
200,184,104202,5,2
328,184,104742,5,6
192,136,113930,5,2
256,136,114200,1,0
320,136,114470,1,0
384,136,114740,1,0
416,184,115011,5,2
352,184,115281,1,0
288,184,115551,1,0
224,184,115821,1,0
192,232,116092,5,2
256,232,116362,1,0
320,232,116632,1,2
384,232,116902,1,2
256,88,117443,5,0
313,61,117713,1,0
373,92,117983,1,0
351,156,118254,1,2
304,205,118524,1,0
260,252,118794,1,0
210,208,119065,1,0
167,157,119335,1,2
142,99,119605,1,0
194,60,119875,1,0
256,96,120146,1,0
312,64,120416,5,6
320,184,120956,1,6
192,184,121497,1,6
192,120,121767,1,2
192,56,122037,1,6
256,56,122308,1,2
256,192,122578,12,0,124199
48,128,124740,6,0,B|48:128|168:119|272:200,2,210
32,64,126631,1,2
152,96,127172,1,0
200,56,127442,1,0
248,96,127712,1,0
296,56,127983,1,2
424,56,128523,1,2
432,184,129064,6,0,B|432:184|480:182|480:256,2,70
356,158,129875,1,0
246,103,130415,1,0
128,152,130956,1,2
192,256,131496,1,0
192,192,131766,1,2
256,192,132037,1,0
256,256,132307,1,2
384,256,132848,1,2
384,128,133388,5,0
280,48,133929,1,0
240,96,134199,1,0
120,48,134739,1,0
120,176,135280,1,2
120,304,135820,1,0
248,304,136361,1,2
328,208,136901,1,0
392,96,137442,5,0
328,96,137712,2,2,B|328:96|226:100|257:212|140:229,1,210
40,224,139064,1,0
40,160,139334,1,2
288,216,140415,5,0
288,216,140550,1,0
288,216,140685,1,0
288,152,140955,1,0
280,24,141496,1,0
408,24,142037,6,2,B|408:24|326:101|336:248,2,210
456,64,143928,1,2
360,192,144469,1,0
312,232,144739,1,2
256,256,145009,1,0
192,264,145280,1,2
64,240,145820,1,2
91,121,146361,6,2,B|91:121|48:22|212:12|162:129,1,210
288,128,147712,1,0
288,288,148253,1,2
416,288,148793,1,0
368,248,149063,1,2
416,208,149334,1,0
368,168,149604,1,2
272,80,150144,1,2
112,152,150685,2,2,B|112:152|352:152,2,210
384,232,152847,2,2,B|384:232|144:232,2,210
448,136,155009,5,6
320,136,155550,2,2,B|320:136|216:136,1,70
120,136,156361,1,0
56,136,156631,1,2
448,64,159333,6,0,B|448:64|280:64,1,140
240,64,160144,1,0
176,64,160415,1,0
64,128,160955,1,0
64,192,161225,1,0
112,232,161496,6,2,B|112:232|208:232,1,70
240,232,162036,1,0
304,232,162306,1,0
368,232,162577,1,2
256,56,163117,5,0
256,120,163387,1,0
256,184,163658,1,2
256,248,163928,1,0
256,312,164198,1,2
320,312,164469,1,0
384,312,164739,1,2
256,312,165279,5,0
256,248,165550,1,0
256,184,165820,1,2
256,120,166090,1,0
256,56,166360,1,2
192,56,166631,1,0
128,56,166901,1,2
64,320,167982,6,0,B|64:320|97:250|200:232,1,140
232,232,168793,1,0
296,240,169063,1,2
408,288,169604,5,0
464,248,169874,1,0
472,184,170144,2,2,B|472:184|468:142|416:136,4,70
384,96,171766,5,0
320,96,172036,1,0
256,96,172306,1,2
192,96,172576,1,0
128,96,172847,1,2
128,160,173117,1,0
128,224,173387,1,2
256,104,173928,5,0
256,104,174063,1,0
256,104,174198,1,0
256,168,174468,1,2
256,296,175009,1,2
312,264,175279,1,0
352,216,175549,1,6
432,120,176090,1,6
480,40,176495,1,6
