osu file format v4

[General]
AudioFilename: lovecomes.mp3
AudioLeadIn: 0
AudioHash: d0c705df6e1638a65482d63a5a0889c0
PreviewTime: -1
Countdown: 1
SampleSet: Normal

[Metadata]
Title:Love Comes and Goes
Artist:m-flo
Creator:peppy
Version:Hard

[Difficulty]
HPDrainRate:6
CircleSize:6
OverallDifficulty:7
SliderMultiplier: 1.8
SliderTickRate: 2

[Events]
//Background and Video events
0,-100000,"background.jpg"
1,0,"lovecomes.avi"
//Break Periods
2,94085,95387
2,104895,112684
2,156787,158087
//Storyboard Layer 0 (Background)
4,0,0,"info.png",5,425 F,0,0,1000,0,1 M,1,0,1000,-50,425,5,425 F,0,10000,11000,1,0 M,1,10000,11000,5,425,-50,425
//Storyboard Layer 1 (Failing)
4,1,1,"beat.png",0,0 L,27440,68 C,0,0,0,255,0,0,255,0,0 M,0,0,540,160,150,160,150 F,0,0,540,1,0 M,0,540,1081,160,210,160,210 F,0,540,1081,1,0 M,0,1081,1621,160,270,160,270 F,0,1081,1621,1,0 M,0,1621,2162,160,330,160,330 F,0,1621,2162,1,0
4,1,1,"beat.png",0,0 L,27440,68 C,0,0,0,255,0,0,255,0,0 M,0,0,540,480,150,480,150 F,0,0,540,1,0 M,0,540,1081,480,210,480,210 F,0,540,1081,1,0 M,0,1081,1621,480,270,480,270 F,0,1081,1621,1,0 M,0,1621,2162,480,330,480,330 F,0,1621,2162,1,0
//Storyboard Layer 2 (Passing)
4,2,1,"beat.png",0,0 L,27440,32 C,0,0,0,0,255,0,0,255,0 M,0,0,540,320,360,320,360 F,0,0,540,1,0 M,0,540,1081,160,240,160,240 F,0,540,1081,1,0 L,62030,16 C,0,0,0,0,255,0,0,255,0 M,0,0,540,80,120,80,120 F,0,0,540,1,0 M,0,540,1081,240,120,240,120 F,0,540,1081,1,0 M,0,1081,1621,400,120,400,120 F,0,1081,1621,1,0 M,0,1621,2162,560,120,560,120 F,0,1621,2162,1,0 L,96630,24 C,0,0,0,0,255,0,0,255,0 M,0,0,540,320,360,320,360 F,0,0,540,1,0 M,0,540,1081,160,240,160,240 F,0,540,1081,1,0 L,124740,16 C,0,0,0,0,255,0,0,255,0 M,0,0,540,80,120,80,120 F,0,0,540,1,0 M,0,540,1081,240,120,240,120 F,0,540,1081,1,0 M,0,1081,1621,400,120,400,120 F,0,1081,1621,1,0 M,0,1621,2162,560,120,560,120 F,0,1621,2162,1,0 L,159330,16 C,0,0,0,0,255,0,0,255,0 M,0,0,540,320,360,320,360 F,0,0,540,1,0 M,0,540,1081,160,240,160,240 F,0,540,1081,1,0
4,2,1,"beat.png",0,0 L,27440,32 C,0,0,0,0,255,0,0,255,0 M,0,0,0,320,120,320,120 F,0,0,540,1,0 M,0,540,1081,480,240,480,240 F,0,540,1081,1,0 L,62030,16 C,0,0,0,0,255,0,0,255,0 M,0,0,540,80,360,80,360 F,0,0,540,1,0 M,0,540,1081,240,360,240,360 F,0,540,1081,1,0 M,0,1081,1621,400,360,400,360 F,0,1081,1621,1,0 M,0,1621,2162,560,360,560,360 F,0,1621,2162,1,0 L,96630,24 C,0,0,0,0,255,0,0,255,0 M,0,0,0,320,120,320,120 F,0,0,540,1,0 M,0,540,1081,480,240,480,240 F,0,540,1081,1,0 L,125010,16 C,0,0,0,0,255,0,0,255,0 M,0,0,540,80,360,80,360 F,0,0,540,1,0 M,0,540,1081,240,360,240,360 F,0,540,1081,1,0 M,0,1081,1621,400,360,400,360 F,0,1081,1621,1,0 M,0,1621,2162,560,360,560,360 F,0,1621,2162,1,0 L,159330,16 C,0,0,0,0,255,0,0,255,0 M,0,0,0,320,120,320,120 F,0,0,540,1,0 M,0,540,1081,480,240,480,240 F,0,540,1081,1,0
//Storyboard Layer 3 (Foreground)
//Storyboard Sound Samples
//Background Colour Transformations
3,100,44,44,70

[TimingPoints]
10150,540.529999999998,4,1,0,58
111769,540.529999999998,4,2,0,78
123659,540.529999999998,4,1,0,58

[Colours]
Combo1 : 241,230,14
Combo2 : 128,0,255
Combo3 : 120,177,220
Combo4 : 236,19,160

[HitObjects]
96,56,27717,1,0
224,56,28239,1,0
256,56,28392,1,0
288,56,28528,1,0
432,176,29338,5,0
376,136,29609,1,0
328,176,29879,1,0
280,136,30149,1,0
232,176,30419,1,0
184,136,30690,1,0
136,176,30960,1,0
232,40,31500,5,0
232,104,31771,2,0,B|232:104|204:193|232:312,1,180
384,280,32852,1,0
464,152,33663,1,0
432,96,33933,1,2
384,56,34203,1,0
328,32,34473,1,0
264,32,34744,1,0
264,96,35014,5,2
232,152,35284,1,0
176,184,35554,1,0
112,184,35825,1,0
48,136,36095,5,6
160,80,36635,1,0
224,72,36906,1,0
288,72,37176,1,2
360,128,37717,2,0,B|360:128|152:128,2,180
432,168,39068,5,0
400,224,39338,1,0
352,264,39608,1,0
296,296,39879,1,0
240,328,40149,1,0
192,288,40419,5,2
144,248,40689,1,0
104,200,40960,1,0
88,136,41230,1,0
128,88,41500,1,2
184,56,41771,5,0
232,96,42041,1,0
264,152,42311,1,0
304,104,42581,1,2
344,48,42852,1,0
400,72,43122,1,0
448,112,43392,1,0
424,176,43662,1,6
360,176,43933,5,0
360,176,44068,1,0
360,176,44203,1,0
360,176,44338,1,0
360,176,44473,1,0
304,200,44743,2,0,B|304:200|139:232|160:32,1,270
224,40,45824,1,0
288,40,46095,5,0
288,40,46230,1,0
288,40,46365,1,0
288,104,46635,1,0
288,168,46906,1,0
224,168,47176,1,0
224,168,47311,1,0
168,168,47446,2,0,B|168:168|72:168,1,90
80,104,47987,1,0
80,40,48257,5,0
144,40,48527,1,0
208,40,48797,1,0
248,88,49068,1,4
296,40,49338,1,0
360,40,49608,1,0
424,40,49878,1,0
464,88,50149,1,4
464,152,50419,1,0
464,248,50824,5,0
464,248,50960,1,0
400,248,51230,1,0
336,248,51500,1,0
272,248,51770,1,0
240,248,51905,1,0
208,248,52041,1,0
184,224,52176,1,0
176,192,52311,1,0
176,192,52446,1,0
144,248,52716,1,0
88,208,52987,5,0
64,184,53122,1,0
96,128,53392,1,0
168,128,53662,1,0
232,128,53932,1,0
264,128,54068,1,0
296,128,54203,1,0
344,168,54473,1,0
392,208,54743,5,0
432,160,55013,1,0
392,112,55284,1,0
336,80,55554,2,4,B|336:80|212:4|48:80,1,270
64,128,56635,1,0
40,184,56905,1,0
80,232,57176,1,0
120,280,57446,5,0
120,280,57581,1,0
160,232,57716,1,0
160,232,57851,1,0
200,184,58122,1,0
256,256,58392,1,0
256,256,58527,1,0
296,208,58797,1,4
296,208,58932,1,0
336,160,59203,1,0
440,64,59608,5,0
376,64,59878,1,4
312,64,60149,1,0
248,64,60419,1,0
192,40,60689,2,0,B|192:40|100:9|16:64,1,180
40,128,61500,1,4
40,192,61770,1,0
48,256,62040,6,0,B|48:256|199:277|312:144,2,270
32,320,63932,1,2
96,320,64202,1,0
160,320,64473,1,0
224,320,64743,1,0
288,320,65013,1,0
352,320,65284,1,2
416,320,65554,1,0
480,320,65824,1,2
480,256,66094,1,0
480,192,66365,6,0,B|480:192|440:176|360:200,2,90
480,128,67175,1,0
432,88,67446,1,0
368,64,67716,1,0
304,56,67986,1,0
240,64,68256,1,2
176,80,68527,1,0
128,120,68797,1,0
112,176,69067,1,2
128,240,69338,1,0
192,240,69608,1,2
256,240,69878,1,0
320,240,70148,1,2
144,168,70689,5,0
184,120,70959,1,0
224,72,71229,1,0
256,136,71500,2,0,B|256:136|360:136,1,90
400,104,72040,1,0
400,168,72310,1,0
400,232,72581,2,0,B|400:232|296:232,1,90
304,168,73121,2,0,B|304:168|200:168,1,90
208,232,73662,2,0,B|208:232|104:232,1,90
128,296,74202,2,2,B|128:296|24:296,1,90
64,352,74743,5,0
128,352,75013,2,2,B|128:352|255:363|327:283|376:232,1,270
400,192,76094,1,0
440,144,76364,1,2
400,104,76635,2,2,B|400:104|112:104,1,270
56,48,77716,5,0
56,80,77851,1,0
56,112,77986,1,0
56,176,78256,1,0
56,280,78797,1,0
112,280,79067,1,0
168,272,79337,6,0,B|168:272|298:281|416:104,2,270
32,320,81229,1,2
96,320,81499,1,0
160,320,81770,1,0
224,320,82040,1,2
288,320,82310,1,0
352,320,82581,1,2
416,320,82851,1,0
480,320,83121,1,2
480,256,83391,1,0
480,192,83662,6,2,B|480:192|382:240|326:159|360:96,1,180
408,136,84472,1,2
432,80,84743,1,0
376,56,85013,1,2
312,40,85283,1,0
248,40,85553,1,2
280,96,85824,1,0
280,160,86094,1,0
224,128,86364,1,2
224,192,86634,1,0
168,160,86905,1,2
120,120,87175,1,0
56,144,87445,1,2
24,200,87716,1,0
64,248,87986,6,2,B|64:248|157:335|247:225|344:232,2,270
456,120,90148,2,2,B|456:120|309:58|176:176,2,270
448,248,92310,5,2
320,248,92851,2,2,B|320:248|192:248,1,90
120,248,93661,1,0
56,248,93932,1,6
80,56,96634,5,0
112,56,96769,1,0
144,64,96905,1,0
168,80,97040,1,0
192,96,97175,1,0
240,136,97445,1,0
304,136,97715,1,2
384,232,98256,1,2
432,120,98796,5,0
408,104,98932,1,0
376,120,99067,1,0
344,104,99202,1,0
320,120,99337,1,0
296,104,99472,1,0
264,120,99607,1,0
240,104,99742,1,0
216,120,99877,2,4,B|216:120|152:120,3,45
136,200,100688,5,0
160,216,100823,1,0
184,240,100959,1,0
312,240,101499,1,0
376,240,101769,1,0
392,216,101904,1,0
408,192,102040,1,0
408,64,102580,1,4
280,56,103121,5,0
248,64,103256,1,0
216,80,103391,1,0
192,104,103526,1,0
168,128,103661,1,0
136,184,103931,1,0
200,184,104202,5,2
328,184,104742,5,6
192,136,113930,5,2
256,136,114200,1,0
320,136,114470,1,0
384,136,114740,1,0
416,184,115011,5,2
352,184,115281,1,0
288,184,115551,1,0
224,184,115821,1,0
200,208,115956,1,0
192,232,116092,5,2
256,232,116362,1,0
320,232,116632,1,2
320,168,116902,1,2
264,144,117173,1,0
256,88,117443,5,0
313,61,117714,1,0
373,92,117985,1,0
351,156,118254,1,2
304,205,118524,1,0
260,252,118794,1,0
210,208,119065,1,0
167,157,119335,1,2
142,99,119605,1,0
194,60,119875,1,0
256,96,120146,1,0
312,64,120416,5,6
312,128,120686,1,2
312,192,120956,1,6
248,192,121227,1,2
216,192,121362,1,2
184,192,121497,5,6
184,128,121767,1,2
184,64,122037,1,6
248,64,122308,1,2
256,192,122578,12,0,124199
48,128,124740,6,0,B|48:128|168:119|312:224,2,270
32,64,126631,1,2
88,80,126902,1,0
144,64,127172,1,0
200,80,127442,1,0
256,64,127712,1,0
312,80,127983,1,2
368,64,128253,1,0
424,80,128523,2,2,B|424:80|424:184,1,90
424,232,129064,6,0,B|424:232|422:288|336:288,2,90
368,200,129875,1,0
312,224,130145,1,0
256,200,130415,1,0
200,224,130685,1,0
144,200,130956,1,2
88,224,131226,1,0
32,200,131496,1,0
88,168,131766,1,2
144,200,132037,1,0
200,168,132307,2,2,B|200:168|392:168,1,180
432,80,133388,5,2
368,64,133658,1,0
304,56,133929,1,0
240,56,134199,1,2
176,64,134469,1,0
112,80,134739,1,2
80,136,135010,1,0
120,176,135280,5,2
80,224,135550,1,0
120,272,135820,1,2
184,272,136091,1,0
240,304,136361,1,2
296,272,136631,1,0
344,304,136901,2,2,B|344:304|375:266|384:200,1,90
376,160,137442,5,0
376,96,137712,2,2,B|376:96|274:100|364:234|136:208,1,270
88,216,138793,1,0
24,192,139064,1,0
24,112,139334,2,0,B|24:112|164:159|232:288,1,270
288,280,140415,5,0
288,248,140550,1,0
288,216,140685,1,0
288,152,140955,1,0
288,24,141496,2,0,B|288:24|392:24,1,90
440,40,142037,6,2,B|440:40|463:170|344:288,2,270
384,64,143928,1,2
376,128,144199,1,0
352,184,144469,1,0
312,232,144739,1,2
256,256,145009,1,0
192,264,145280,1,2
128,256,145550,1,0
64,240,145820,1,2
72,176,146090,1,0
72,112,146361,6,2,B|72:112|64:29|217:7|224:184,1,270
248,232,147442,1,0
288,272,147712,1,2
352,280,147982,1,0
416,264,148253,1,2
464,224,148523,1,0
416,176,148793,1,0
464,136,149063,1,2
416,88,149334,1,0
368,48,149604,1,2
272,80,150144,1,2
160,144,150685,6,0,B|160:144|256:144,2,90
184,200,151496,2,0,B|184:200|376:200,2,180
160,256,152847,2,2,B|160:256|456:256,2,270
448,136,155009,5,6
384,136,155280,1,0
320,136,155550,2,2,B|320:136|200:136,1,90
168,136,156090,1,0
104,136,156361,2,2,B|104:136|0:136,1,90
448,64,159333,6,0,B|448:64|264:64,1,180
200,64,160144,1,0
136,64,160415,1,0
72,64,160685,1,0
72,128,160955,1,0
72,192,161225,1,0
112,232,161496,6,2,B|112:232|232:232,1,90
240,280,162036,1,0
304,280,162306,1,0
368,280,162577,1,2
408,232,162847,1,0
448,152,163117,5,0
384,152,163387,1,0
320,152,163658,1,2
256,152,163928,1,0
256,216,164198,1,2
256,280,164469,1,0
256,344,164739,1,2
320,344,165009,1,0
256,344,165279,5,0
256,280,165549,1,0
256,216,165820,1,2
256,152,166090,1,0
192,152,166360,1,2
128,152,166631,1,0
64,152,166901,2,0,B|64:152|64:264,3,90
72,304,167982,6,0,B|72:304|122:310|176:264,1,90
208,248,168522,1,0
256,208,168793,1,0
312,176,169063,2,2,B|312:176|330:218|336:272,1,90
384,296,169604,5,0
440,264,169874,1,0
464,208,170144,2,2,B|464:208|448:159|392:152,5,90
384,96,171766,5,0
320,96,172036,1,0
256,96,172306,1,2
192,96,172576,1,0
128,96,172847,1,2
128,160,173117,1,0
128,224,173387,1,2
192,168,173658,1,0
256,104,173928,5,0
256,104,174063,1,0
256,104,174198,1,0
256,168,174468,1,2
256,296,175009,1,2
312,264,175279,1,0
352,216,175549,1,6
432,120,176090,1,6
480,40,176495,1,6
