osu file format v4

[General]
AudioFilename: lovecomes.mp3
AudioLeadIn: 0
AudioHash: d0c705df6e1638a65482d63a5a0889c0
PreviewTime: -1
Countdown: 1
SampleSet: Normal

[Metadata]
Title:Love Comes and Goes
Artist:m-flo
Creator:peppy
Version:Easy

[Difficulty]
HPDrainRate:5
CircleSize:4
OverallDifficulty:6
SliderMultiplier: 1.4
SliderTickRate: 2

[Events]
//Background and Video events
0,-100000,"background.jpg"
1,0,"lovecomes.avi"
//Break Periods
2,76835,78287
2,94132,103963
2,156787,158087
//Storyboard Layer 0 (Background)
4,0,0,"info.png",5,425 F,0,0,1000,0,1 M,1,0,1000,-50,425,5,425 F,0,10000,11000,1,0 M,1,10000,11000,5,425,-50,425
//Storyboard Layer 1 (Failing)
4,1,1,"beat.png",0,0 L,27440,68 C,0,0,0,255,0,0,255,0,0 M,0,0,540,160,150,160,150 F,0,0,540,1,0 M,0,540,1081,160,210,160,210 F,0,540,1081,1,0 M,0,1081,1621,160,270,160,270 F,0,1081,1621,1,0 M,0,1621,2162,160,330,160,330 F,0,1621,2162,1,0
4,1,1,"beat.png",0,0 L,27440,68 C,0,0,0,255,0,0,255,0,0 M,0,0,540,480,150,480,150 F,0,0,540,1,0 M,0,540,1081,480,210,480,210 F,0,540,1081,1,0 M,0,1081,1621,480,270,480,270 F,0,1081,1621,1,0 M,0,1621,2162,480,330,480,330 F,0,1621,2162,1,0
//Storyboard Layer 2 (Passing)
4,2,1,"beat.png",0,0 L,27440,32 C,0,0,0,0,255,0,0,255,0 M,0,0,540,320,360,320,360 F,0,0,540,1,0 M,0,540,1081,160,240,160,240 F,0,540,1081,1,0 L,62030,16 C,0,0,0,0,255,0,0,255,0 M,0,0,540,80,120,80,120 F,0,0,540,1,0 M,0,540,1081,240,120,240,120 F,0,540,1081,1,0 M,0,1081,1621,400,120,400,120 F,0,1081,1621,1,0 M,0,1621,2162,560,120,560,120 F,0,1621,2162,1,0 L,96630,24 C,0,0,0,0,255,0,0,255,0 M,0,0,540,320,360,320,360 F,0,0,540,1,0 M,0,540,1081,160,240,160,240 F,0,540,1081,1,0 L,124740,16 C,0,0,0,0,255,0,0,255,0 M,0,0,540,80,120,80,120 F,0,0,540,1,0 M,0,540,1081,240,120,240,120 F,0,540,1081,1,0 M,0,1081,1621,400,120,400,120 F,0,1081,1621,1,0 M,0,1621,2162,560,120,560,120 F,0,1621,2162,1,0 L,159330,16 C,0,0,0,0,255,0,0,255,0 M,0,0,540,320,360,320,360 F,0,0,540,1,0 M,0,540,1081,160,240,160,240 F,0,540,1081,1,0
4,2,1,"beat.png",0,0 L,27440,32 C,0,0,0,0,255,0,0,255,0 M,0,0,0,320,120,320,120 F,0,0,540,1,0 M,0,540,1081,480,240,480,240 F,0,540,1081,1,0 L,62030,16 C,0,0,0,0,255,0,0,255,0 M,0,0,540,80,360,80,360 F,0,0,540,1,0 M,0,540,1081,240,360,240,360 F,0,540,1081,1,0 M,0,1081,1621,400,360,400,360 F,0,1081,1621,1,0 M,0,1621,2162,560,360,560,360 F,0,1621,2162,1,0 L,96630,24 C,0,0,0,0,255,0,0,255,0 M,0,0,0,320,120,320,120 F,0,0,540,1,0 M,0,540,1081,480,240,480,240 F,0,540,1081,1,0 L,125010,16 C,0,0,0,0,255,0,0,255,0 M,0,0,540,80,360,80,360 F,0,0,540,1,0 M,0,540,1081,240,360,240,360 F,0,540,1081,1,0 M,0,1081,1621,400,360,400,360 F,0,1081,1621,1,0 M,0,1621,2162,560,360,560,360 F,0,1621,2162,1,0 L,159330,16 C,0,0,0,0,255,0,0,255,0 M,0,0,0,320,120,320,120 F,0,0,540,1,0 M,0,540,1081,480,240,480,240 F,0,540,1081,1,0
//Storyboard Layer 3 (Foreground)
//Storyboard Sound Samples
//Background Colour Transformations
3,100,44,44,70

[TimingPoints]
10150,540.529999999998,4,1,0,58
103120,540.529999999998,4,2,0,84
123659,540.529999999998,4,1,0,58

[Colours]
Combo1 : 241,230,14
Combo2 : 128,0,255
Combo3 : 120,177,220
Combo4 : 236,19,160

[HitObjects]
96,56,27717,1,0
224,56,28239,1,0
296,56,28528,1,0
432,176,29338,5,0
376,136,29609,1,0
280,136,30149,1,0
144,136,30690,1,0
216,40,31500,5,0
216,112,31771,2,0,B|216:112|216:272,1,140
344,296,32852,1,0
464,152,33663,5,0
424,88,33933,1,2
328,32,34473,1,2
184,32,35014,1,2
56,96,35554,1,0
56,168,35825,1,0
56,240,36095,5,6
192,240,36635,1,0
336,240,37176,1,2
472,240,37717,1,6
328,200,39068,5,0
328,200,39338,1,0
328,200,39608,1,0
328,200,39879,1,0
328,200,40149,1,0
264,248,40419,5,2
104,200,40960,1,0
48,152,41230,1,0
104,104,41500,1,2
240,80,42041,5,0
248,152,42311,1,0
312,112,42581,1,2
440,104,43122,1,0
440,240,43662,1,6
368,240,43933,5,0
368,240,44203,1,0
368,240,44473,1,0
296,240,44743,2,0,B|296:240|160:238|160:96,1,210
288,88,46095,5,0
288,88,46365,1,0
288,88,46635,1,0
288,160,46906,1,0
216,160,47176,1,0
144,160,47446,1,0
72,160,47716,1,0
144,56,48257,5,0
144,56,48527,1,0
144,56,48797,1,0
208,96,49068,1,4
272,56,49338,1,0
272,56,49608,1,0
272,56,49878,1,0
336,96,50149,1,4
392,56,50419,1,0
448,248,50960,5,0
448,248,51230,1,0
448,176,51500,1,0
376,176,51770,1,0
304,176,52041,1,0
232,176,52311,1,0
232,176,52581,1,0
232,176,52851,1,0
160,176,53122,5,0
88,176,53392,1,4
88,176,53662,1,0
88,176,53932,1,0
88,176,54203,1,0
136,80,54743,5,0
168,144,55013,1,0
208,200,55284,1,0
256,248,55554,2,4,B|256:248|361:297|488:240,1,210
464,112,56905,1,0
328,64,57446,5,0
256,64,57716,1,0
152,64,58122,1,0
80,144,58527,5,0
152,144,58797,1,4
256,144,59203,1,0
360,144,59608,5,0
392,208,59878,1,4
320,232,60149,1,0
248,232,60419,1,0
176,232,60689,2,0,B|176:232|24:232,2,140
184,312,62040,6,0,B|184:312|304:321|408:240,2,210
184,240,63932,1,2
184,96,64473,1,0
256,96,64743,1,0
392,96,65284,1,2
400,232,65824,1,2
256,232,66365,6,0,B|256:232|189:212|104:240,1,140
48,256,67175,1,0
48,112,67716,1,0
184,104,68256,1,0
320,104,68797,1,0
392,104,69067,1,0
392,240,69608,1,2
248,240,70148,1,2
104,240,70689,5,0
104,96,71229,1,0
56,40,71500,1,0
192,32,72040,1,0
328,32,72581,1,2
440,112,73121,1,0
336,200,73662,1,2
440,288,74202,1,0
304,328,74743,5,0
304,328,75013,2,2,B|304:328|204:279|136:192,1,210
136,56,76364,1,0
208,56,76635,1,2
48,256,79337,6,0,B|48:256|168:265|272:184,2,210
32,328,81229,1,2
160,328,81770,1,0
232,328,82040,1,2
352,328,82581,1,2
480,328,83121,1,2
472,192,83662,6,2,B|472:192|367:241|367:72|478:121,1,210
384,48,85013,1,0
248,40,85553,1,2
280,168,86094,1,0
280,240,86364,1,2
144,192,86905,1,2
64,80,87445,1,2
64,248,87986,6,2,B|64:248|157:335|384:335|472:232,1,420
448,136,90148,2,2,B|448:136|208:136,2,210
448,248,92310,5,2
320,248,92851,2,2,B|320:248|216:248,1,70
136,248,93661,1,0
56,248,93932,1,6
80,88,105013,5,0
80,88,105283,2,0,B|80:88|256:24|434:118|440:232,1,420
440,280,107175,5,0
440,280,107445,2,0,B|440:280|264:344|86:250|80:136,1,420
176,56,109607,2,0,B|176:56|464:56|472:168,2,280
208,160,112310,1,0
208,160,112580,1,0
40,136,113390,5,0
192,136,113930,5,2
336,136,114470,1,0
416,184,115011,5,2
288,184,115551,1,0
192,240,116092,5,2
336,240,116632,1,2
336,240,116902,1,2
328,72,117713,1,0
400,168,118254,5,2
288,256,118794,1,0
176,176,119335,1,2
288,96,119875,1,0
288,96,120146,1,0
360,96,120416,5,6
360,232,120956,1,6
216,232,121497,1,6
216,96,122037,1,6
256,192,122578,12,0,124199
96,184,124740,6,0,B|96:184|216:175|320:256,2,210
32,56,126902,1,2
168,56,127442,1,0
296,56,127983,1,2
424,56,128523,1,2
432,184,129064,6,0,B|432:184|485:217|480:312,1,140
336,312,130145,1,0
192,312,130685,1,0
192,312,130956,1,2
48,312,131495,1,2
48,312,131766,1,0
48,168,132307,1,2
184,168,132848,1,2
320,168,133388,5,0
320,24,133929,1,0
320,24,134199,1,0
176,24,134739,1,0
176,160,135280,1,2
312,160,135820,1,0
312,296,136361,1,2
176,296,136901,1,0
88,192,137442,5,0
88,192,137712,2,2,B|88:192|190:188|159:76|276:59,1,210
368,136,139064,1,0
368,136,139334,1,2
288,280,140415,5,0
288,208,140685,1,0
288,136,140955,1,0
280,24,141496,1,0
392,24,142037,6,2,B|392:24|474:101|464:248,2,210
336,104,144199,1,2
320,240,144739,1,2
192,304,145280,1,2
64,240,145820,1,2
91,121,146361,6,2,B|91:121|48:22|212:12|162:129,1,210
288,128,147712,1,0
288,288,148253,1,2
416,288,148793,1,0
416,288,149063,1,2
416,144,149604,1,2
272,144,150144,1,2
280,280,150685,6,2,B|280:280|40:280,2,210
232,176,152847,6,2,B|232:176|472:176,2,210
448,104,155009,5,6
320,104,155550,2,2,B|320:104|216:104,1,70
120,104,156361,1,0
48,104,156631,1,2
448,64,159333,6,0,B|448:64|280:64,1,140
240,64,160144,1,0
240,64,160415,1,0
96,64,160955,1,0
96,200,161496,6,2,B|96:200|192:200,1,70
232,200,162036,1,0
232,200,162306,1,0
232,200,162577,1,2
368,200,163117,1,0
368,56,163658,5,2
296,56,163928,1,0
224,56,164198,1,2
224,192,164739,1,2
224,328,165279,5,0
296,328,165550,1,0
368,328,165820,1,2
368,184,166360,1,2
224,192,166901,1,2
64,320,167982,6,0,B|64:320|97:250|200:232,1,140
240,232,168793,1,0
240,232,169063,1,2
464,248,169604,5,0
464,248,169874,1,0
448,176,170144,2,2,B|448:176|444:134|392:128,4,70
392,48,171766,5,0
392,48,172036,1,0
320,48,172306,1,2
176,48,172847,1,2
176,184,173387,1,2
256,104,173928,5,0
256,104,174198,1,0
256,168,174468,1,2
256,296,175009,1,2
352,216,175549,1,6
432,120,176090,1,6
480,40,176495,1,6
