osu file format v5

[General]
AudioFilename: letgo.mp3
AudioLeadIn: 1967
AudioHash: 6a76f7de8a611a703a39b1b1ec6a5bc2
PreviewTime: -1
Countdown: 1
SampleSet: Normal
EditorBookmarks: 106523

[Metadata]
Title:Let Go
Artist:m-flo
Creator:James
Version:Normal

[Difficulty]
HPDrainRate:0
CircleSize:5
OverallDifficulty:4
SliderMultiplier:1.3
SliderTickRate:2

[Events]
//Background and Video events
1,-2650,"letgo-cut.avi"
//Break Periods
2,104413,106177
2,144530,148176
//Storyboard Layer 0 (Background)
//Storyboard Layer 1 (Failing)
//Storyboard Layer 2 (Passing)
//Storyboard Layer 3 (Foreground)
//Storyboard Sound Samples
//Background Colour Transformations
3,100,0,0,0

[TimingPoints]
587,666.666666666667,4,2,0,60
107198,666.666666666667,4,1,0,71
148722,666.666666666667,4,2,0,100

[Colours]
Combo1 : 253,189,231
Combo2 : 180,243,254
Combo3 : 255,255,255
Combo4 : 180,253,254

[HitObjects]
64,80,585,1,0
232,96,1585,1,0
272,64,1918,1,0
376,32,2585,1,0
448,88,3252,1,2
448,272,4251,1,0
320,296,4918,1,0
280,264,5251,1,2
64,192,5918,5,2
192,208,6918,1,0
232,176,7251,1,0
344,144,7918,1,0
424,192,8585,1,2
352,304,9585,1,0
312,272,9918,1,0
272,304,10252,1,0
224,304,10585,1,0
184,272,10918,1,0
144,304,11252,5,2
144,168,11918,1,0
184,136,12252,1,0
232,152,12585,1,0
280,168,12918,1,0
320,136,13252,1,0
360,168,13585,1,0
400,136,13918,1,2
320,304,14585,1,0
272,288,14918,1,0
224,272,15252,1,0
184,304,15585,1,0
64,80,16585,5,2
192,96,17585,1,0
232,64,17918,1,0
344,40,18585,1,0
432,80,19251,1,2
400,120,19585,1,0
432,160,19918,1,0
344,216,20585,1,0
304,184,20918,1,0
264,216,21251,1,0
232,176,21585,6,0,B|232:176|234:127|176:128,1,65
152,160,22251,2,2,B|152:160|111:154|112:96,1,65
144,72,22918,2,0,B|144:72|178:40|224:88,1,65
232,112,23585,2,2,B|232:112|266:141|304:104,1,65
336,96,24251,2,0,B|336:96|354:131|328:176,1,65
328,208,24918,2,2,B|328:208|290:367|240:266|220:228|178:150|149:218|112:312,1,325
152,328,26918,2,0,B|152:328|232:328,3,65
240,288,28251,2,2,B|240:288|312:288,1,65
336,328,28918,2,0,B|336:328|416:328,3,65
440,296,30251,2,0,B|440:296|407:203|348:202|344:236|332:268|272:212|248:160,1,260
249,162,31752,1,0
392,112,32251,6,0,B|392:112|358:88|320:120,1,65
312,160,32918,2,2,B|312:160|278:184|240:152,1,65
208,144,33585,2,0,B|208:144|182:112|216:64,3,65
248,56,34918,2,0,B|248:56|280:34|328:64,1,65
344,88,35585,2,2,B|344:88|354:201|233:179|133:162|136:312,1,325
184,304,37585,5,0
184,304,37752,1,0
184,304,37918,1,0
160,256,38252,1,0
160,256,38418,1,0
160,256,38585,1,0
160,256,38752,1,0
160,256,38918,1,0
184,208,39252,1,0
152,168,39585,1,0
152,168,39752,1,0
152,168,39918,1,0
200,184,40252,2,0,B|200:184|282:225|316:145|382:160|456:208,1,260
481,126,41919,1,0
432,56,42252,5,0
384,56,42585,1,0
336,64,42918,1,0
312,72,43085,1,0
256,112,43586,2,0,B|256:112|174:152|163:196|206:228|264:232,1,195
304,232,44919,2,0,B|304:232|371:243|456:202|472:144,1,195
400,152,46252,5,0
328,152,46585,1,0
256,152,46918,1,2
40,96,47585,5,0
88,96,47918,1,0
136,96,48252,2,0,B|136:96|224:96,1,65
256,96,48919,2,0,B|256:96|331:95|364:151|328:211|280:248,1,195
264,264,50252,2,0,B|264:264|197:275|112:234|96:176,1,195
112,216,52252,5,2
208,248,52918,6,0,B|208:248|224:208|280:232,1,65
272,272,53585,2,0,B|272:272|294:296|337:293|370:260|360:216,1,130
344,184,54585,2,0,B|344:184|276:135|228:180|180:218|104:160,1,227.5
128,96,56252,2,0,B|128:96|175:63|217:93|268:128|336:80,1,195
360,72,57585,1,0
384,56,57752,1,0
408,72,57918,5,0
408,144,58252,1,0
336,144,58585,1,0
336,216,58918,1,0
264,216,59252,5,0
216,216,59585,1,2
192,216,59752,1,2
96,216,60252,2,0,B|96:216|96:176|96:144|96:136,1,65
96,104,60918,1,2
96,80,61085,1,2
192,56,61585,2,0,B|192:56|224:56|248:56|280:56,1,65
304,56,62252,1,2
328,56,62418,1,2
352,56,62585,5,0
400,104,62918,1,0
352,152,63252,1,2
400,200,63585,1,0
352,248,63918,1,2
400,296,64252,1,0
448,248,64585,2,0,B|448:248|495:194|475:126|442:84|375:32|268:72|231:99|188:144|152:200,1,455
152,192,67085,1,2
56,64,68251,5,0
104,64,68585,1,0
208,168,69251,1,0
208,312,69918,1,0
424,312,71251,2,0,B|424:312|456:288|504:328,2,65
376,336,72251,2,0,B|376:336|328:380|281:339|233:301|168:368,1,195
104,296,73751,1,0
104,200,74251,1,0
136,160,74585,1,0
104,120,74918,1,2
64,224,75751,5,0
88,208,75918,2,0,B|88:208|168:135|242:204|318:266|408:176,1,325
448,152,77918,1,2
448,40,78918,6,0,B|448:40|401:37|376:72,1,65
304,128,79918,1,0
272,168,80251,2,2,B|272:168|233:214|182:218|128:200,1,130
32,104,81918,5,0
120,48,82585,1,0
152,88,82918,5,0
192,120,83251,2,2,B|192:120|260:160|328:112,1,130
408,64,84585,1,0
408,176,85251,2,2,B|408:176|408:248,1,65
408,336,85918,1,0
320,336,86251,2,2,B|320:336|224:336,1,65
168,336,86918,2,0,B|168:336|96:336,1,65
48,264,87585,1,2
48,240,87751,1,2
40,96,88251,2,0,B|40:96|88:96|128:96,1,65
192,96,88918,1,2
216,96,89085,1,2
224,240,89585,2,0,B|224:240|264:240|304:240,1,65
288,336,90251,1,2
320,336,90418,1,2
440,184,90918,6,0,B|440:184|406:204|360:176,1,65
280,152,91918,2,0,B|280:152|213:113|136:160,1,130
72,216,93251,1,0
120,216,93585,1,0
144,216,93751,1,0
232,216,94251,2,0,B|232:216|232:128,1,65
232,72,95085,1,0
312,72,95585,2,0,B|312:72|384:72,3,65
376,160,96918,5,2
400,160,97085,1,2
400,296,97585,2,0,B|400:296|368:296|344:296|304:296,1,65
280,224,98251,1,2
256,240,98418,1,2
144,312,98918,2,0,B|144:312|88:240,1,65
56,184,99585,1,2
56,160,99751,1,2
192,160,100251,2,0,B|192:160|264:160,1,65
344,160,100918,1,2
368,160,101085,1,2
240,40,101585,5,0
288,40,101918,1,0
424,160,102585,1,0
424,208,102918,1,0
288,336,103585,2,2,B|288:336|200:336,2,65
160,280,107531,5,0
256,192,108198,1,0
352,104,108864,1,0
432,160,109364,5,0
432,160,109531,1,0
432,160,109698,1,0
368,168,110031,1,0
368,168,110198,2,0,B|368:168|268:197|200:136,1,162.5
160,112,111364,1,0
112,152,111698,1,0
96,184,111864,2,0,B|96:184|71:221|112:248,1,65
192,280,112864,5,0
296,200,113531,1,0
208,104,114198,1,0
120,64,114698,5,0
88,80,114864,1,0
96,112,115031,1,0
112,176,115364,1,0
112,176,115531,2,0,B|112:176|125:233|163:314|208:354|307:348|372:286|416:216,1,390
352,104,118198,5,0
256,192,118864,1,0
192,80,119531,1,0
112,136,120031,5,0
112,136,120198,1,0
112,136,120364,1,0
176,112,120698,1,0
176,112,120864,2,0,B|176:112|288:84|358:68|456:83|487:156|424:256,1,390
296,320,123531,5,0
296,192,124198,1,0
400,120,124864,1,0
312,80,125364,2,0,B|312:80|312:24,2,32.5
232,112,126031,2,0,B|232:112|232:168,2,32.5
160,72,126698,2,0,B|160:72|160:16,2,32.5
80,64,127364,2,0,B|80:64|80:112,4,32.5
112,63,128198,6,0,L|112:63|112:236|238:236,1,292.5
280,192,130031,1,0
280,192,130198,2,0,B|280:192|323:167|354:95|309:81|267:29|207:38|75:72|40:120|8:160,1,422.5
56,208,132864,2,0,B|56:208|80:242|99:259|266:249,1,195
304,248,134198,2,0,B|304:248|291:154|176:136,1,162.5
336,56,138031,5,0
360,56,138198,2,0,B|360:56|438:67|495:77|525:173|488:275|335:134|320:312,1,390
320,312,140364,1,0
272,352,140698,1,0
248,344,140864,2,0,B|248:344|-28:163|491:261|96:48,1,422.5
144,48,143198,2,0,B|144:48|236:5|311:96|392:32,1,227.5
56,48,149553,5,0
104,48,149888,2,0,B|104:48|224:43|297:52|365:96|407:157|436:242|440:368,1,520
440,112,153555,1,0
392,112,153888,1,0
232,112,154555,1,0
112,216,155222,1,0
392,144,156555,2,0,B|392:144|472:144,2,65
360,184,157555,2,0,B|360:184|136:184,1,195
104,240,159055,1,0
104,157,159555,1,0
136,117,159890,1,0
217,117,160388,1,2
424,192,161054,5,0
384,160,161388,2,0,B|384:160|356:138|321:104|248:102|212:137|176:176,1,227.5
152,200,162888,2,2,B|152:200|124:220|112:256,1,65
256,56,164222,5,0
224,96,164555,2,2,B|224:96|198:133|232:176,1,65
256,192,165222,1,2
296,224,165555,2,2,B|296:224|332:300|232:344,1,130
112,144,168221,5,0
152,120,168555,2,2,B|152:120|220:80|288:128,1,130
368,160,169888,1,2
464,216,170553,2,0,B|464:216|464:288,1,65
392,328,171222,1,0
312,280,171553,2,2,B|312:280|312:200,1,65
312,120,172222,2,0,B|312:120|312:24,1,65
216,56,172888,1,2
192,56,173055,1,2
56,112,173552,2,0,B|56:112|56:160|56:200,1,65
56,264,174221,1,2
56,288,174388,1,2
184,336,174886,2,0,B|184:336|224:336|264:336,1,65
336,336,175555,1,2
360,336,175722,1,2
424,200,176222,6,0,B|424:200|390:180|344:208,1,65
264,240,177222,2,0,B|264:240|197:279|120:232,1,130
48,184,178555,1,0
96,184,178889,1,0
144,184,179222,1,0
192,184,179555,2,0,B|192:184|280:184,1,65
336,184,180388,1,0
416,184,180888,2,2,B|416:184|488:184,3,65
472,96,182222,5,2
456,72,182390,1,2
320,72,182888,2,0,B|320:72|248:72,1,65
168,72,183555,1,2
144,72,183722,1,2
64,168,184222,2,0,B|64:168|144:168,1,65
216,168,184888,1,2
240,168,185055,1,2
352,248,185555,2,0,B|352:248|280:248,1,65
192,248,186222,1,2
168,248,186389,1,2
256,192,187055,12,2,192722
