osu file format v5

[General]
AudioFilename: letgo.mp3
AudioLeadIn: 1967
AudioHash: 6a76f7de8a611a703a39b1b1ec6a5bc2
PreviewTime: -1
Countdown: 1
SampleSet: Soft
EditorBookmarks: 106523,149025

[Metadata]
Title:Let Go
Artist:m-flo
Creator:James
Version:Hard

[Difficulty]
HPDrainRate:6
CircleSize:6
OverallDifficulty:5
SliderMultiplier:1
SliderTickRate:1

[Events]
//Background and Video events
1,-2650,"letgo-cut.avi"
//Break Periods
2,104453,106259
2,144508,148381
//Storyboard Layer 0 (Background)
//Storyboard Layer 1 (Failing)
//Storyboard Layer 2 (Passing)
//Storyboard Layer 3 (Foreground)
//Storyboard Sound Samples
//Background Colour Transformations
3,100,0,0,0

[TimingPoints]
587,333.333333333333,4,2,0,71
107198,333.333333333333,4,1,0,75
148722,333.333333333333,4,2,0,71

[Colours]
Combo1 : 253,189,231
Combo2 : 180,243,254
Combo3 : 255,255,255
Combo4 : 180,253,254

[HitObjects]
64,80,587,1,0
232,96,1586,1,0
272,64,1920,1,0
376,32,2586,1,0
448,88,3253,1,2
448,272,4254,1,0
320,296,4920,1,0
280,264,5254,1,2
64,192,5920,5,2
192,208,6920,1,0
232,176,7253,1,0
344,144,7920,1,0
424,192,8587,1,2
352,304,9587,1,0
312,272,9921,1,0
272,304,10254,1,0
224,304,10587,1,0
184,272,10921,1,0
144,304,11254,5,2
144,168,11921,1,0
184,136,12254,1,0
232,152,12587,1,0
280,168,12921,1,0
320,136,13254,1,0
360,168,13587,1,0
400,136,13921,1,2
320,304,14587,1,0
272,288,14921,1,0
224,272,15254,1,0
184,304,15587,1,0
448,80,16587,5,2
320,96,17587,1,0
280,64,17920,1,0
168,40,18587,1,0
80,80,19254,1,2
112,120,19587,1,0
80,160,19920,1,0
168,216,20587,1,0
208,184,20920,1,0
248,216,21254,1,0
208,272,21587,6,0,B|208:272|204:312|174:337|128:336,1,100
136,264,22254,2,0,B|136:264|96:260|71:230|72:184,1,100
144,192,22921,2,0,B|144:192|148:152|178:127|224:128,1,100
216,200,23587,2,0,B|216:200|256:204|281:234|280:280,1,100
208,272,24254,2,0,B|208:272|204:312|174:337|128:336,1,100
72,328,24920,1,2
40,264,25254,1,2
32,192,25587,1,2
40,160,25754,1,2
80,104,26087,1,2
104,80,26254,1,2
160,40,26587,1,2
224,24,26920,6,0,B|224:24|263:16|294:32|312:72,3,100
248,96,28254,2,2,B|248:96|246:136|274:166|328:168,1,100
320,96,28920,2,0,B|320:96|373:62|424:104,1,100
368,152,29586,2,2,B|368:152|405:194|368:256,1,100
360,264,30087,1,0
336,280,30254,1,0
312,288,30420,1,0
288,288,30587,1,0
264,288,30754,1,0
240,280,30920,1,0
224,264,31086,1,0
208,240,31253,1,0
192,168,31586,1,0
200,144,31753,1,0
240,88,32087,1,0
264,88,32254,6,0,B|264:88|310:86|328:100|344:136,1,100
280,160,32921,2,0,B|280:160|278:206|292:224|328:240,1,100
352,176,33587,2,2,B|352:176|398:178|416:164|432:128,3,100
368,104,34921,2,0,B|368:104|370:58|356:40|320:24,1,100
248,8,35587,1,2
176,24,35921,1,2
120,64,36254,1,2
120,64,36421,1,2
96,128,36754,1,2
96,128,36921,1,2
88,200,37254,1,2
88,272,37587,6,0,B|88:272|66:287|32:272,2,50
152,240,38254,1,0
176,224,38421,1,0
192,208,38587,1,0
200,184,38754,1,0
200,160,38921,1,0
192,88,39254,1,0
264,96,39587,1,0
288,104,39754,1,0
296,128,39921,1,0
312,192,40254,6,0,B|312:192|345:186|352:152,2,50
240,208,40921,1,0
240,208,41087,2,0,B|240:208|192:215|181:250|232:296,1,100
48,336,42254,5,0
112,328,42587,1,0
184,312,42921,2,0,B|184:312|221:307|251:283|264:248,1,100
192,240,43587,2,0,B|192:240|197:203|221:173|256:160,1,100
256,232,44254,2,0,B|256:232|261:269|285:299|320:312,1,100
328,240,44921,2,0,B|328:240|365:235|395:211|408:176,1,100
336,168,45587,2,0,B|336:168|331:131|307:101|272:88,1,100
256,160,46254,5,2
192,192,46587,1,2
120,216,46921,1,2
48,336,47587,5,0
112,320,47921,1,0
176,296,48254,2,0,B|176:296|212:284|242:260|248:224,1,100
176,232,48921,2,0,B|176:232|100:233|72:285|67:338|136:373|209:371|248:344,1,300
304,312,50254,2,0,B|304:312|369:291|369:214|310:171|257:149|168:144,1,300
384,160,52254,5,2
480,56,52921,6,0,B|480:56|447:38|413:38|376:56,1,100
320,88,53587,2,0,B|320:88|287:106|253:106|216:88,2,100
272,32,54587,2,0,B|272:32|221:-1|163:20|115:29|96:88,1,200
72,144,55587,1,2
72,144,55754,1,2
144,216,56254,2,0,B|144:216|199:256|278:271|336:262|384:233|416:184,1,300
456,136,57587,1,2
456,136,57754,1,2
448,352,58921,5,0
416,352,59087,1,0
384,352,59254,1,0
312,352,59587,1,2
280,352,59754,1,2
176,352,60254,2,0,B|176:352|136:359|109:341|112:296,1,100
112,232,60921,1,2
144,232,61087,1,2
248,232,61587,2,0,B|248:232|280:232|312:220|312:184|312:160,1,100
248,160,62254,2,2,B|248:160|248:128|236:96|200:96|176:96,1,100
120,96,62921,5,0
136,168,63254,1,2
184,224,63587,1,0
240,272,63921,1,2
304,296,64254,1,0
256,192,64587,12,0,67253
56,64,68254,5,0
128,64,68587,1,0
264,64,69254,1,2
400,64,69920,1,2
408,344,71254,2,0,B|408:344|376:321|342:368|296:336,1,100
240,320,71920,2,0,B|240:320|204:298|158:309|128:336,1,100
80,336,72587,2,0,B|80:336|84:244|215:246|256:248,1,200
344,240,73754,1,0
440,208,74254,1,2
480,152,74587,1,2
464,64,75004,1,2
256,192,75837,12,0,77587
256,192,77920,1,2
432,56,78920,6,0,B|432:56|368:29|352:88,1,100
304,216,79920,1,0
272,280,80254,2,2,B|272:280|228:403|88:328,1,200
112,128,81920,5,0
248,128,82587,1,0
248,200,82920,5,2
320,200,83254,2,2,B|320:200|247:329|168:192,2,200
384,320,85254,2,2,B|384:320|443:357|472:296,1,100
488,232,85920,1,0
488,160,86254,2,2,B|488:160|472:100|400:112,1,100
352,144,86921,2,2,B|352:144|311:204|376:232,1,100
432,248,87587,1,2
432,248,87754,1,2
472,304,88087,1,0
472,304,88254,2,2,B|472:304|427:349|376:304,1,100
320,272,88920,1,2
320,272,89087,1,2
264,232,89420,1,0
264,232,89587,2,2,B|264:232|216:176|168:248,1,100
136,280,90255,1,2
136,280,90421,1,2
72,200,90920,6,0,B|72:200|80:140|144:120,1,100
256,56,91920,2,0,B|256:56|360:-16|440:80,1,200
488,200,93254,1,0
456,264,93587,1,0
432,272,93754,1,0
328,288,94254,2,2,B|328:288|287:294|250:284|224:256,1,100
152,200,95087,1,0
88,120,95587,2,2,B|88:120|141:80|192:128,3,100
240,144,96920,5,2
240,144,97087,1,2
184,184,97420,1,0
184,184,97587,2,2,B|184:184|144:237|192:288,1,100
232,328,98254,1,2
232,328,98420,1,2
296,304,98754,1,0
296,304,98921,2,0,B|296:304|349:281|344:216,1,100
352,152,99587,1,2
352,152,99753,1,2
328,88,100087,1,0
328,88,100254,2,2,B|328:88|312:30|248:32,1,100
184,32,100920,1,2
184,32,101087,1,2
96,88,101586,5,0
72,152,101920,1,0
112,288,102586,1,0
176,320,102920,1,0
312,304,103586,1,2
360,256,103920,1,2
376,184,104253,1,2
424,192,107531,5,0
256,192,108198,1,0
88,192,108865,1,0
120,88,109364,6,0,B|120:88|56:88,2,50
128,160,110031,1,0
152,160,110198,1,0
176,160,110365,1,0
200,160,110531,1,0
224,160,110698,1,0
248,160,110865,1,0
272,160,111031,1,0
271,231,111365,1,0
344,232,111698,2,2,B|344:232|400:232,1,50
464,232,112198,1,2
352,152,112865,5,0
232,224,113531,1,0
88,240,114198,1,0
80,136,114697,6,0,B|80:136|27:156,2,50
144,112,115365,1,0
168,104,115531,1,0
192,96,115698,1,0
216,88,115865,1,0
240,80,116031,1,0
264,72,116198,1,0
288,72,116365,1,0
312,72,116531,1,0
336,72,116698,1,0
360,80,116865,1,0
376,96,117031,1,0
384,120,117198,1,2
384,144,117365,1,2
376,168,117531,1,2
152,272,118199,5,0
176,136,118865,1,0
280,48,119531,1,0
384,96,120031,6,0,B|384:96|424:56,2,50
336,144,120698,1,0
320,160,120865,1,0
312,184,121031,1,0
304,208,121198,1,0
296,232,121365,1,0
280,248,121531,1,0
264,264,121698,1,0
240,272,121865,1,0
216,280,122031,1,0
192,288,122198,1,2
168,288,122365,1,2
144,288,122531,1,2
72,288,122865,1,2
160,200,123532,5,0
280,120,124199,1,0
160,48,124865,1,0
48,56,125364,5,2
64,72,125531,1,2
80,88,125698,1,2
152,88,126031,1,2
168,104,126198,1,2
184,120,126365,1,2
256,120,126698,1,2
272,136,126865,1,2
288,152,127031,1,2
360,152,127365,1,2
376,168,127531,1,2
392,184,127698,1,2
408,200,127865,1,2
424,216,128031,1,2
440,232,128199,6,0,B|440:232|496:232,2,50
368,232,128865,1,0
344,232,129032,1,0
320,232,129199,1,0
296,232,129365,1,0
272,232,129532,1,0
248,232,129699,1,2
176,232,130032,5,0
160,208,130199,1,0
152,184,130365,1,0
144,160,130532,1,0
144,136,130699,1,0
152,112,130865,1,0
168,96,131032,1,0
184,80,131199,1,0
208,72,131365,1,0
232,64,131532,1,0
256,64,131699,1,0
280,64,131865,1,0
304,64,132032,1,2
328,64,132199,1,2
352,64,132365,1,2
416,152,132865,5,2
360,104,133198,1,0
336,120,133365,1,0
312,136,133531,1,0
288,152,133698,1,2
264,168,133865,1,2
208,120,134197,1,0
184,136,134365,1,0
160,152,134531,1,0
136,168,134698,1,2
112,184,134865,1,2
88,200,135031,1,2
256,192,135364,12,2,137697
162,150,138032,1,0
178,134,138199,1,0
192,120,138365,1,0
216,104,138532,1,0
240,96,138699,1,0
264,96,138865,1,0
288,96,139032,1,0
312,104,139199,1,0
328,120,139365,1,0
344,136,139532,1,0
352,160,139699,1,2
352,184,139865,1,2
344,208,140032,1,2
328,232,140199,1,2
312,256,140365,1,2
280,208,140698,5,0
256,216,140865,1,0
240,232,141031,1,0
232,256,141198,1,0
240,280,141365,1,0
248,304,141531,1,0
272,320,141698,1,0
296,328,141865,1,0
320,328,142031,1,0
344,320,142198,1,0
360,304,142365,1,0
376,280,142531,1,0
384,256,142698,1,0
392,232,142865,1,0
392,208,143032,1,0
256,192,143197,12,2,144364
256,192,149555,12,0,152555
456,112,153555,1,0
384,112,153888,1,0
264,184,154555,1,0
264,320,155222,1,0
120,80,156555,2,0,B|120:80|88:98|54:99|8:72,2,100
184,56,157555,2,0,B|184:56|211:37|256:71|296:32,1,100
432,16,158638,1,0
472,112,159138,1,0
480,216,159639,1,2
440,272,159972,1,2
376,328,160388,1,2
256,248,161055,5,0
184,248,161389,2,0,B|184:248|131:248|64:223|32:177|69:119|152:57|248:48,1,350
288,48,162889,2,0,B|288:48|373:43|424:104,1,150
392,272,164222,5,0
304,256,164638,2,2,B|304:256|235:237|224:304,1,100
224,296,165221,1,2
136,272,165638,2,2,B|136:272|83:241|88:184,1,100
88,192,166305,1,2
368,48,168222,5,2
296,56,168555,2,2,B|296:56|240:62|157:68|152:192,1,200
152,296,169888,1,2
288,328,170555,2,2,B|288:328|319:348|361:313|392:336,1,100
456,352,171222,1,2
424,288,171555,2,2,B|424:288|404:226|336:216,1,100
288,224,172222,2,2,B|288:224|228:249|184:192,1,100
144,160,172888,1,2
128,144,173055,1,2
80,88,173389,1,0
80,88,173555,2,2,B|80:88|101:37|176:32,1,100
224,32,174222,1,2
248,32,174388,1,2
320,32,174722,1,0
320,32,174888,2,2,B|320:32|385:24|408:96,1,100
432,136,175555,1,2
440,160,175805,1,2
400,256,176222,6,0,B|400:256|357:295|312:216,1,100
264,96,177222,2,0,B|264:96|213:-40|120:128,1,200
56,232,178555,1,0
128,232,178888,1,0
200,232,179222,1,0
272,232,179555,2,0,B|272:232|392:232,1,100
448,304,180388,1,0
344,304,180888,2,2,B|344:304|240:304,3,100
176,304,182222,5,2
144,304,182389,1,2
144,232,182722,1,0
144,232,182888,2,2,B|144:232|264:232,1,100
312,232,183555,1,2
344,232,183722,1,2
416,232,184055,1,0
416,232,184222,2,2,B|416:232|495:247|480:160,1,100
480,112,184888,1,2
480,88,185055,1,2
408,88,185389,1,0
408,88,185555,2,2,B|408:88|288:88,1,100
240,88,186222,1,2
216,88,186388,1,2
256,192,186889,12,2,192721
