osu file format v5

[General]
AudioFilename: m-flo loves ryuichi sakamoto - i wanna be down.mp3
AudioLeadIn: 0
PreviewTime: -1
Countdown: 1
SampleSet: Normal
StackLeniency: 0.7
Mode: 0
LetterboxInBreaks: 1
EditorBookmarks: 99,19780

[Metadata]
Title:I wanna be down
Artist:m-flo
Creator:PoxiPol
Version:I wanna
Source:
Tags:

[Difficulty]
HPDrainRate:5
CircleSize:4
OverallDifficulty:4
SliderMultiplier:1.4
SliderTickRate:1

[Events]
//Background and Video events
0,0,"bs1mbgddyong057qjj1zd9.jpg"
//Break Periods
2,39607,41165
2,62420,65540
//Storyboard Layer 0 (Background)
//Storyboard Layer 1 (Failing)
//Storyboard Layer 2 (Passing)
//Storyboard Layer 3 (Foreground)
//Storyboard Sound Samples
//Background Colour Transformations
3,100,255,255,255

[TimingPoints]
345.23980892339,312.5,4,1,0,100,1

[Colours]
Combo1 : 128,0,64
Combo2 : 252,196,133
Combo3 : 255,255,255
Combo4 : 255,255,0

[HitObjects]
96,96,17220,1,0
288,96,18470,1,0
288,288,19720,1,0
480,288,20970,5,0
480,96,22220,1,0
288,96,23470,1,0
96,96,24720,1,0
96,288,25970,5,0
288,288,27220,1,0
480,288,28470,1,0
480,96,29407,1,0
288,96,30345,1,0
288,224,30970,5,0
480,224,31907,1,0
480,128,32220,1,0
384,32,32845,2,0,B|64:320,7,420
288,160,42845,5,0
96,160,44095,1,0
96,352,45345,1,0
224,224,46595,1,0
224,32,47845,1,0
416,32,49095,1,0
416,224,50345,5,0
288,224,50970,1,0
160,224,51595,1,0
160,352,52220,1,0
288,352,52845,1,0
288,160,54095,1,0
480,160,55345,1,0
480,352,56595,1,0
352,352,57220,1,0
352,224,57845,1,0
160,224,59095,1,0
160,96,59720,1,0
288,96,60345,1,0
448,96,61282,5,0
448,256,62220,1,0
96,256,67220,5,0
96,128,67845,1,0
192,128,68157,1,0
288,128,68470,1,0
288,320,69720,5,0
96,320,70970,1,0
96,128,72220,1,0
288,128,73157,1,0
384,128,73470,1,0
480,128,73782,1,0
480,288,74720,1,0
288,288,75970,1,0
96,288,77220,1,0
96,96,78470,1,0
192,96,78782,1,0
288,96,79095,1,0
416,96,79720,1,0
416,224,80345,1,0
224,224,81595,1,0
224,32,82845,1,0
128,32,83157,1,0
128,128,83470,1,0
128,256,84095,1,0
320,256,85345,1,0
320,64,86595,1,0
