osu file format v5

[General]
AudioFilename: mflo_cnr.mp3
AudioLeadIn: 0
AudioHash: 27fefee4f998b5f04262286f7ce343a8
PreviewTime: 126167
Countdown: 1
SampleSet: Soft
EditorBookmarks: 36659,90973,108795,193943

[Metadata]
Title:Cosmic Night Run
Artist:m-flo
Creator:Echo49
Version:Normal

[Difficulty]
HPDrainRate:4
CircleSize:3
OverallDifficulty:4
SliderMultiplier:1.3
SliderTickRate:2

[Events]
//Background and Video events
//Break Periods
2,91187,107489
//Storyboard Layer 0 (Background)
//Storyboard Layer 1 (Failing)
//Storyboard Layer 2 (Passing)
//Storyboard Layer 3 (Foreground)
//Storyboard Sound Samples
//Background Colour Transformations
3,148,163,162,255

[TimingPoints]
436,565.870662800566,4,2,1,100

[HitObjects]
88,72,36651,5,0
200,72,37217,1,0
312,72,37783,1,0
424,72,38349,1,0
424,312,38915,5,0
312,312,39481,1,0
200,312,40046,1,0
88,312,40612,1,0
80,192,41178,5,0
192,192,41744,2,2,B|192:192|328:192,1,130
432,192,42876,1,0
184,136,43442,5,0
328,136,44008,1,0
192,264,44573,2,2,B|192:264|262:288|326:260,1,130
88,120,45705,5,0
200,168,46271,1,0
312,216,46837,1,4
424,264,47403,1,0
424,120,47969,5,0
312,168,48535,1,0
200,216,49100,1,4
88,264,49666,1,0
136,112,50232,5,0
248,112,50798,2,2,B|248:112|384:112,3,130
272,264,53061,2,0,B|272:264|344:264,2,65
184,264,53910,1,4
184,264,54052,1,4
88,80,54759,5,0
88,208,55325,1,0
200,144,55891,1,2
200,208,56174,1,0
200,272,56457,1,4
328,112,57023,6,0,B|328:112|376:80|416:72,2,65
328,208,58013,2,2,B|328:208|328:264|376:312,1,97.5
424,80,59286,5,0
424,208,59852,1,0
312,144,60418,1,2
312,208,60701,1,0
312,272,60984,1,4
200,208,61550,2,2,B|200:208|200:352,3,130
64,192,63813,5,0
144,80,64379,1,0
240,80,64803,2,2,B|240:80|240:152,3,65
384,136,66076,5,0
384,256,66642,1,0
288,256,67067,2,2,B|288:256|194:260|120:320,1,162.5
144,152,68340,5,0
256,80,68906,1,4
368,152,69472,1,0
256,176,70038,2,4,B|256:176|256:264,1,65
128,312,70603,6,2,B|128:312|264:360|400:304,1,260
440,256,72018,6,0,B|440:256|437:147|392:56,1,195
304,88,73433,1,0
192,88,73999,1,2
80,88,74565,1,0
112,192,75130,6,0,B|112:192|112:272,1,65
208,192,75696,2,0,B|208:192|208:264,1,65
304,192,76262,1,4
400,192,76828,2,0,B|400:192|400:328,1,130
312,320,77677,6,2,B|312:320|104:320,1,195
200,224,78809,2,0,B|200:224|408:224,1,195
312,128,79940,2,2,B|312:128|104:128,1,195
336,192,81355,5,0
256,192,81638,1,0
176,192,81921,1,2
256,80,82487,5,0
256,304,83053,1,0
256,192,83618,1,4
128,112,84184,5,0
384,112,84750,1,4
384,272,85316,1,0
128,272,85882,1,4
256,192,86448,12,2,90975
432,312,108800,6,0,B|432:312|296:312,1,130
216,312,109649,1,0
216,200,110214,1,0
304,200,110497,1,0
392,200,110780,1,2
72,320,111346,5,0
72,192,111912,1,4
184,96,112478,1,0
296,192,113044,1,4
368,72,113610,6,0,B|368:72|288:72,1,65
216,72,114176,1,0
216,184,114741,1,0
304,184,115024,1,0
392,184,115307,1,2
72,64,115873,5,0
72,192,116439,1,4
184,288,117005,1,0
296,192,117571,1,4
408,288,118137,6,0,B|408:288|408:216,1,65
408,136,118702,1,0
336,88,118985,1,0
264,40,119268,1,2
264,200,119834,1,0
192,248,120117,1,0
120,296,120400,1,2
120,152,120966,2,0,B|120:152|120:104,4,32.5
256,152,122098,1,4
80,296,122664,6,0,B|80:296|160:296,1,65
232,296,123229,1,0
392,296,123795,1,0
392,208,124078,1,0
392,120,124361,1,2
288,48,124927,1,0
168,48,125493,1,4
48,48,126059,1,0
48,136,126342,5,4
112,200,126625,1,4
200,224,126908,1,4
288,224,127191,2,0,B|288:224|288:72,2,130
408,296,128888,1,4
448,168,129454,6,0,B|448:168|432:80|368:48,2,130
288,168,131152,1,2
200,168,131435,1,2
112,168,131717,6,0,B|112:168|112:248|168:312,2,130
256,72,133415,1,4
192,256,133981,6,2,B|192:256|336:256,3,130
416,152,136244,5,2
416,152,136527,1,2
344,104,136810,1,0
256,104,137093,1,0
168,104,137376,1,0
96,152,137659,5,2
96,152,137942,1,2
168,104,138225,1,0
256,104,138508,1,0
344,104,138791,1,0
320,192,139074,6,0,B|320:192|176:192,1,130
256,192,140206,5,4
96,232,140771,5,2
96,232,141054,1,2
168,280,141337,1,0
256,280,141620,1,0
344,280,141903,1,0
416,232,142186,5,2
416,232,142469,1,2
344,280,142752,1,0
256,280,143035,1,0
168,280,143318,1,0
192,192,143601,6,0,B|192:192|336:192,1,130
256,192,144733,5,4
72,72,145298,6,0,B|72:72|72:152,1,65
192,312,146430,2,2,B|192:312|192:240,1,65
320,72,147562,2,4,B|320:72|320:144,1,65
440,312,148694,2,6,B|440:312|440:232,1,65
152,48,149825,6,2,B|152:48|224:48,1,65
304,48,150391,1,4
360,144,150957,6,2,B|360:144|288:144,1,65
208,144,151523,1,4
152,240,152089,6,2,B|152:240|224:240,1,65
304,240,152655,1,4
384,328,153221,6,6,B|384:328|112:328,1,260
72,256,156899,6,0,B|72:256|75:147|120:56,1,195
208,88,158313,1,0
320,88,158879,1,2
432,88,159445,1,0
400,192,160011,6,0,B|400:192|400:272,1,65
304,192,160577,2,0,B|304:192|304:264,1,65
208,192,161143,1,4
112,192,161709,2,0,B|112:192|112:328,1,130
200,320,162557,6,2,B|200:320|408:320,1,195
312,224,163689,2,0,B|312:224|104:224,1,195
200,128,164821,2,2,B|200:128|408:128,1,195
176,192,166236,5,0
256,192,166519,1,0
336,192,166801,1,2
256,80,167367,5,0
256,304,167933,1,0
256,192,168499,1,4
384,112,169065,5,0
128,112,169631,1,4
128,272,170197,1,0
384,272,170763,1,4
256,128,171328,6,2,B|256:128|256:280,5,130
352,96,175007,6,0,B|352:96|254:55|159:96,1,195
120,192,176421,1,0
256,192,176987,1,2
392,192,177553,1,0
360,328,178119,6,0,B|360:328|272:328,1,65
152,328,178685,2,0,B|152:328|240:328,1,65
256,256,179251,1,4
224,120,179817,2,0,B|224:120|304:120,2,65
144,72,180665,6,2,B|144:72|144:272,1,195
256,264,181797,2,0,B|256:264|256:48,1,195
368,72,182929,2,2,B|368:72|368:272,1,195
176,288,184343,5,0
256,288,184626,1,0
336,288,184909,1,2
176,192,185475,5,0
336,192,186041,1,0
256,104,186607,1,4
160,320,187173,5,2
160,64,187739,1,4
352,64,188305,1,2
352,320,188870,1,4
256,192,189436,12,2,193963
