osu file format v5

[General]
AudioFilename: mflo_cnr.mp3
AudioLeadIn: 0
AudioHash: 27fefee4f998b5f04262286f7ce343a8
PreviewTime: 126167
Countdown: 1
SampleSet: Soft
EditorBookmarks: 36659,90987,108795,193943

[Metadata]
Title:Cosmic Night Run
Artist:m-flo
Creator:Echo49
Version:Hard

[Difficulty]
HPDrainRate:6
CircleSize:5
OverallDifficulty:6
SliderMultiplier:1.8
SliderTickRate:2

[Events]
//Background and Video events
//Break Periods
2,91187,107759
//Storyboard Layer 0 (Background)
//Storyboard Layer 1 (Failing)
//Storyboard Layer 2 (Passing)
//Storyboard Layer 3 (Foreground)
//Storyboard Sound Samples
//Background Colour Transformations
3,148,163,162,255

[TimingPoints]
436,565.904062800566,4,2,1,100

[HitObjects]
112,264,36653,5,0
152,320,36936,1,0
192,264,37219,1,0
320,328,37785,1,0
360,272,38068,1,0
400,328,38351,1,0
112,120,38917,5,0
152,64,39200,1,0
192,120,39483,1,0
320,56,40049,1,0
360,112,40332,1,0
400,56,40615,1,0
424,192,41181,5,0
384,248,41464,1,0
344,192,41746,2,2,B|344:192|144:192,1,180
128,136,42595,1,0
88,192,42878,1,0
184,304,43444,5,0
256,304,43727,1,0
328,304,44010,1,0
256,232,44293,1,0
304,160,44576,2,2,B|304:160|208:160,2,90
440,120,45708,5,0
392,72,45991,1,0
328,48,46274,1,0
184,48,46840,1,0
120,72,47123,1,0
72,120,47406,1,4
440,264,47971,5,0
392,312,48254,1,0
328,336,48537,1,0
184,336,49103,1,0
120,312,49386,1,0
72,264,49669,1,4
224,144,50235,5,0
288,80,50518,1,0
224,80,50801,1,0
288,144,51084,1,0
256,200,51367,2,2,B|256:200|256:296,2,90
112,240,52499,5,0
184,272,52782,1,0
256,288,53065,1,2
328,272,53348,1,2
400,240,53630,1,2
256,120,53913,5,4
256,120,54055,1,4
80,336,54762,5,0
136,296,55045,1,0
192,256,55328,1,2
136,216,55611,1,0
80,176,55894,2,2,B|80:176|80:88|152:56|224:56,1,180
432,336,57026,5,0
376,296,57309,1,0
320,256,57592,1,2
376,216,57875,1,0
432,176,58158,2,2,B|432:176|432:88|360:56|288:56,1,180
184,128,59290,5,0
256,128,59572,1,0
328,128,59855,1,4
363,214,60421,1,0
291,214,60704,1,0
219,214,60987,1,4
147,214,61270,1,0
167,285,61553,2,2,B|167:285|359:285,3,180
72,144,63817,5,0
136,104,64100,1,0
200,64,64383,1,4
200,136,64666,1,0
200,208,64949,2,2,B|200:208|216:307|298:328|344:320,1,180
440,144,66080,5,0
376,104,66363,1,0
312,64,66646,1,4
312,136,66929,1,0
312,208,67212,2,2,B|312:208|296:307|214:328|168:320,1,180
200,80,68344,5,0
200,152,68627,2,4,B|200:152|144:152,1,45
200,224,69051,1,0
256,272,69334,1,2
312,224,69617,1,0
312,152,69900,2,4,B|312:152|360:152,1,45
312,80,70325,1,0
256,192,70608,12,2,71598
94,72,72022,6,0,B|94:72|198:72,1,90
184,72,72447,1,0
320,72,72871,5,0
392,72,73154,1,0
392,144,73437,1,2
320,240,74003,5,0
320,312,74286,1,0
392,312,74569,1,2
168,312,75135,6,0,B|168:312|72:312,1,90
168,240,75701,2,0,B|168:240|64:240,1,90
168,168,76267,1,4
168,96,76833,2,2,B|168:96|360:96,1,180
256,192,77681,5,0
256,192,77823,1,0
256,192,77964,2,2,B|256:192|256:232,1,45
256,312,78389,1,4
64,208,78813,5,0
64,144,79096,2,2,B|64:144|128:144,1,45
192,144,79521,1,4
448,208,79945,5,0
448,144,80228,2,2,B|448:144|384:144,1,45
320,144,80652,1,4
168,48,81360,5,0
256,48,81643,1,0
344,48,81926,1,2
112,192,82492,5,0
400,192,83057,1,0
256,336,83623,1,4
184,120,84189,6,0,B|184:120|288:120,1,90
336,120,84755,2,0,B|336:120|336:224,1,90
336,272,85321,2,0,B|336:272|232:272,1,90
184,272,85887,2,0,B|184:272|184:168,1,90
80,144,86453,5,0
80,240,86736,1,4
80,240,86877,1,4
256,192,87302,1,2
432,144,87585,1,0
432,240,87868,1,4
432,240,88009,1,4
256,192,88434,12,2,90980
72,64,108806,6,2,B|72:64|72:248,1,180
72,320,109655,1,0
152,320,109938,1,0
232,320,110221,1,4
360,320,110787,5,0
360,240,111070,1,0
360,160,111353,1,4
144,192,111919,5,0
160,144,112060,1,0
192,104,112202,1,0
240,88,112343,1,0
288,80,112485,1,4
288,168,112767,1,0
288,256,113050,2,2,B|288:256|288:288,1,45
440,144,113616,6,2,B|440:144|440:240,1,90
440,320,114182,1,0
360,320,114465,1,0
280,320,114748,1,4
152,320,115314,5,0
152,240,115597,1,0
152,160,115880,1,4
368,192,116446,5,0
352,144,116587,1,0
320,104,116729,1,0
272,88,116870,1,0
224,80,117012,2,2,B|224:80|176:80,3,45
96,80,117719,1,4
128,296,118144,6,2,B|128:296|224:296,1,90
328,296,118709,1,0
328,256,118851,1,0
328,216,118992,1,0
328,176,119134,1,0
328,136,119275,1,4
184,216,119841,5,0
184,176,119983,1,0
184,136,120124,1,0
184,96,120266,1,0
184,56,120407,1,6
288,56,120690,1,0
392,56,120973,2,0,B|392:56|440:56,4,45
392,160,121822,1,0
288,160,122105,2,2,B|288:160|288:208,1,45
384,296,122671,6,2,B|384:296|288:296,1,90
184,296,123237,1,0
184,256,123378,1,0
184,216,123520,1,0
184,176,123661,1,0
184,136,123803,1,4
328,216,124368,5,0
328,176,124510,1,0
328,136,124651,1,0
328,96,124793,1,0
328,56,124934,1,4
224,56,125217,1,0
120,56,125500,2,0,B|120:56|72:56,4,45
120,160,126349,5,0
152,248,126632,1,0
232,312,126915,1,0
336,336,127198,6,0,B|336:336|336:240,2,90
176,48,128330,2,0,B|176:48|176:144,2,90
336,48,129462,5,2
336,138,129745,1,0
256,192,130028,1,4
176,246,130310,1,0
176,336,130593,1,2
256,240,131159,5,0
256,192,131301,1,0
256,144,131442,1,4
176,48,131725,6,0,B|176:48|176:144,2,90
336,336,132857,2,0,B|336:336|336:240,2,90
176,336,133989,5,2
176,246,134272,1,0
256,192,134555,1,4
336,138,134838,1,0
336,48,135121,2,2,B|336:48|144:48,1,180
336,48,136252,5,0
280,104,136535,1,0
224,160,136818,1,4
168,104,137101,5,0
224,160,137384,1,0
280,216,137667,1,4
336,160,137950,5,0
280,216,138233,1,0
224,272,138516,1,4
168,216,138799,5,0
224,272,139082,1,0
280,328,139365,1,4
360,328,139648,1,0
360,248,139931,2,2,B|360:248|360:56,1,180
176,48,140780,5,0
232,104,141063,1,0
288,160,141346,1,4
344,104,141629,5,0
288,160,141912,1,0
232,216,142194,1,4
176,160,142477,5,0
232,216,142760,1,0
288,272,143043,1,4
344,216,143326,5,0
288,272,143609,1,0
232,328,143892,1,4
152,328,144175,1,0
64,328,144458,2,2,B|64:328|64:136,1,180
128,56,145307,6,0,B|128:56|232:56,1,90
304,56,145873,1,4
304,56,146014,1,0
304,56,146156,1,0
384,144,146439,6,0,B|384:144|280:144,1,90
208,144,147005,1,4
208,144,147146,1,0
208,144,147288,1,0
128,240,147571,6,0,B|128:240|232:240,1,90
304,240,148136,1,4
304,240,148278,1,0
304,240,148419,1,0
384,328,148702,6,0,B|384:328|280:328,1,90
208,328,149268,1,4
208,328,149410,1,0
208,328,149551,1,0
104,320,149834,6,2,B|104:320|104:224,1,90
104,64,150400,2,4,B|104:64|104:160,1,90
408,320,150966,6,2,B|408:320|408:224,1,90
408,64,151532,2,4,B|408:64|408:160,1,90
256,320,152098,6,2,B|256:320|256:216,1,90
256,64,152664,2,4,B|256:64|256:168,1,90
72,192,153230,6,6,B|72:192|448:192,1,360
418,72,156908,6,0,B|418:72|314:72,1,90
328,72,157332,1,0
192,72,157757,5,0
120,72,158040,1,0
120,144,158323,1,2
192,240,158889,5,0
192,312,159172,1,0
120,312,159455,1,2
344,312,160020,6,0,B|344:312|440:312,1,90
344,240,160586,2,0,B|344:240|448:240,1,90
344,168,161152,1,4
344,96,161718,2,2,B|344:96|152:96,1,180
256,192,162567,5,0
256,192,162708,1,0
256,192,162850,2,2,B|256:192|256:232,1,45
256,312,163274,1,4
448,208,163699,5,0
448,144,163982,2,2,B|448:144|384:144,1,45
320,144,164406,1,4
64,208,164831,5,0
64,144,165114,2,2,B|64:144|128:144,1,45
192,144,165538,1,4
344,48,166245,5,0
256,48,166528,1,0
168,48,166811,1,2
400,192,167377,5,0
112,192,167943,1,0
256,336,168509,1,4
328,120,169075,6,0,B|328:120|224:120,1,90
176,120,169641,2,0,B|176:120|176:224,1,90
176,272,170207,2,0,B|176:272|280:272,1,90
328,272,170773,2,0,B|328:272|328:168,1,90
432,144,171339,5,0
432,240,171621,1,4
432,240,171763,1,4
256,192,172187,1,2
80,144,172470,1,0
80,240,172753,1,4
80,240,172895,1,4
256,192,173319,12,2,174734
256,328,175017,5,0
256,240,175300,1,0
256,240,175441,1,0
112,88,175866,5,0
184,128,176149,1,0
256,168,176432,1,2
400,88,176998,5,0
328,128,177281,1,0
256,168,177563,1,2
104,240,178129,6,0,B|104:240|104:336,1,90
184,240,178695,2,0,B|184:240|184:336,1,90
264,240,179261,1,4
344,240,179827,2,2,B|344:240|448:240,2,90
256,152,180676,5,0
256,152,180817,1,0
256,152,180959,2,2,B|256:152|256:112,1,45
256,32,181383,1,4
64,176,181808,5,0
64,240,182091,2,2,B|64:240|128:240,1,45
192,240,182515,1,4
448,176,182940,5,0
448,240,183223,2,2,B|448:240|384:240,1,45
320,240,183647,1,4
168,336,184354,5,0
256,336,184637,1,0
344,336,184920,1,2
72,192,185486,5,0
440,192,186052,1,0
256,192,186618,1,4
72,64,187184,6,0,B|72:64|168:64,1,90
440,64,187750,2,0,B|440:64|344:64,1,90
128,152,188316,2,0,B|128:152|224:152,1,90
384,152,188882,2,0,B|384:152|288:152,1,90
176,248,189447,5,0
72,248,189730,1,4
72,248,189872,1,4
256,320,190296,1,2
336,248,190579,1,0
440,248,190862,1,4
440,248,191004,1,4
256,192,191287,12,2,193975
