osu file format v13

[General]
AudioFilename: .mp3
AudioLeadIn: 0
PreviewTime: -1
Countdown: 0
SampleSet: None
StackLeniency: 0.7
Mode: 1
LetterboxInBreaks: 1
WidescreenStoryboard: 0

[Editor]
Bookmarks: 1635,23454,27817,29862,39815,48541,57268,65995,74719,83447,92174,108538,125992,128173,139078,142351,143442,145624,151078,169078
DistanceSpacing: 1.6
BeatDivisor: 6
GridSize: 4
TimelineZoom: 4.499998

[Metadata]
Title:DenParadigm
TitleUnicode:デンパラダイム
Artist:lumo
ArtistUnicode:lumo
Creator:Miu Matsuoka
Version:Taiko Oni
Source:Hatsune Miku
Tags:project diva arcade future tone
BeatmapID:492076
BeatmapSetID:209069

[Difficulty]
HPDrainRate:5
CircleSize:5
OverallDifficulty:5
ApproachRate:5
SliderMultiplier:1.4
SliderTickRate:1

[Events]
//Background and Video events
//Break Periods
//Storyboard Layer 0 (Background)
//Storyboard Layer 1 (Fail)
//Storyboard Layer 2 (Pass)
//Storyboard Layer 3 (Foreground)
//Storyboard Sound Samples
//Background Colour Transformations
3,100,163,162,255

[TimingPoints]
1635.96868861675,272.727272727273,4,1,0,100,1,0
20181,-50,4,1,0,100,0,0
20317,-100,4,1,0,100,0,0
23454,-100,4,1,0,80,0,0
23590,-101.010101010101,4,1,0,80,0,0
23726,-102.040816326531,4,1,0,80,0,0
23863,-103.092783505155,4,1,0,80,0,0
23999,-104.166666666667,4,1,0,80,0,0
24135,-105.263157894737,4,1,0,80,0,0
24272,-106.382978723404,4,1,0,80,0,0
24340,-107.52688172043,4,1,0,80,0,0
24408,-108.695652173913,4,1,0,80,0,0
24545,-109.89010989011,4,1,0,80,0,0
24681,-111.111111111111,4,1,0,80,0,0
24817,-112.359550561798,4,1,0,80,0,0
24885,-113.636363636364,4,1,0,80,0,0
24954,-114.942528735632,4,1,0,80,0,0
25022,-116.279069767442,4,1,0,80,0,0
25090,-117.647058823529,4,1,0,80,0,0
25226,-119.047619047619,4,1,0,80,0,0
25363,-120.481927710843,4,1,0,80,0,0
25431,-121.951219512195,4,1,0,80,0,0
25499,-123.456790123457,4,1,0,80,0,0
25635,-125,4,1,0,80,0,0
25772,-126.582278481013,4,1,0,80,0,0
25908,-128.205128205128,4,1,0,80,0,0
26045,-129.87012987013,4,1,0,80,0,0
26181,-131.578947368421,4,1,0,80,0,0
26317,-133.333333333333,4,1,0,80,0,0
26454,-135.135135135135,4,1,0,80,0,0
26590,-136.986301369863,4,1,0,80,0,0
26635,-138.888888888889,4,1,0,80,0,0
26681,-140.845070422535,4,1,0,80,0,0
26726,-142.857142857143,4,1,0,80,0,0
26863,-144.927536231884,4,1,0,80,0,0
26931,-147.058823529412,4,1,0,80,0,0
26999,-149.253731343284,4,1,0,80,0,0
27067,-151.515151515152,4,1,0,80,0,0
27135,-153.846153846154,4,1,0,80,0,0
27204,-156.25,4,1,0,80,0,0
27272,-158.730158730159,4,1,0,80,0,0
27340,-161.290322580645,4,1,0,80,0,0
27408,-163.934426229508,4,1,0,80,0,0
27476,-166.666666666667,4,1,0,80,0,0
27545,-169.491525423729,4,1,0,80,0,0
27817,-50,4,1,0,100,0,0
29862,-50,4,1,0,80,0,1
30134,-80,4,1,0,80,0,1
37498,-50,4,1,0,80,0,1
38179,-50,4,1,0,80,0,0
38725,-50,4,1,0,80,0,9
39406,272.727272727273,4,1,0,80,1,8
39678,-100,4,1,0,80,0,1
39815,272.727272727273,4,1,0,80,1,1
39951,-80,4,1,0,80,0,1
47451,-50,4,1,0,80,0,1
48132,272.727272727273,4,1,0,80,1,8
48404,-100,4,1,0,80,0,1
48541,272.727272727273,4,1,0,80,1,1
48677,-80,4,1,0,80,0,1
52631,-50,4,1,0,80,0,1
53041,-100,4,1,0,80,0,1
53722,-50,4,1,0,80,0,1
54131,-100,4,1,0,80,0,1
57268,-100,4,1,0,80,0,0
57541,-200,4,1,0,80,0,0
65995,-50,4,1,0,80,0,0
67495,-200,4,1,0,80,0,8
68176,-100,4,1,0,80,0,0
70357,68.1818181818182,4,1,0,80,1,0
71584,272.727272727273,4,1,0,80,1,8
74720,272.727272727273,4,1,0,80,1,0
100901,-200,4,1,0,80,0,0
108538,2181.81818181818,4,1,0,80,1,0
109083,-100,4,1,0,80,0,0
109628,-102.040816326531,4,1,0,80,0,0
110174,-104.166666666667,4,1,0,80,0,0
110719,-106.382978723404,4,1,0,80,0,0
111265,-108.695652173913,4,1,0,80,0,0
111810,-111.111111111111,4,1,0,80,0,0
112356,-113.636363636364,4,1,0,80,0,0
112901,-116.279069767442,4,1,0,80,0,0
113447,-119.047619047619,4,1,0,80,0,0
113992,-121.951219512195,4,1,0,80,0,0
114538,-125,4,1,0,80,0,0
115083,-128.205128205128,4,1,0,80,0,0
115628,-131.578947368421,4,1,0,80,0,0
116174,-135.135135135135,4,1,0,80,0,0
116719,-138.888888888889,4,1,0,80,0,0
117265,-142.857142857143,4,1,0,80,0,0
117810,-147.058823529412,4,1,0,80,0,0
118356,-151.515151515152,4,1,0,80,0,0
118901,-156.25,4,1,0,80,0,0
119447,-161.290322580645,4,1,0,80,0,0
119992,-166.666666666667,4,1,0,80,0,0
120537,-169.491525423729,4,1,0,80,0,0
121083,-172.413793103448,4,1,0,80,0,0
121628,-175.438596491228,4,1,0,80,0,0
122174,-178.571428571429,4,1,0,80,0,0
122719,-181.818181818182,4,1,0,80,0,0
123265,-185.185185185185,4,1,0,80,0,0
123810,-188.679245283019,4,1,0,80,0,0
124356,-192.307692307692,4,1,0,80,0,0
124901,-196.078431372549,4,1,0,80,0,0
125447,-200,4,1,0,80,0,0
125992,545.454545454546,4,1,0,80,1,0
127628,68.1818181818182,4,1,0,80,1,0
128037,272.727272727273,4,1,0,80,1,0
128173,272.727272727273,4,1,0,80,1,0
129127,-90.9090909090909,4,1,0,80,0,0
130218,-83.3333333333333,4,1,0,80,0,0
131309,-76.9230769230769,4,1,0,80,0,0
133491,-50,4,1,0,80,0,0
134173,68.1818181818182,4,1,0,80,1,0
134445,34.0909090909091,4,1,0,80,1,0
134717,136.363636363636,4,1,0,80,1,0
135398,272.727272727273,4,1,0,80,1,0
136897,272.727272727273,4,1,0,80,1,0
137033,-90.9090909090909,4,1,0,80,0,0
137169,-83.3333333333333,4,1,0,80,0,0
137306,-76.9230769230769,4,1,0,80,0,0
137578,-71.4285714285714,4,1,0,80,0,0
137715,-66.6666666666667,4,1,0,80,0,0
137851,-62.5,4,1,0,80,0,0
138124,-100,4,1,0,80,0,0
139078,-200,4,1,0,80,0,0
142351,-192.307692307692,4,1,0,80,0,0
142442,-185.185185185185,4,1,0,80,0,0
142533,-178.571428571429,4,1,0,80,0,0
142624,-172.413793103448,4,1,0,80,0,0
142715,-166.666666666667,4,1,0,80,0,0
142806,-161.290322580645,4,1,0,80,0,0
142897,-156.25,4,1,0,80,0,0
142965,-151.515151515152,4,1,0,80,0,0
143033,-147.058823529412,4,1,0,80,0,0
143101,-142.857142857143,4,1,0,80,0,0
143169,-138.888888888889,4,1,0,80,0,0
143237,-135.135135135135,4,1,0,80,0,0
143306,-131.578947368421,4,1,0,80,0,0
143374,-128.205128205128,4,1,0,80,0,0
143442,-125,4,1,0,80,0,0
143578,-133.333333333333,4,1,0,80,0,0
143715,-142.857142857143,4,1,0,80,0,0
143851,-153.846153846154,4,1,0,80,0,0
143987,-166.666666666667,4,1,0,80,0,0
144124,-149.253731343284,4,1,0,80,0,0
144192,-135.135135135135,4,1,0,80,0,0
144260,-123.456790123457,4,1,0,80,0,0
144328,-113.636363636364,4,1,0,80,0,0
144397,-105.263157894737,4,1,0,80,0,0
144465,-98.0392156862745,4,1,0,80,0,0
144533,-91.743119266055,4,1,0,80,0,0
144601,-86.2068965517241,4,1,0,80,0,0
144669,-81.3008130081301,4,1,0,80,0,0
144737,-76.9230769230769,4,1,0,80,0,0
144806,-72.992700729927,4,1,0,80,0,0
144874,-69.4444444444444,4,1,0,80,0,0
144942,-63.2911392405063,4,1,0,80,0,0
144942,-66.2251655629139,4,1,0,80,0,0
145010,-60.6060606060606,4,1,0,80,0,0
145078,-58.1395348837209,4,1,0,80,0,0
145147,-55.8659217877095,4,1,0,80,0,0
145215,-53.763440860215,4,1,0,80,0,0
145283,-51.8134715025907,4,1,0,80,0,0
145351,-50,4,1,0,80,0,0
145760,-200,4,1,0,80,0,0
148760,-166.666666666667,4,1,0,80,0,0
149851,-142.857142857143,4,1,0,80,0,0
150124,-125,4,1,0,80,0,0
150669,-111.111111111111,4,1,0,80,0,0
151078,-50,4,1,0,80,0,1
151760,-100,4,1,0,80,0,0
152033,-100,4,1,0,80,0,1
152306,-80,4,1,0,80,0,1
159806,-50,4,1,0,80,0,1
160487,-100,4,1,0,80,0,0
160760,-100,4,1,0,80,0,1
161033,-80,4,1,0,80,0,1
164987,-50,4,1,0,80,0,1
165397,-100,4,1,0,80,0,1
166078,-50,4,1,0,80,0,1
166487,-100,4,1,0,80,0,1
168533,-100,4,1,0,80,0,0
169078,-80,4,1,0,80,0,1
173442,-83.3333333333333,4,1,0,80,0,0
174669,-71.4285714285714,4,1,0,80,0,0
175624,-62.5,4,1,0,80,0,0

[HitObjects]
256,192,545,5,0,0:0:0:0:
256,192,817,1,0,0:0:0:0:
256,192,1090,1,0,0:0:0:0:
256,192,1226,1,0,0:0:0:0:
256,192,1363,1,0,0:0:0:0:
256,192,1499,1,0,0:0:0:0:
256,192,1635,1,0,0:0:0:0:
256,192,1908,1,0,0:0:0:0:
256,192,2045,1,8,0:0:0:0:
256,192,2113,1,8,0:0:0:0:
256,192,2181,1,0,0:0:0:0:
256,192,2317,1,8,0:0:0:0:
256,192,2454,1,8,0:0:0:0:
256,192,2726,1,0,0:0:0:0:
256,192,2795,1,0,0:0:0:0:
256,192,2863,1,8,0:0:0:0:
256,192,2931,1,0,0:0:0:0:
256,192,2999,1,0,0:0:0:0:
256,192,3135,1,8,0:0:0:0:
256,192,3272,1,0,0:0:0:0:
256,192,3408,1,0,0:0:0:0:
256,192,3545,1,8,0:0:0:0:
256,192,3681,1,8,0:0:0:0:
256,192,3817,1,0,0:0:0:0:
256,192,3954,1,8,0:0:0:0:
256,192,4022,1,8,0:0:0:0:
256,192,4090,1,0,0:0:0:0:
256,192,4226,1,8,0:0:0:0:
256,192,4363,1,0,0:0:0:0:
256,192,4499,1,8,0:0:0:0:
256,192,4567,1,8,0:0:0:0:
256,192,4635,1,0,0:0:0:0:
256,192,4772,1,8,0:0:0:0:
256,192,4908,1,0,0:0:0:0:
256,192,5045,1,0,0:0:0:0:
256,192,5181,1,0,0:0:0:0:
256,192,5317,1,0,0:0:0:0:
256,192,5454,1,8,0:0:0:0:
256,192,5522,1,8,0:0:0:0:
256,192,5590,1,0,0:0:0:0:
256,192,5658,1,0,0:0:0:0:
256,192,5726,1,8,0:0:0:0:
256,192,5863,1,0,0:0:0:0:
256,192,5999,1,0,0:0:0:0:
256,192,6135,1,8,0:0:0:0:
256,192,6204,1,8,0:0:0:0:
256,192,6272,1,8,0:0:0:0:
256,192,6545,1,0,0:0:0:0:
256,192,6681,1,8,0:0:0:0:
256,192,6817,1,0,0:0:0:0:
256,192,6885,1,0,0:0:0:0:
256,192,6954,1,8,0:0:0:0:
256,192,7022,1,8,0:0:0:0:
256,192,7090,1,8,0:0:0:0:
256,192,7226,1,0,0:0:0:0:
256,192,7295,1,0,0:0:0:0:
256,192,7363,1,8,0:0:0:0:
256,192,7499,1,0,0:0:0:0:
256,192,7635,1,0,0:0:0:0:
256,192,7772,1,8,0:0:0:0:
256,192,7908,1,0,0:0:0:0:
256,192,7976,1,0,0:0:0:0:
256,192,8045,1,8,0:0:0:0:
256,192,8113,1,8,0:0:0:0:
256,192,8181,1,0,0:0:0:0:
256,192,8317,1,8,0:0:0:0:
256,192,8590,1,0,0:0:0:0:
256,192,8726,1,8,0:0:0:0:
256,192,8999,1,0,0:0:0:0:
256,192,9045,1,0,0:0:0:0:
256,192,9090,1,0,0:0:0:0:
256,192,9135,1,0,0:0:0:0:
256,192,9272,1,0,0:0:0:0:
256,192,9408,1,8,0:0:0:0:
256,192,9545,1,0,0:0:0:0:
256,192,9613,1,8,0:0:0:0:
256,192,9681,1,8,0:0:0:0:
256,192,9749,1,8,0:0:0:0:
256,192,9817,1,0,0:0:0:0:
256,192,9954,1,8,0:0:0:0:
256,192,10090,1,0,0:0:0:0:
256,192,10158,1,0,0:0:0:0:
256,192,10226,1,0,0:0:0:0:
256,192,10295,1,0,0:0:0:0:
256,192,10363,1,0,0:0:0:0:
256,192,10499,1,8,0:0:0:0:
256,192,10635,1,0,0:0:0:0:
256,192,10772,1,8,0:0:0:0:
256,192,10908,1,0,0:0:0:0:
256,192,11045,1,8,0:0:0:0:
256,192,11113,1,8,0:0:0:0:
256,192,11181,1,8,0:0:0:0:
256,192,11317,1,8,0:0:0:0:
256,192,11454,1,0,0:0:0:0:
256,192,11590,1,8,0:0:0:0:
256,192,11726,1,0,0:0:0:0:
256,192,11863,1,8,0:0:0:0:
256,192,11999,1,0,0:0:0:0:
256,192,12135,1,8,0:0:0:0:
256,192,12272,1,8,0:0:0:0:
256,192,12408,1,8,0:0:0:0:
256,192,12545,1,0,0:0:0:0:
256,192,12817,1,8,0:0:0:0:
256,192,13090,1,0,0:0:0:0:
256,192,13227,1,8,0:0:0:0:
256,192,13295,1,8,0:0:0:0:
256,192,13363,1,8,0:0:0:0:
256,192,13499,1,8,0:0:0:0:
256,192,13635,1,4,0:0:0:0:
256,192,13772,1,12,0:0:0:0:
256,192,13908,1,4,0:0:0:0:
256,192,14045,1,12,0:0:0:0:
256,192,14181,1,8,0:0:0:0:
256,192,14317,1,8,0:0:0:0:
256,192,14454,1,8,0:0:0:0:
256,192,14590,1,8,0:0:0:0:
256,192,14726,1,0,0:0:0:0:
256,192,14863,1,0,0:0:0:0:
256,192,14931,1,0,0:0:0:0:
256,192,14999,1,8,0:0:0:0:
256,192,15135,1,8,0:0:0:0:
256,192,15204,1,8,0:0:0:0:
256,192,15272,1,0,0:0:0:0:
256,192,15408,1,0,0:0:0:0:
256,192,15545,1,8,0:0:0:0:
256,192,15681,1,0,0:0:0:0:
256,192,15817,1,8,0:0:0:0:
256,192,15885,1,8,0:0:0:0:
256,192,15954,1,0,0:0:0:0:
256,192,16022,1,0,0:0:0:0:
256,192,16090,1,8,0:0:0:0:
256,192,16158,1,8,0:0:0:0:
256,192,16226,1,0,0:0:0:0:
256,192,16295,1,0,0:0:0:0:
256,192,16363,1,8,0:0:0:0:
256,192,16499,1,0,0:0:0:0:
256,192,16635,1,8,0:0:0:0:
256,192,16704,1,8,0:0:0:0:
256,192,16772,1,0,0:0:0:0:
256,192,16840,1,0,0:0:0:0:
256,192,16908,1,0,0:0:0:0:
256,192,17045,1,0,0:0:0:0:
256,192,17113,1,8,0:0:0:0:
256,192,17181,1,0,0:0:0:0:
256,192,17317,1,8,0:0:0:0:
256,192,17454,1,0,0:0:0:0:
256,192,17590,1,0,0:0:0:0:
256,192,17658,1,8,0:0:0:0:
256,192,17726,1,0,0:0:0:0:
256,192,17863,1,8,0:0:0:0:
256,192,17999,1,0,0:0:0:0:
256,192,18135,1,8,0:0:0:0:
256,192,18204,1,0,0:0:0:0:
256,192,18272,1,8,0:0:0:0:
256,192,18408,1,0,0:0:0:0:
256,192,18545,1,0,0:0:0:0:
256,192,18681,1,8,0:0:0:0:
256,192,18749,1,8,0:0:0:0:
256,192,18817,1,8,0:0:0:0:
256,192,18954,1,0,0:0:0:0:
256,192,19090,1,8,0:0:0:0:
256,192,19158,1,8,0:0:0:0:
256,192,19226,1,0,0:0:0:0:
256,192,19363,1,8,0:0:0:0:
256,192,19431,1,8,0:0:0:0:
256,192,19499,1,0,0:0:0:0:
256,192,19635,1,8,0:0:0:0:
256,192,19704,1,8,0:0:0:0:
256,192,19772,1,8,0:0:0:0:
256,192,19840,1,8,0:0:0:0:
256,192,19908,1,0,0:0:0:0:
256,192,19976,1,0,0:0:0:0:
256,192,20045,1,0,0:0:0:0:
256,192,20113,1,0,0:0:0:0:
256,192,20181,2,0,L|336:192,1,70
256,192,20317,1,0,0:0:0:0:
256,192,20385,1,0,0:0:0:0:
256,192,20454,1,8,0:0:0:0:
256,192,20590,1,0,0:0:0:0:
256,192,20658,1,0,0:0:0:0:
256,192,20726,1,0,0:0:0:0:
256,192,20863,1,8,0:0:0:0:
256,192,20999,1,0,0:0:0:0:
256,192,21067,1,0,0:0:0:0:
256,192,21135,1,8,0:0:0:0:
256,192,21272,1,8,0:0:0:0:
256,192,21408,1,0,0:0:0:0:
256,192,21545,1,8,0:0:0:0:
256,192,21681,1,0,0:0:0:0:
256,192,21817,1,8,0:0:0:0:
256,192,21954,1,8,0:0:0:0:
256,192,22022,1,8,0:0:0:0:
256,192,22090,1,0,0:0:0:0:
256,192,22226,1,8,0:0:0:0:
256,192,22295,1,8,0:0:0:0:
256,192,22363,1,0,0:0:0:0:
256,192,22499,1,8,0:0:0:0:
256,192,22635,1,0,0:0:0:0:
256,192,22772,1,8,0:0:0:0:
256,192,22908,1,8,0:0:0:0:
256,192,22976,1,8,0:0:0:0:
256,192,23113,1,8,0:0:0:0:
256,192,23181,1,8,0:0:0:0:
256,192,23317,1,8,0:0:0:0:
256,192,23454,1,0,0:0:0:0:
256,192,23590,1,0,0:0:0:0:
256,192,23726,1,8,0:0:0:0:
256,192,23863,1,0,0:0:0:0:
256,192,23999,1,0,0:0:0:0:
256,192,24135,1,8,0:0:0:0:
256,192,24272,1,0,0:0:0:0:
256,192,24340,1,0,0:0:0:0:
256,192,24408,1,8,0:0:0:0:
256,192,24545,1,0,0:0:0:0:
256,192,24681,1,0,0:0:0:0:
256,192,24817,1,8,0:0:0:0:
256,192,24885,1,0,0:0:0:0:
256,192,24954,1,0,0:0:0:0:
256,192,25022,1,0,0:0:0:0:
256,192,25090,1,0,0:0:0:0:
256,192,25226,1,8,0:0:0:0:
256,192,25363,1,0,0:0:0:0:
256,192,25431,1,0,0:0:0:0:
256,192,25499,1,8,0:0:0:0:
256,192,25635,1,0,0:0:0:0:
256,192,25772,1,8,0:0:0:0:
256,192,25908,1,0,0:0:0:0:
256,192,26045,1,8,0:0:0:0:
256,192,26181,1,0,0:0:0:0:
256,192,26317,1,8,0:0:0:0:
256,192,26454,1,0,0:0:0:0:
256,192,26590,1,8,0:0:0:0:
256,192,26635,1,8,0:0:0:0:
256,192,26681,1,8,0:0:0:0:
256,192,26726,1,0,0:0:0:0:
256,192,26863,1,8,0:0:0:0:
256,192,26931,1,8,0:0:0:0:
256,192,26999,1,0,0:0:0:0:
256,192,27067,1,0,0:0:0:0:
256,192,27135,1,0,0:0:0:0:
256,192,27204,1,0,0:0:0:0:
256,192,27272,1,8,0:0:0:0:
256,192,27340,1,8,0:0:0:0:
256,192,27408,1,0,0:0:0:0:
256,192,27476,1,0,0:0:0:0:
256,192,27545,1,8,0:0:0:0:
256,192,27817,1,4,0:0:0:0:
256,192,27953,1,12,0:0:0:0:
256,192,28089,1,4,0:0:0:0:
256,192,28225,1,12,0:0:0:0:
256,192,28498,1,4,0:0:0:0:
256,192,28771,1,12,0:0:0:0:
256,192,29044,1,4,0:0:0:0:
256,192,29308,1,12,0:0:0:0:
256,192,29589,1,4,0:0:0:0:
256,192,29726,1,8,0:0:0:0:
256,192,29862,1,4,0:0:0:0:
256,192,30134,1,0,0:0:0:0:
256,192,30270,1,12,0:0:0:0:
256,192,30407,1,0,0:0:0:0:
256,192,30475,1,0,0:0:0:0:
256,192,30543,1,0,0:0:0:0:
256,192,30679,1,0,0:0:0:0:
256,192,30816,1,8,0:0:0:0:
256,192,30952,1,8,0:0:0:0:
256,192,31088,1,0,0:0:0:0:
256,192,31225,1,0,0:0:0:0:
256,192,31293,1,0,0:0:0:0:
256,192,31361,1,8,0:0:0:0:
256,192,31498,1,0,0:0:0:0:
256,192,31634,1,0,0:0:0:0:
256,192,31702,1,8,0:0:0:0:
256,192,31770,1,8,0:0:0:0:
256,192,31838,1,8,0:0:0:0:
256,192,31907,1,0,0:0:0:0:
256,192,31975,1,8,0:0:0:0:
256,192,32043,1,8,0:0:0:0:
256,192,32111,1,8,0:0:0:0:
256,192,32179,1,0,0:0:0:0:
256,192,32316,1,0,0:0:0:0:
256,192,32384,1,0,0:0:0:0:
256,192,32452,1,8,0:0:0:0:
256,192,32588,1,0,0:0:0:0:
256,192,32725,1,0,0:0:0:0:
256,192,32861,1,0,0:0:0:0:
256,192,32998,1,8,0:0:0:0:
256,192,33134,1,0,0:0:0:0:
256,192,33407,1,0,0:0:0:0:
256,192,33475,1,0,0:0:0:0:
256,192,33543,1,8,0:0:0:0:
256,192,33679,1,0,0:0:0:0:
256,192,33816,1,8,0:0:0:0:
256,192,33884,1,8,0:0:0:0:
256,192,33952,1,0,0:0:0:0:
256,192,34020,1,0,0:0:0:0:
256,192,34088,1,8,0:0:0:0:
256,192,34225,1,4,0:0:0:0:
256,192,34498,1,8,0:0:0:0:
256,192,34634,1,0,0:0:0:0:
256,192,34702,1,8,0:0:0:0:
256,192,34770,1,0,0:0:0:0:
256,192,34838,1,0,0:0:0:0:
256,192,34907,1,8,0:0:0:0:
256,192,35043,1,0,0:0:0:0:
256,192,35179,1,0,0:0:0:0:
256,192,35316,1,12,0:0:0:0:
256,192,35589,1,8,0:0:0:0:
256,192,35725,1,0,0:0:0:0:
256,192,35793,1,8,0:0:0:0:
256,192,35861,1,8,0:0:0:0:
256,192,35929,1,0,0:0:0:0:
256,192,35998,1,8,0:0:0:0:
256,192,36134,1,0,0:0:0:0:
256,192,36270,1,0,0:0:0:0:
256,192,36407,1,12,0:0:0:0:
256,192,36679,1,0,0:0:0:0:
256,192,36748,1,0,0:0:0:0:
256,192,36816,1,8,0:0:0:0:
256,192,36884,1,8,0:0:0:0:
256,192,36952,1,0,0:0:0:0:
256,192,37020,1,0,0:0:0:0:
256,192,37088,1,8,0:0:0:0:
256,192,37157,1,8,0:0:0:0:
256,192,37225,1,0,0:0:0:0:
256,192,37293,1,8,0:0:0:0:
256,192,37361,1,8,0:0:0:0:
256,192,37498,1,4,0:0:0:0:
256,192,37770,1,12,0:0:0:0:
256,192,37907,1,4,0:0:0:0:
256,192,38179,1,12,0:0:0:0:
256,192,38725,1,4,0:0:0:0:
256,192,38861,1,4,0:0:0:0:
256,192,38997,1,4,0:0:0:0:
256,192,39133,1,4,0:0:0:0:
256,192,39270,1,4,0:0:0:0:
256,192,39406,1,0,0:0:0:0:
256,192,39474,1,0,0:0:0:0:
256,192,39542,1,8,0:0:0:0:
256,192,39678,1,4,0:0:0:0:
256,192,39951,1,0,0:0:0:0:
256,192,40087,1,8,0:0:0:0:
256,192,40224,1,0,0:0:0:0:
256,192,40292,1,0,0:0:0:0:
256,192,40360,1,8,0:0:0:0:
256,192,40496,1,0,0:0:0:0:
256,192,40633,1,8,0:0:0:0:
256,192,40769,1,4,0:0:0:0:
256,192,41042,1,0,0:0:0:0:
256,192,41110,1,0,0:0:0:0:
256,192,41178,1,8,0:0:0:0:
256,192,41315,1,0,0:0:0:0:
256,192,41451,1,8,0:0:0:0:
256,192,41587,1,0,0:0:0:0:
256,192,41724,1,0,0:0:0:0:
256,192,41860,1,8,0:0:0:0:
256,192,41928,1,8,0:0:0:0:
256,192,41996,1,0,0:0:0:0:
256,192,42133,1,0,0:0:0:0:
256,192,42269,1,8,0:0:0:0:
256,192,42405,1,8,0:0:0:0:
256,192,42542,1,0,0:0:0:0:
256,192,42678,1,0,0:0:0:0:
256,192,42815,1,8,0:0:0:0:
256,192,42883,1,8,0:0:0:0:
256,192,42951,1,0,0:0:0:0:
256,192,43019,1,0,0:0:0:0:
256,192,43087,1,0,0:0:0:0:
256,192,43360,1,0,0:0:0:0:
256,192,43633,1,0,0:0:0:0:
256,192,43701,1,8,0:0:0:0:
256,192,43769,1,8,0:0:0:0:
256,192,43837,1,8,0:0:0:0:
256,192,43905,1,8,0:0:0:0:
256,192,43974,1,8,0:0:0:0:
256,192,44042,1,0,0:0:0:0:
256,192,44315,1,0,0:0:0:0:
256,192,44383,1,0,0:0:0:0:
256,192,44451,1,8,0:0:0:0:
256,192,44587,1,0,0:0:0:0:
256,192,44724,1,0,0:0:0:0:
256,192,44792,1,8,0:0:0:0:
256,192,44928,1,8,0:0:0:0:
256,192,44996,1,0,0:0:0:0:
256,192,45133,1,8,0:0:0:0:
256,192,45269,1,0,0:0:0:0:
256,192,45542,1,0,0:0:0:0:
256,192,45815,1,0,0:0:0:0:
256,192,45883,1,8,0:0:0:0:
256,192,45951,1,8,0:0:0:0:
256,192,46019,1,8,0:0:0:0:
256,192,46087,1,8,0:0:0:0:
256,192,46156,1,8,0:0:0:0:
256,192,46224,1,0,0:0:0:0:
256,192,46497,1,0,0:0:0:0:
256,192,46565,1,0,0:0:0:0:
256,192,46633,1,8,0:0:0:0:
256,192,46769,1,0,0:0:0:0:
256,192,46906,1,8,0:0:0:0:
256,192,46974,1,0,0:0:0:0:
256,192,47110,1,0,0:0:0:0:
256,192,47178,1,8,0:0:0:0:
256,192,47315,1,8,0:0:0:0:
256,192,47451,1,12,0:0:0:0:
256,192,47587,1,12,0:0:0:0:
256,192,47723,1,12,0:0:0:0:
256,192,47860,1,12,0:0:0:0:
256,192,47996,1,12,0:0:0:0:
256,192,48132,1,0,0:0:0:0:
256,192,48200,1,0,0:0:0:0:
256,192,48268,1,8,0:0:0:0:
256,192,48404,1,4,0:0:0:0:
256,192,48677,1,0,0:0:0:0:
256,192,48813,1,8,0:0:0:0:
256,192,48950,1,0,0:0:0:0:
256,192,49018,1,0,0:0:0:0:
256,192,49086,1,8,0:0:0:0:
256,192,49222,1,0,0:0:0:0:
256,192,49359,1,0,0:0:0:0:
256,192,49495,1,8,0:0:0:0:
256,192,49768,1,0,0:0:0:0:
256,192,49836,1,0,0:0:0:0:
256,192,49904,1,8,0:0:0:0:
256,192,50041,1,0,0:0:0:0:
256,192,50177,1,0,0:0:0:0:
256,192,50313,1,8,0:0:0:0:
256,192,50381,1,8,0:0:0:0:
256,192,50450,1,0,0:0:0:0:
256,192,50586,1,8,0:0:0:0:
256,192,50859,1,0,0:0:0:0:
256,192,50927,1,0,0:0:0:0:
256,192,50995,1,8,0:0:0:0:
256,192,51131,1,0,0:0:0:0:
256,192,51268,1,8,0:0:0:0:
256,192,51336,1,8,0:0:0:0:
256,192,51404,1,8,0:0:0:0:
256,192,51472,1,0,0:0:0:0:
256,192,51541,1,8,0:0:0:0:
256,192,51609,1,8,0:0:0:0:
256,192,51677,1,8,0:0:0:0:
256,192,51745,1,0,0:0:0:0:
256,192,51813,1,8,0:0:0:0:
256,192,51950,1,0,0:0:0:0:
256,192,52086,1,0,0:0:0:0:
256,192,52222,1,8,0:0:0:0:
256,192,52495,1,8,0:0:0:0:
256,192,52631,1,0,0:0:0:0:
256,192,52700,1,0,0:0:0:0:
256,192,52768,1,0,0:0:0:0:
256,192,52836,1,0,0:0:0:0:
256,192,52904,1,8,0:0:0:0:
256,192,53041,1,0,0:0:0:0:
256,192,53177,1,0,0:0:0:0:
256,192,53313,1,8,0:0:0:0:
256,192,53586,1,8,0:0:0:0:
256,192,53722,1,0,0:0:0:0:
256,192,53813,1,0,0:0:0:0:
256,192,53904,1,0,0:0:0:0:
256,192,53995,1,8,0:0:0:0:
256,192,54131,1,8,0:0:0:0:
256,192,54268,1,0,0:0:0:0:
256,192,54404,1,8,0:0:0:0:
256,192,54541,1,8,0:0:0:0:
256,192,54677,1,0,0:0:0:0:
256,192,54813,1,8,0:0:0:0:
256,192,54950,1,8,0:0:0:0:
256,192,55086,1,0,0:0:0:0:
256,192,55222,1,8,0:0:0:0:
256,192,55359,1,8,0:0:0:0:
256,192,55495,1,0,0:0:0:0:
256,192,55768,1,8,0:0:0:0:
256,192,56041,1,8,0:0:0:0:
256,192,56177,1,0,0:0:0:0:
256,192,56245,1,0,0:0:0:0:
256,192,56313,1,0,0:0:0:0:
256,192,56381,1,0,0:0:0:0:
256,192,56450,1,8,0:0:0:0:
256,192,56518,1,8,0:0:0:0:
256,192,56586,1,8,0:0:0:0:
256,192,56654,1,8,0:0:0:0:
256,192,56722,1,0,0:0:0:0:
256,192,56768,1,8,0:0:0:0:
256,192,56813,1,8,0:0:0:0:
256,192,56859,1,0,0:0:0:0:
256,192,56904,1,8,0:0:0:0:
256,192,56950,1,8,0:0:0:0:
256,192,56995,1,0,0:0:0:0:
256,192,57041,1,8,0:0:0:0:
256,192,57086,1,8,0:0:0:0:
256,192,57132,1,0,0:0:0:0:
256,192,57177,1,8,0:0:0:0:
256,192,57223,1,8,0:0:0:0:
256,192,57268,1,0,0:0:0:0:
256,192,57541,1,0,0:0:0:0:
256,192,57813,1,8,0:0:0:0:
256,192,58086,1,0,0:0:0:0:
256,192,58222,1,0,0:0:0:0:
256,192,58495,1,0,0:0:0:0:
256,192,58768,1,0,0:0:0:0:
256,192,58904,1,8,0:0:0:0:
256,192,59041,1,0,0:0:0:0:
256,192,59313,1,0,0:0:0:0:
256,192,59450,1,0,0:0:0:0:
256,192,59722,1,0,0:0:0:0:
256,192,59995,1,8,0:0:0:0:
256,192,60131,1,0,0:0:0:0:
256,192,60268,1,0,0:0:0:0:
256,192,60404,1,8,0:0:0:0:
256,192,60541,1,0,0:0:0:0:
256,192,60677,1,8,0:0:0:0:
256,192,60950,1,0,0:0:0:0:
256,192,61086,1,8,0:0:0:0:
256,192,61222,1,0,0:0:0:0:
256,192,61359,1,8,0:0:0:0:
256,192,61631,1,0,0:0:0:0:
256,192,61700,1,0,0:0:0:0:
256,192,61768,1,8,0:0:0:0:
256,192,61836,1,8,0:0:0:0:
256,192,61904,1,0,0:0:0:0:
256,192,62041,1,8,0:0:0:0:
256,192,62177,1,0,0:0:0:0:
256,192,62245,1,0,0:0:0:0:
256,192,62313,1,8,0:0:0:0:
256,192,62381,1,8,0:0:0:0:
256,192,62450,1,0,0:0:0:0:
256,192,62518,1,0,0:0:0:0:
256,192,62586,1,8,0:0:0:0:
256,192,62722,1,0,0:0:0:0:
256,192,62859,1,8,0:0:0:0:
256,192,62995,1,0,0:0:0:0:
256,192,63131,1,0,0:0:0:0:
256,192,63268,1,8,0:0:0:0:
256,192,63541,1,0,0:0:0:0:
256,192,63813,1,8,0:0:0:0:
256,192,63904,1,8,0:0:0:0:
256,192,63995,1,8,0:0:0:0:
256,192,64086,1,0,0:0:0:0:
256,192,64222,1,0,0:0:0:0:
256,192,64359,1,8,0:0:0:0:
256,192,64450,1,8,0:0:0:0:
256,192,64541,1,8,0:0:0:0:
256,192,64631,1,0,0:0:0:0:
256,192,64768,1,0,0:0:0:0:
256,192,64904,1,8,0:0:0:0:
256,192,65041,1,8,0:0:0:0:
256,192,65177,1,0,0:0:0:0:
256,192,65313,1,0,0:0:0:0:
256,192,65450,1,8,0:0:0:0:
256,192,65518,1,8,0:0:0:0:
256,192,65586,1,0,0:0:0:0:
256,192,65654,1,0,0:0:0:0:
256,192,65722,1,8,0:0:0:0:
256,192,65791,1,8,0:0:0:0:
256,192,65859,1,0,0:0:0:0:
256,192,65995,1,4,0:0:0:0:
256,192,67085,1,0,0:0:0:0:
256,192,67495,1,0,0:0:0:0:
256,192,67631,1,8,0:0:0:0:
256,192,67767,1,0,0:0:0:0:
256,192,67904,1,0,0:0:0:0:
256,192,68040,1,8,0:0:0:0:
256,192,68176,1,0,0:0:0:0:
256,192,68244,1,8,0:0:0:0:
256,192,68312,1,0,0:0:0:0:
256,192,68380,1,8,0:0:0:0:
256,192,68448,1,0,0:0:0:0:
256,192,68516,1,8,0:0:0:0:
256,192,68585,1,0,0:0:0:0:
256,192,68653,1,8,0:0:0:0:
256,192,68721,1,0,0:0:0:0:
256,192,68857,1,0,0:0:0:0:
256,192,68994,1,8,0:0:0:0:
256,192,69130,1,8,0:0:0:0:
256,192,69266,1,8,0:0:0:0:
256,192,69404,1,0,0:0:0:0:
256,192,69541,1,8,0:0:0:0:
256,192,69609,1,8,0:0:0:0:
256,192,69677,1,0,0:0:0:0:
256,192,69813,1,8,0:0:0:0:
256,192,69881,1,8,0:0:0:0:
256,192,69950,1,0,0:0:0:0:
256,192,70018,1,0,0:0:0:0:
256,192,70086,1,8,0:0:0:0:
256,192,70359,1,4,0:0:0:0:
256,192,70597,1,4,0:0:0:0:
256,192,70768,1,4,0:0:0:0:
256,192,70972,1,4,0:0:0:0:
256,192,71143,1,4,0:0:0:0:
256,192,71313,1,4,0:0:0:0:
256,192,71450,1,4,0:0:0:0:
256,192,71584,1,0,0:0:0:0:
256,192,71652,1,0,0:0:0:0:
256,192,71720,1,8,0:0:0:0:
256,192,71856,1,0,0:0:0:0:
256,192,71924,1,0,0:0:0:0:
256,192,71993,1,8,0:0:0:0:
256,192,72129,1,0,0:0:0:0:
256,192,72197,1,0,0:0:0:0:
256,192,72265,1,8,0:0:0:0:
256,192,72334,1,0,0:0:0:0:
256,192,72402,1,0,0:0:0:0:
256,192,72470,1,8,0:0:0:0:
256,192,72538,1,8,0:0:0:0:
256,192,72674,1,0,0:0:0:0:
256,192,72742,1,0,0:0:0:0:
256,192,72810,1,8,0:0:0:0:
256,192,72947,1,8,0:0:0:0:
256,192,73015,1,0,0:0:0:0:
256,192,73083,1,0,0:0:0:0:
256,192,73151,1,0,0:0:0:0:
256,192,73219,1,8,0:0:0:0:
256,192,73356,1,8,0:0:0:0:
256,192,73492,1,0,0:0:0:0:
256,192,73628,1,8,0:0:0:0:
256,192,73765,1,8,0:0:0:0:
256,192,73901,1,0,0:0:0:0:
256,192,74038,1,8,0:0:0:0:
256,192,74174,1,8,0:0:0:0:
256,192,74356,1,8,0:0:0:0:
256,192,74447,1,0,0:0:0:0:
256,192,74515,1,0,0:0:0:0:
256,192,74583,1,0,0:0:0:0:
256,192,74651,1,0,0:0:0:0:
256,192,74719,1,0,0:0:0:0:
256,192,75265,2,0,L|400:192,1,140
256,192,75810,1,0,0:0:0:0:
256,192,76219,1,0,0:0:0:0:
256,192,76288,1,0,0:0:0:0:
256,192,76339,1,0,0:0:0:0:
256,192,76407,1,0,0:0:0:0:
256,192,76458,1,0,0:0:0:0:
256,192,76583,1,0,0:0:0:0:
256,192,76680,1,0,0:0:0:0:
256,192,76748,1,0,0:0:0:0:
256,192,76816,1,0,0:0:0:0:
256,192,76884,1,0,0:0:0:0:
256,192,77140,5,0,0:0:0:0:
256,192,77310,1,0,0:0:0:0:
256,192,77413,1,8,0:0:0:0:
256,192,77515,1,0,0:0:0:0:
256,192,77600,1,0,0:0:0:0:
256,192,77719,1,0,0:0:0:0:
256,192,77907,1,0,0:0:0:0:
256,192,77992,1,0,0:0:0:0:
256,192,78145,1,0,0:0:0:0:
256,192,78248,1,8,0:0:0:0:
256,192,78469,1,0,0:0:0:0:
256,192,78555,1,0,0:0:0:0:
256,192,78606,1,0,0:0:0:0:
256,192,78657,1,0,0:0:0:0:
256,192,78810,1,8,0:0:0:0:
256,192,78878,1,0,0:0:0:0:
256,192,78947,1,0,0:0:0:0:
256,192,79015,1,0,0:0:0:0:
256,192,79083,1,0,0:0:0:0:
256,192,79492,1,0,0:0:0:0:
256,192,79628,1,8,0:0:0:0:
256,192,79674,1,8,0:0:0:0:
256,192,79719,1,8,0:0:0:0:
256,192,79765,1,0,0:0:0:0:
256,192,79810,1,0,0:0:0:0:
256,192,79856,1,0,0:0:0:0:
256,192,79901,1,0,0:0:0:0:
256,192,80174,2,0,L|492:192|368:192,1,350,0|0,0:0|0:0,0:0:0:0:
256,192,81128,1,0,0:0:0:0:
256,192,81197,1,0,0:0:0:0:
256,192,81265,1,8,0:0:0:0:
256,192,81356,1,0,0:0:0:0:
256,192,81447,1,0,0:0:0:0:
256,192,81538,1,8,0:0:0:0:
256,192,81674,1,0,0:0:0:0:
256,192,81810,1,8,0:0:0:0:
256,192,81878,1,0,0:0:0:0:
256,192,81947,1,0,0:0:0:0:
256,192,82015,1,8,0:0:0:0:
256,192,82083,1,8,0:0:0:0:
256,192,82219,1,0,0:0:0:0:
256,192,82356,1,0,0:0:0:0:
256,192,82424,1,8,0:0:0:0:
256,192,82492,1,8,0:0:0:0:
256,192,82560,1,8,0:0:0:0:
256,192,82628,1,0,0:0:0:0:
256,192,82697,1,8,0:0:0:0:
256,192,82765,1,8,0:0:0:0:
256,192,82833,1,8,0:0:0:0:
256,192,82901,1,0,0:0:0:0:
256,192,82969,1,0,0:0:0:0:
256,192,83038,1,8,0:0:0:0:
256,192,83106,1,8,0:0:0:0:
256,192,83174,1,0,0:0:0:0:
256,192,83242,1,8,0:0:0:0:
256,192,83310,1,0,0:0:0:0:
256,192,83378,1,8,0:0:0:0:
256,192,83447,1,0,0:0:0:0:
256,192,83583,1,0,0:0:0:0:
256,192,83719,1,8,0:0:0:0:
256,192,83856,1,0,0:0:0:0:
256,192,83924,1,0,0:0:0:0:
256,192,83992,1,0,0:0:0:0:
256,192,84128,1,0,0:0:0:0:
256,192,84265,1,8,0:0:0:0:
256,192,84401,1,0,0:0:0:0:
256,192,84674,1,8,0:0:0:0:
256,192,84742,1,8,0:0:0:0:
256,192,84810,1,8,0:0:0:0:
256,192,84947,1,8,0:0:0:0:
256,192,85083,1,0,0:0:0:0:
256,192,85219,1,0,0:0:0:0:
256,192,85288,1,0,0:0:0:0:
256,192,85356,1,8,0:0:0:0:
256,192,85492,1,0,0:0:0:0:
256,192,85765,1,0,0:0:0:0:
256,192,85833,1,0,0:0:0:0:
256,192,85901,1,8,0:0:0:0:
256,192,86038,1,8,0:0:0:0:
256,192,86174,1,0,0:0:0:0:
256,192,86310,1,8,0:0:0:0:
256,192,86378,1,8,0:0:0:0:
256,192,86447,1,0,0:0:0:0:
256,192,86583,1,0,0:0:0:0:
256,192,86856,1,0,0:0:0:0:
256,192,86924,1,0,0:0:0:0:
256,192,86992,1,8,0:0:0:0:
256,192,87083,1,8,0:0:0:0:
256,192,87174,1,8,0:0:0:0:
256,192,87265,1,0,0:0:0:0:
256,192,87401,1,0,0:0:0:0:
256,192,87538,1,8,0:0:0:0:
256,192,87606,1,8,0:0:0:0:
256,192,87674,1,8,0:0:0:0:
256,192,87742,1,8,0:0:0:0:
256,192,87810,1,0,0:0:0:0:
256,192,87947,1,0,0:0:0:0:
256,192,88083,1,8,0:0:0:0:
256,192,88219,1,0,0:0:0:0:
256,192,88288,1,0,0:0:0:0:
256,192,88356,1,0,0:0:0:0:
256,192,88492,1,0,0:0:0:0:
256,192,88628,1,8,0:0:0:0:
256,192,88765,1,0,0:0:0:0:
256,192,89038,1,0,0:0:0:0:
256,192,89174,1,12,0:0:0:0:
256,192,89310,1,0,0:0:0:0:
256,192,89583,1,0,0:0:0:0:
256,192,89719,1,12,0:0:0:0:
256,192,89856,1,0,0:0:0:0:
256,192,89992,1,0,0:0:0:0:
256,192,90265,1,8,0:0:0:0:
256,192,90469,1,0,0:0:0:0:
256,192,90538,1,0,0:0:0:0:
256,192,90674,1,0,0:0:0:0:
256,192,90810,1,0,0:0:0:0:
256,192,90947,1,8,0:0:0:0:
256,192,91220,1,8,0:0:0:0:
256,192,91356,1,0,0:0:0:0:
256,192,91424,1,0,0:0:0:0:
256,192,91492,1,8,0:0:0:0:
256,192,91629,1,0,0:0:0:0:
256,192,91765,1,8,0:0:0:0:
256,192,91901,1,0,0:0:0:0:
256,192,91970,1,0,0:0:0:0:
256,192,92038,1,8,0:0:0:0:
256,192,92106,1,8,0:0:0:0:
256,192,92174,1,0,0:0:0:0:
256,192,92310,1,0,0:0:0:0:
256,192,92447,1,8,0:0:0:0:
256,192,92583,1,0,0:0:0:0:
256,192,92651,1,0,0:0:0:0:
256,192,92720,1,0,0:0:0:0:
256,192,92856,1,0,0:0:0:0:
256,192,92992,1,8,0:0:0:0:
256,192,93060,1,8,0:0:0:0:
256,192,93129,1,0,0:0:0:0:
256,192,93265,1,0,0:0:0:0:
256,192,93333,1,0,0:0:0:0:
256,192,93470,1,0,0:0:0:0:
256,192,93538,1,8,0:0:0:0:
256,192,93674,1,8,0:0:0:0:
256,192,93742,1,8,0:0:0:0:
256,192,93810,1,0,0:0:0:0:
256,192,93879,1,8,0:0:0:0:
256,192,94015,1,0,0:0:0:0:
256,192,94083,1,8,0:0:0:0:
256,192,94220,1,8,0:0:0:0:
256,192,94356,1,0,0:0:0:0:
256,192,94492,1,0,0:0:0:0:
256,192,94629,1,0,0:0:0:0:
256,192,94697,1,8,0:0:0:0:
256,192,94833,1,0,0:0:0:0:
256,192,94901,1,8,0:0:0:0:
256,192,94970,1,0,0:0:0:0:
256,192,95038,1,8,0:0:0:0:
256,192,95174,1,0,0:0:0:0:
256,192,95310,1,8,0:0:0:0:
256,192,95379,1,0,0:0:0:0:
256,192,95447,1,0,0:0:0:0:
256,192,95583,1,8,0:0:0:0:
256,192,95720,1,0,0:0:0:0:
256,192,95788,1,0,0:0:0:0:
256,192,95856,1,8,0:0:0:0:
256,192,95992,1,0,0:0:0:0:
256,192,96060,1,0,0:0:0:0:
256,192,96129,1,8,0:0:0:0:
256,192,96197,1,0,0:0:0:0:
256,192,96265,1,8,0:0:0:0:
256,192,96333,1,0,0:0:0:0:
256,192,96401,1,8,0:0:0:0:
256,192,96470,1,8,0:0:0:0:
256,192,96538,1,0,0:0:0:0:
256,192,96674,1,8,0:0:0:0:
256,192,96810,1,0,0:0:0:0:
256,192,96947,1,8,0:0:0:0:
256,192,97083,1,0,0:0:0:0:
256,192,97220,1,8,0:0:0:0:
256,192,97356,1,0,0:0:0:0:
256,192,97492,1,8,0:0:0:0:
256,192,97629,1,0,0:0:0:0:
256,192,97765,1,8,0:0:0:0:
256,192,97833,1,8,0:0:0:0:
256,192,97901,1,0,0:0:0:0:
256,192,98038,1,8,0:0:0:0:
256,192,98174,1,0,0:0:0:0:
256,192,98310,1,8,0:0:0:0:
256,192,98379,1,8,0:0:0:0:
256,192,98447,1,0,0:0:0:0:
256,192,98583,1,8,0:0:0:0:
256,192,98720,1,0,0:0:0:0:
256,192,98788,1,0,0:0:0:0:
256,192,98856,1,8,0:0:0:0:
256,192,98924,1,8,0:0:0:0:
256,192,98992,1,0,0:0:0:0:
256,192,99129,1,8,0:0:0:0:
256,192,99265,1,0,0:0:0:0:
256,192,99333,1,8,0:0:0:0:
256,192,99401,1,0,0:0:0:0:
256,192,99470,1,0,0:0:0:0:
256,192,99538,1,8,0:0:0:0:
256,192,99674,1,8,0:0:0:0:
256,192,99810,1,0,0:0:0:0:
256,192,99879,1,0,0:0:0:0:
256,192,99947,1,8,0:0:0:0:
256,192,100015,1,0,0:0:0:0:
256,192,100083,1,0,0:0:0:0:
256,192,100151,1,0,0:0:0:0:
256,192,100220,1,8,0:0:0:0:
256,192,100288,1,8,0:0:0:0:
256,192,100356,1,0,0:0:0:0:
256,192,100424,1,0,0:0:0:0:
256,192,100492,1,8,0:0:0:0:
256,192,100629,1,0,0:0:0:0:
256,192,100697,1,0,0:0:0:0:
256,192,100765,1,0,0:0:0:0:
256,192,100901,5,0,0:0:0:0:
256,192,101038,1,0,0:0:0:0:
256,192,101174,1,8,0:0:0:0:
256,192,101310,1,0,0:0:0:0:
256,192,101447,1,0,0:0:0:0:
256,192,101583,1,8,0:0:0:0:
256,192,101720,1,8,0:0:0:0:
256,192,101856,1,0,0:0:0:0:
256,192,102128,1,0,0:0:0:0:
256,192,102265,1,8,0:0:0:0:
256,192,102401,1,0,0:0:0:0:
256,192,102538,1,8,0:0:0:0:
256,192,102674,1,0,0:0:0:0:
256,192,102810,1,8,0:0:0:0:
256,192,102947,1,0,0:0:0:0:
256,192,103219,1,0,0:0:0:0:
256,192,103356,1,8,0:0:0:0:
256,192,103492,1,8,0:0:0:0:
256,192,103628,1,0,0:0:0:0:
256,192,103765,1,8,0:0:0:0:
256,192,103901,1,8,0:0:0:0:
256,192,104038,1,8,0:0:0:0:
256,192,104310,1,0,0:0:0:0:
256,192,104447,1,8,0:0:0:0:
256,192,104583,1,8,0:0:0:0:
256,192,104719,1,0,0:0:0:0:
256,192,104856,12,0,106356,0:0:0:0:
256,192,108538,5,0,0:0:0:0:
256,192,109083,1,0,0:0:0:0:
256,192,109628,1,8,0:0:0:0:
256,192,110174,1,0,0:0:0:0:
256,192,110583,1,8,0:0:0:0:
256,192,110719,1,0,0:0:0:0:
256,192,111265,1,0,0:0:0:0:
256,192,111810,1,0,0:0:0:0:
256,192,112356,1,0,0:0:0:0:
256,192,112901,1,0,0:0:0:0:
256,192,113447,1,0,0:0:0:0:
256,192,113992,1,0,0:0:0:0:
256,192,114538,1,0,0:0:0:0:
256,192,115083,1,0,0:0:0:0:
256,192,115629,1,0,0:0:0:0:
256,192,116174,1,8,0:0:0:0:
256,192,116720,1,0,0:0:0:0:
256,192,117265,1,0,0:0:0:0:
256,192,117811,1,0,0:0:0:0:
256,192,118356,1,0,0:0:0:0:
256,192,118902,1,0,0:0:0:0:
256,192,119447,1,0,0:0:0:0:
256,192,119719,1,8,0:0:0:0:
256,192,119993,1,0,0:0:0:0:
256,192,120537,1,0,0:0:0:0:
256,192,121084,1,0,0:0:0:0:
256,192,121356,1,8,0:0:0:0:
256,192,121492,1,8,0:0:0:0:
256,192,121628,1,0,0:0:0:0:
256,192,121901,1,8,0:0:0:0:
256,192,122174,1,0,0:0:0:0:
256,192,122719,1,0,0:0:0:0:
256,192,123265,1,0,0:0:0:0:
256,192,123810,1,0,0:0:0:0:
256,192,124356,1,0,0:0:0:0:
256,192,124901,1,0,0:0:0:0:
256,192,125447,1,0,0:0:0:0:
256,192,125992,1,8,0:0:0:0:
256,192,126128,1,8,0:0:0:0:
256,192,126264,1,8,0:0:0:0:
256,192,126401,1,8,0:0:0:0:
256,192,126673,1,0,0:0:0:0:
256,192,126946,1,8,0:0:0:0:
256,192,127219,1,0,0:0:0:0:
256,192,127355,1,8,0:0:0:0:
256,192,127628,2,0,L|44:192,2,210,0|0|0,0:0|0:0|0:0,0:0:0:0:
256,192,128037,1,8,0:0:0:0:
256,192,128173,1,0,0:0:0:0:
256,192,128309,1,8,0:0:0:0:
256,192,128445,1,0,0:0:0:0:
256,192,128582,1,0,0:0:0:0:
256,192,128718,1,8,0:0:0:0:
256,192,128854,1,4,0:0:0:0:
256,192,128991,1,4,0:0:0:0:
256,192,129127,1,8,0:0:0:0:
256,192,129263,1,0,0:0:0:0:
256,192,129399,1,8,0:0:0:0:
256,192,129535,1,0,0:0:0:0:
256,192,129604,1,0,0:0:0:0:
256,192,129672,1,0,0:0:0:0:
256,192,129808,1,8,0:0:0:0:
256,192,129944,1,0,0:0:0:0:
256,192,130013,1,0,0:0:0:0:
256,192,130081,1,0,0:0:0:0:
256,192,130218,1,12,0:0:0:0:
256,192,130354,1,0,0:0:0:0:
256,192,130490,1,8,0:0:0:0:
256,192,130536,1,8,0:0:0:0:
256,192,130582,1,8,0:0:0:0:
256,192,130626,1,0,0:0:0:0:
256,192,130763,1,0,0:0:0:0:
256,192,130899,1,8,0:0:0:0:
256,192,131035,1,0,0:0:0:0:
256,192,131104,1,0,0:0:0:0:
256,192,131172,1,0,0:0:0:0:
256,192,131309,1,8,0:0:0:0:
256,192,131377,1,8,0:0:0:0:
256,192,131445,1,0,0:0:0:0:
256,192,131581,1,8,0:0:0:0:
256,192,131650,1,8,0:0:0:0:
256,192,131717,1,0,0:0:0:0:
256,192,131786,1,0,0:0:0:0:
256,192,131854,1,0,0:0:0:0:
256,192,131990,1,8,0:0:0:0:
256,192,132126,1,0,0:0:0:0:
256,192,132195,1,0,0:0:0:0:
256,192,132263,1,0,0:0:0:0:
256,192,132332,1,0,0:0:0:0:
256,192,132400,1,8,0:0:0:0:
256,192,132536,1,0,0:0:0:0:
256,192,132673,1,8,0:0:0:0:
256,192,132741,1,0,0:0:0:0:
256,192,132809,1,8,0:0:0:0:
256,192,132945,1,0,0:0:0:0:
256,192,133082,1,8,0:0:0:0:
256,192,133218,1,0,0:0:0:0:
256,192,133286,1,0,0:0:0:0:
256,192,133354,1,8,0:0:0:0:
256,192,133491,1,0,0:0:0:0:
256,192,133763,1,0,0:0:0:0:
256,192,134036,1,0,0:0:0:0:
256,192,134173,2,0,L|120:192,5,105,0|0|0|0|0|0,0:0|0:0|0:0|0:0|0:0|0:0,0:0:0:0:
256,192,134445,2,0,L|120:192,10,105,0|0|0|0|0|0|0|0|0|0|0,0:0|0:0|0:0|0:0|0:0|0:0|0:0|0:0|0:0|0:0|0:0,0:0:0:0:
256,192,134717,1,4,0:0:0:0:
256,192,134853,1,4,0:0:0:0:
256,192,134989,1,4,0:0:0:0:
256,192,135126,1,4,0:0:0:0:
256,192,135262,1,4,0:0:0:0:
256,192,135398,1,0,0:0:0:0:
256,192,135466,1,0,0:0:0:0:
256,192,135534,1,8,0:0:0:0:
256,192,135670,1,12,0:0:0:0:
256,192,135807,1,0,0:0:0:0:
256,192,135943,1,0,0:0:0:0:
256,192,136079,1,8,0:0:0:0:
256,192,136148,1,8,0:0:0:0:
256,192,136216,1,0,0:0:0:0:
256,192,136352,1,8,0:0:0:0:
256,192,136420,1,8,0:0:0:0:
256,192,136488,1,0,0:0:0:0:
256,192,136557,1,0,0:0:0:0:
256,192,136625,1,0,0:0:0:0:
256,192,136693,1,0,0:0:0:0:
256,192,136761,1,8,0:0:0:0:
256,192,137033,1,0,0:0:0:0:
256,192,137169,1,0,0:0:0:0:
256,192,137306,1,12,0:0:0:0:
256,192,137578,1,0,0:0:0:0:
256,192,137715,1,0,0:0:0:0:
256,192,137851,1,12,0:0:0:0:
256,192,138124,1,8,0:0:0:0:
256,192,138260,1,0,0:0:0:0:
256,192,138328,1,0,0:0:0:0:
256,192,138397,1,8,0:0:0:0:
256,192,138533,1,0,0:0:0:0:
256,192,138669,1,0,0:0:0:0:
256,192,138806,1,8,0:0:0:0:
256,192,138942,1,8,0:0:0:0:
256,192,139078,1,0,0:0:0:0:
256,192,139215,1,0,0:0:0:0:
256,192,139351,1,0,0:0:0:0:
256,192,139487,1,0,0:0:0:0:
256,192,139624,1,8,0:0:0:0:
256,192,139760,1,0,0:0:0:0:
256,192,139897,1,0,0:0:0:0:
256,192,140033,1,8,0:0:0:0:
256,192,140169,1,0,0:0:0:0:
256,192,140306,1,8,0:0:0:0:
256,192,140442,1,0,0:0:0:0:
256,192,140578,1,0,0:0:0:0:
256,192,140715,1,8,0:0:0:0:
256,192,140851,1,0,0:0:0:0:
256,192,140987,1,8,0:0:0:0:
256,192,141124,1,0,0:0:0:0:
256,192,141260,1,0,0:0:0:0:
256,192,141397,1,0,0:0:0:0:
256,192,141465,1,0,0:0:0:0:
256,192,141533,1,0,0:0:0:0:
256,192,141669,1,0,0:0:0:0:
256,192,141806,1,8,0:0:0:0:
256,192,141942,1,0,0:0:0:0:
256,192,142078,1,0,0:0:0:0:
256,192,142215,1,8,0:0:0:0:
256,192,142351,1,8,0:0:0:0:
256,192,142442,1,0,0:0:0:0:
256,192,142533,1,0,0:0:0:0:
256,192,142624,1,8,0:0:0:0:
256,192,142715,1,0,0:0:0:0:
256,192,142806,1,0,0:0:0:0:
256,192,142897,1,8,0:0:0:0:
256,192,142965,1,0,0:0:0:0:
256,192,143033,1,8,0:0:0:0:
256,192,143102,1,0,0:0:0:0:
256,192,143170,1,8,0:0:0:0:
256,192,143238,1,0,0:0:0:0:
256,192,143306,1,8,0:0:0:0:
256,192,143375,1,0,0:0:0:0:
256,192,143442,1,8,0:0:0:0:
256,192,143578,1,8,0:0:0:0:
256,192,143715,1,8,0:0:0:0:
256,192,143851,1,8,0:0:0:0:
256,192,143987,1,8,0:0:0:0:
256,192,144124,1,0,0:0:0:0:
256,192,144192,1,0,0:0:0:0:
256,192,144260,1,8,0:0:0:0:
256,192,144328,1,8,0:0:0:0:
256,192,144397,1,0,0:0:0:0:
256,192,144465,1,0,0:0:0:0:
256,192,144533,1,8,0:0:0:0:
256,192,144601,1,8,0:0:0:0:
256,192,144669,1,0,0:0:0:0:
256,192,144737,1,8,0:0:0:0:
256,192,144806,1,0,0:0:0:0:
256,192,144874,1,8,0:0:0:0:
256,192,144942,1,0,0:0:0:0:
256,192,145010,1,8,0:0:0:0:
256,192,145078,1,0,0:0:0:0:
256,192,145147,1,8,0:0:0:0:
256,192,145215,1,0,0:0:0:0:
256,192,145260,1,8,0:0:0:0:
256,192,145306,1,8,0:0:0:0:
256,192,145351,1,8,0:0:0:0:
256,192,145397,1,8,0:0:0:0:
256,192,145442,1,8,0:0:0:0:
256,192,145487,1,0,0:0:0:0:
256,192,145760,1,0,0:0:0:0:
256,192,145897,1,8,0:0:0:0:
256,192,146033,1,0,0:0:0:0:
256,192,146101,1,0,0:0:0:0:
256,192,146169,1,0,0:0:0:0:
256,192,146306,1,8,0:0:0:0:
256,192,146442,1,0,0:0:0:0:
256,192,146578,1,0,0:0:0:0:
256,192,146851,1,8,0:0:0:0:
256,192,147124,1,0,0:0:0:0:
256,192,147192,1,0,0:0:0:0:
256,192,147260,1,8,0:0:0:0:
256,192,147397,1,8,0:0:0:0:
256,192,147533,1,0,0:0:0:0:
256,192,147669,1,0,0:0:0:0:
256,192,147806,1,0,0:0:0:0:
256,192,148760,1,0,0:0:0:0:
256,192,149851,1,0,0:0:0:0:
256,192,150124,1,0,0:0:0:0:
256,192,150260,1,0,0:0:0:0:
256,192,150397,1,0,0:0:0:0:
256,192,150669,1,0,0:0:0:0:
256,192,150806,1,0,0:0:0:0:
256,192,151078,1,4,0:0:0:0:
256,192,151214,1,4,0:0:0:0:
256,192,151350,1,4,0:0:0:0:
256,192,151486,1,4,0:0:0:0:
256,192,151623,1,4,0:0:0:0:
256,192,151759,1,0,0:0:0:0:
256,192,151827,1,0,0:0:0:0:
256,192,151895,1,8,0:0:0:0:
256,192,152031,1,4,0:0:0:0:
256,192,152304,1,0,0:0:0:0:
256,192,152440,1,8,0:0:0:0:
256,192,152577,1,0,0:0:0:0:
256,192,152645,1,0,0:0:0:0:
256,192,152713,1,8,0:0:0:0:
256,192,152849,1,8,0:0:0:0:
256,192,152986,1,0,0:0:0:0:
256,192,153122,1,12,0:0:0:0:
256,192,153395,1,0,0:0:0:0:
256,192,153463,1,0,0:0:0:0:
256,192,153531,1,8,0:0:0:0:
256,192,153668,1,0,0:0:0:0:
256,192,153804,1,8,0:0:0:0:
256,192,153940,1,8,0:0:0:0:
256,192,154077,1,0,0:0:0:0:
256,192,154213,1,8,0:0:0:0:
256,192,154281,1,8,0:0:0:0:
256,192,154349,1,0,0:0:0:0:
256,192,154486,1,0,0:0:0:0:
256,192,154622,1,8,0:0:0:0:
256,192,154758,1,8,0:0:0:0:
256,192,154895,1,0,0:0:0:0:
256,192,155031,1,0,0:0:0:0:
256,192,155168,1,8,0:0:0:0:
256,192,155236,1,8,0:0:0:0:
256,192,155304,1,8,0:0:0:0:
256,192,155372,1,8,0:0:0:0:
256,192,155440,1,0,0:0:0:0:
256,192,155713,1,0,0:0:0:0:
256,192,155986,1,0,0:0:0:0:
256,192,156054,1,8,0:0:0:0:
256,192,156122,1,8,0:0:0:0:
256,192,156190,1,8,0:0:0:0:
256,192,156258,1,8,0:0:0:0:
256,192,156327,1,8,0:0:0:0:
256,192,156395,1,0,0:0:0:0:
256,192,156668,1,0,0:0:0:0:
256,192,156736,1,8,0:0:0:0:
256,192,156804,1,8,0:0:0:0:
256,192,156940,1,0,0:0:0:0:
256,192,157077,1,0,0:0:0:0:
256,192,157145,1,8,0:0:0:0:
256,192,157215,1,0,0:0:0:0:
256,192,157281,1,8,0:0:0:0:
256,192,157349,1,0,0:0:0:0:
256,192,157486,1,8,0:0:0:0:
256,192,157622,1,0,0:0:0:0:
256,192,157895,1,0,0:0:0:0:
256,192,158168,1,0,0:0:0:0:
256,192,158236,1,8,0:0:0:0:
256,192,158304,1,8,0:0:0:0:
256,192,158372,1,8,0:0:0:0:
256,192,158440,1,8,0:0:0:0:
256,192,158509,1,8,0:0:0:0:
256,192,158577,1,0,0:0:0:0:
256,192,158850,1,0,0:0:0:0:
256,192,158918,1,0,0:0:0:0:
256,192,158986,1,8,0:0:0:0:
256,192,159122,1,0,0:0:0:0:
256,192,159259,1,8,0:0:0:0:
256,192,159327,1,0,0:0:0:0:
256,192,159397,1,8,0:0:0:0:
256,192,159463,1,0,0:0:0:0:
256,192,159531,1,8,0:0:0:0:
256,192,159668,1,8,0:0:0:0:
256,192,159804,1,12,0:0:0:0:
256,192,159940,1,12,0:0:0:0:
256,192,160076,1,12,0:0:0:0:
256,192,160213,1,12,0:0:0:0:
256,192,160349,1,12,0:0:0:0:
256,192,160485,1,0,0:0:0:0:
256,192,160553,1,0,0:0:0:0:
256,192,160621,1,8,0:0:0:0:
256,192,160757,1,4,0:0:0:0:
256,192,161030,1,0,0:0:0:0:
256,192,161166,1,8,0:0:0:0:
256,192,161303,1,0,0:0:0:0:
256,192,161371,1,0,0:0:0:0:
256,192,161439,1,8,0:0:0:0:
256,192,161575,1,8,0:0:0:0:
256,192,161712,1,0,0:0:0:0:
256,192,161848,1,8,0:0:0:0:
256,192,162121,1,0,0:0:0:0:
256,192,162189,1,8,0:0:0:0:
256,192,162257,1,8,0:0:0:0:
256,192,162394,1,8,0:0:0:0:
256,192,162530,1,0,0:0:0:0:
256,192,162666,1,8,0:0:0:0:
256,192,162734,1,0,0:0:0:0:
256,192,162803,1,0,0:0:0:0:
256,192,162939,1,8,0:0:0:0:
256,192,163212,1,0,0:0:0:0:
256,192,163280,1,0,0:0:0:0:
256,192,163348,1,8,0:0:0:0:
256,192,163484,1,0,0:0:0:0:
256,192,163621,1,8,0:0:0:0:
256,192,163689,1,8,0:0:0:0:
256,192,163757,1,0,0:0:0:0:
256,192,163825,1,0,0:0:0:0:
256,192,163894,1,8,0:0:0:0:
256,192,163962,1,8,0:0:0:0:
256,192,164030,1,0,0:0:0:0:
256,192,164098,1,8,0:0:0:0:
256,192,164169,1,0,0:0:0:0:
256,192,164303,1,8,0:0:0:0:
256,192,164439,1,8,0:0:0:0:
256,192,164575,1,0,0:0:0:0:
256,192,164848,1,8,0:0:0:0:
256,192,164984,1,0,0:0:0:0:
256,192,165053,1,0,0:0:0:0:
256,192,165121,1,0,0:0:0:0:
256,192,165189,1,0,0:0:0:0:
256,192,165257,1,8,0:0:0:0:
256,192,165394,1,0,0:0:0:0:
256,192,165533,1,8,0:0:0:0:
256,192,165666,1,8,0:0:0:0:
256,192,165939,1,8,0:0:0:0:
256,192,166075,1,0,0:0:0:0:
256,192,166166,1,0,0:0:0:0:
256,192,166257,1,0,0:0:0:0:
256,192,166348,1,8,0:0:0:0:
256,192,166484,1,8,0:0:0:0:
256,192,166621,1,0,0:0:0:0:
256,192,166757,1,8,0:0:0:0:
256,192,166894,1,8,0:0:0:0:
256,192,167030,1,0,0:0:0:0:
256,192,167166,1,8,0:0:0:0:
256,192,167303,1,8,0:0:0:0:
256,192,167439,1,8,0:0:0:0:
256,192,167575,1,0,0:0:0:0:
256,192,167712,1,0,0:0:0:0:
256,192,167848,1,8,0:0:0:0:
256,192,168121,5,8,0:0:0:0:
256,192,168394,1,8,0:0:0:0:
256,192,168533,1,4,0:0:0:0:
256,192,168669,1,8,0:0:0:0:
256,192,168715,1,8,0:0:0:0:
256,192,168760,1,8,0:0:0:0:
256,192,168806,1,8,0:0:0:0:
256,192,168851,1,8,0:0:0:0:
256,192,168897,1,8,0:0:0:0:
256,192,168942,1,8,0:0:0:0:
256,192,169078,5,8,0:0:0:0:
256,192,169147,1,0,0:0:0:0:
256,192,169215,1,0,0:0:0:0:
256,192,169283,1,0,0:0:0:0:
256,192,169351,1,8,0:0:0:0:
256,192,169487,1,8,0:0:0:0:
256,192,169556,1,0,0:0:0:0:
256,192,169624,1,8,0:0:0:0:
256,192,169692,1,0,0:0:0:0:
256,192,169760,1,8,0:0:0:0:
256,192,169897,1,8,0:0:0:0:
256,192,169965,1,8,0:0:0:0:
256,192,170033,1,0,0:0:0:0:
256,192,170101,1,0,0:0:0:0:
256,192,170169,1,8,0:0:0:0:
256,192,170306,1,0,0:0:0:0:
256,192,170374,1,0,0:0:0:0:
256,192,170442,1,8,0:0:0:0:
256,192,170510,1,8,0:0:0:0:
256,192,170578,1,0,0:0:0:0:
256,192,170715,1,8,0:0:0:0:
256,192,170783,1,0,0:0:0:0:
256,192,170851,1,8,0:0:0:0:
256,192,170919,1,8,0:0:0:0:
256,192,170987,1,8,0:0:0:0:
256,192,171056,1,0,0:0:0:0:
256,192,171124,1,8,0:0:0:0:
256,192,171192,1,0,0:0:0:0:
256,192,171260,1,8,0:0:0:0:
256,192,171328,1,8,0:0:0:0:
256,192,171396,1,8,0:0:0:0:
256,192,171464,1,0,0:0:0:0:
256,192,171532,1,8,0:0:0:0:
256,192,171601,1,0,0:0:0:0:
256,192,171669,1,0,0:0:0:0:
256,192,171737,1,8,0:0:0:0:
256,192,171806,1,8,0:0:0:0:
256,192,171874,1,0,0:0:0:0:
256,192,171942,1,8,0:0:0:0:
256,192,172010,1,0,0:0:0:0:
256,192,172078,1,8,0:0:0:0:
256,192,172147,1,8,0:0:0:0:
256,192,172215,1,0,0:0:0:0:
256,192,172283,1,8,0:0:0:0:
256,192,172351,1,0,0:0:0:0:
256,192,172419,1,8,0:0:0:0:
256,192,172487,1,8,0:0:0:0:
256,192,172555,1,8,0:0:0:0:
256,192,172623,1,8,0:0:0:0:
256,192,172692,1,0,0:0:0:0:
256,192,172760,1,8,0:0:0:0:
256,192,172828,1,8,0:0:0:0:
256,192,172897,1,8,0:0:0:0:
256,192,172965,1,8,0:0:0:0:
256,192,173033,1,8,0:0:0:0:
256,192,173169,1,8,0:0:0:0:
256,192,173306,1,8,0:0:0:0:
256,192,173442,1,8,0:0:0:0:
256,192,173578,1,0,0:0:0:0:
256,192,173715,1,0,0:0:0:0:
256,192,173851,1,8,0:0:0:0:
256,192,174124,1,8,0:0:0:0:
256,192,174260,1,0,0:0:0:0:
256,192,174328,1,0,0:0:0:0:
256,192,174397,1,8,0:0:0:0:
256,192,174465,1,0,0:0:0:0:
256,192,174533,1,8,0:0:0:0:
256,192,174669,1,0,0:0:0:0:
256,192,174806,1,0,0:0:0:0:
256,192,174942,1,8,0:0:0:0:
256,192,175215,1,8,0:0:0:0:
256,192,175351,1,0,0:0:0:0:
256,192,175442,1,0,0:0:0:0:
256,192,175533,1,0,0:0:0:0:
256,192,175624,1,8,0:0:0:0:
256,192,175692,1,0,0:0:0:0:
256,192,175760,1,8,0:0:0:0:
256,192,175828,1,8,0:0:0:0:
256,192,175897,1,8,0:0:0:0:
256,192,175965,1,0,0:0:0:0:
256,192,176033,1,8,0:0:0:0:
256,192,176101,1,0,0:0:0:0:
256,192,176169,1,8,0:0:0:0:
256,192,176237,1,8,0:0:0:0:
256,192,176306,1,8,0:0:0:0:
256,192,176374,1,0,0:0:0:0:
256,192,176442,1,8,0:0:0:0:
256,192,176510,1,8,0:0:0:0:
256,192,176578,1,8,0:0:0:0:
256,192,176646,1,8,0:0:0:0:
256,192,176715,1,8,0:0:0:0:
256,192,176783,1,0,0:0:0:0:
256,192,176851,1,8,0:0:0:0:
256,192,176919,1,8,0:0:0:0:
256,192,176987,1,8,0:0:0:0:
256,192,177055,1,8,0:0:0:0:
256,192,177124,1,8,0:0:0:0:
256,192,177192,1,0,0:0:0:0:
256,192,177260,1,8,0:0:0:0:
256,192,177328,1,0,0:0:0:0:
256,192,177396,1,8,0:0:0:0:
256,192,177464,1,0,0:0:0:0:
256,192,177533,1,8,0:0:0:0:
256,192,177601,1,8,0:0:0:0:
256,192,177669,1,8,0:0:0:0:
256,192,177714,1,8,0:0:0:0:
256,192,177760,1,8,0:0:0:0:
256,192,177805,1,0,0:0:0:0:
