osu file format v14

[General]
AudioFilename: ljube_-_kombat_(zvukoff.ru).mp3
AudioLeadIn: 0
PreviewTime: -1
Countdown: 1
SampleSet: None
StackLeniency: 0.7
Mode: 0
LetterboxInBreaks: 1
WidescreenStoryboard: 0

[Editor]
Bookmarks: -85
DistanceSpacing: 1
BeatDivisor: 1
GridSize: 4
TimelineZoom: 0.8

[Metadata]
Title:Combat rus
TitleUnicode:Combat rus
Artist:lube
ArtistUnicode:lube
Creator:LimaX28
Version:Normal
Source:клип
Tags:war combat music long rus рус россия 123 танки бмп оружие
BeatmapID:788881
BeatmapSetID:358756

[Difficulty]
HPDrainRate:5
CircleSize:5
OverallDifficulty:5
ApproachRate:5
SliderMultiplier:2.89999990463257
SliderTickRate:4

[Events]
//Background and Video events
0,0,"o2.jpg",0,0
//Break Periods
2,64007,66528
2,118369,122013
2,272494,279498
//Storyboard Layer 0 (Background)
//Storyboard Layer 1 (Fail)
//Storyboard Layer 2 (Pass)
//Storyboard Layer 3 (Foreground)
//Storyboard Sound Samples

[TimingPoints]
1035.5046728972,560.447663551402,4,1,0,100,1,0

[HitObjects]
112,252,17848,5,0,0:0:0:0:
164,104,18409,1,0,0:0:0:0:
384,108,19530,1,0,0:0:0:0:
352,240,20090,1,0,0:0:0:0:
104,240,21772,1,0,0:0:0:0:
168,112,22332,1,0,0:0:0:0:
304,276,23453,5,0,0:0:0:0:
144,144,24574,1,0,0:0:0:0:
116,300,26255,1,0,0:0:0:0:
188,144,26816,1,0,0:0:0:0:
304,324,27936,1,0,0:0:0:0:
320,252,28497,1,0,0:0:0:0:
108,320,30178,5,0,0:0:0:0:
212,64,31299,1,0,0:0:0:0:
44,340,32420,1,0,0:0:0:0:
440,328,32981,1,0,0:0:0:0:
256,192,34662,12,0,41391,0:0:0:0:
44,288,43069,6,0,L|424:52,2,289.999990463257
264,132,45310,1,0,0:0:0:0:
80,296,46992,1,0,0:0:0:0:
176,112,47552,1,0,0:0:0:0:
112,288,48673,1,0,0:0:0:0:
340,96,49234,1,0,0:0:0:0:
100,316,51475,5,0,0:0:0:0:
92,156,52036,1,0,0:0:0:0:
120,296,53717,1,0,0:0:0:0:
116,272,54278,1,0,0:0:0:0:
176,344,55398,2,0,L|456:36,2,289.999990463257
172,292,57640,1,0,0:0:0:0:
308,156,58201,1,0,0:0:0:0:
256,192,60442,12,0,63807,0:0:0:0:
256,192,67728,5,0,0:0:0:0:
64,352,68289,2,0,B|432:60|432:60|340:320|340:320,1,579.999980926514
200,344,69970,2,0,P|464:40|488:44,1,289.999990463257
200,232,71091,1,0,0:0:0:0:
96,220,72212,1,0,0:0:0:0:
200,128,72772,1,0,0:0:0:0:
204,248,73893,1,0,0:0:0:0:
88,192,75014,1,0,0:0:0:0:
152,360,76135,2,0,P|484:116|496:232,1,869.999971389771
168,328,77816,2,0,B|456:48|464:204,2,289.999990463257
96,284,80058,1,0,0:0:0:0:
152,128,81179,1,0,0:0:0:0:
64,324,81739,2,0,B|344:124|324:144,3,289.999990463257
228,192,84542,1,0,0:0:0:0:
124,200,85663,1,0,0:0:0:0:
320,196,86783,1,0,0:0:0:0:
156,204,87344,1,0,0:0:0:0:
252,272,88465,5,0,0:0:0:0:
220,172,89586,1,0,0:0:0:0:
92,220,90707,1,0,0:0:0:0:
192,384,91828,2,0,P|520:148|520:180,1,869.999971389771
280,200,94630,1,0,0:0:0:0:
28,356,95751,1,0,0:0:0:0:
348,216,96872,1,0,0:0:0:0:
56,352,97992,2,0,L|432:72,1,289.999990463257
36,336,99113,2,0,B|408:96|88:156,2,289.999990463257
184,176,101355,1,0,0:0:0:0:
164,200,103036,1,0,0:0:0:0:
36,304,103597,2,0,L|448:24,1,289.999990463257
160,224,105278,1,0,0:0:0:0:
32,312,105839,2,0,L|456:88,1,289.999990463257
176,204,107520,1,0,0:0:0:0:
32,320,108081,2,0,L|400:172,1,289.999990463257
120,296,109762,2,0,L|436:84,1,289.999990463257
28,56,112004,2,0,L|396:288,1,289.999990463257
188,192,113685,1,0,0:0:0:0:
88,76,114245,2,0,L|416:268,1,289.999990463257
96,280,115927,1,0,0:0:0:0:
168,228,116487,1,0,0:0:0:0:
228,184,117048,1,0,0:0:0:0:
292,144,117608,1,0,0:0:0:0:
352,96,118169,1,0,0:0:0:0:
108,212,123213,5,0,0:0:0:0:
108,204,124894,1,0,0:0:0:0:
148,292,125454,1,0,0:0:0:0:
200,228,126015,1,0,0:0:0:0:
88,304,127136,2,0,L|424:56,1,289.999990463257
192,212,128257,1,0,0:0:0:0:
300,184,128817,1,0,0:0:0:0:
288,196,129378,1,0,0:0:0:0:
72,296,131059,2,0,L|392:64,1,289.999990463257
444,48,133301,2,0,L|132:288,1,289.999990463257
152,188,135542,1,0,0:0:0:0:
196,272,136103,1,0,0:0:0:0:
284,144,137224,1,0,0:0:0:0:
328,168,138345,1,0,0:0:0:0:
256,192,139466,12,0,146755,0:0:0:0:
268,192,148433,5,0,0:0:0:0:
92,208,150114,1,0,0:0:0:0:
192,124,150675,1,0,0:0:0:0:
152,288,152356,2,0,L|436:64,2,289.999990463257
248,184,154037,1,0,0:0:0:0:
172,200,154598,1,0,0:0:0:0:
144,204,156839,1,0,0:0:0:0:
248,168,157400,1,0,0:0:0:0:
60,324,158521,2,0,B|384:92|-24:92|240:84,2,289.999990463257
104,232,160763,1,0,0:0:0:0:
232,212,161323,1,0,0:0:0:0:
100,288,163004,1,0,0:0:0:0:
152,216,163565,1,0,0:0:0:0:
256,192,165246,12,0,170854,0:0:0:0:
252,192,173092,5,0,0:0:0:0:
52,252,173653,1,0,0:0:0:0:
184,272,174774,1,0,0:0:0:0:
176,128,175895,1,0,0:0:0:0:
52,324,177016,2,0,L|400:88,1,289.999990463257
168,272,178136,1,0,0:0:0:0:
244,176,179257,1,0,0:0:0:0:
24,308,179818,2,0,B|404:200|68:248,1,289.999990463257
80,332,181499,1,0,0:0:0:0:
72,292,182060,2,0,L|396:60,1,289.999990463257
200,200,183180,1,0,0:0:0:0:
256,288,184301,1,0,0:0:0:0:
52,268,185422,1,0,0:0:0:0:
144,328,185983,2,0,L|460:56,3,289.999990463257
32,352,188225,6,0,B|344:48|168:356|472:344|272:16,1,579.999980926514
256,188,189906,5,0,0:0:0:0:
96,200,190466,1,0,0:0:0:0:
136,124,191587,1,0,0:0:0:0:
160,208,192708,1,0,0:0:0:0:
24,288,193829,2,0,L|396:56,1,289.999990463257
216,176,194950,1,0,0:0:0:0:
148,272,196071,1,0,0:0:0:0:
104,156,196631,1,0,0:0:0:0:
260,212,197192,1,0,0:0:0:0:
84,284,198313,2,0,L|416:56,1,289.999990463257
96,196,199994,1,0,0:0:0:0:
80,324,200554,2,0,L|380:112,1,289.999990463257
148,196,202236,1,0,0:0:0:0:
112,288,202796,2,0,L|448:40,1,289.999990463257
244,308,203917,1,0,0:0:0:0:
228,248,204478,1,0,0:0:0:0:
224,164,205038,1,0,0:0:0:0:
224,120,205598,1,0,0:0:0:0:
16,328,206159,2,0,L|404:28,1,289.999990463257
128,276,207280,1,0,0:0:0:0:
172,228,208401,1,0,0:0:0:0:
52,56,208961,2,0,L|408:332,1,289.999990463257
108,260,210642,1,0,0:0:0:0:
144,200,211763,1,0,0:0:0:0:
68,296,212324,2,0,L|416:48,1,289.999990463257
144,232,214005,1,0,0:0:0:0:
56,284,215126,2,0,L|420:8,1,289.999990463257
180,200,216807,1,0,0:0:0:0:
256,188,217928,1,0,0:0:0:0:
28,296,219049,6,0,L|400:36,1,289.999990463257
48,56,220170,2,0,L|384:296,1,289.999990463257
36,316,221291,2,0,P|304:40|428:356,1,579.999980926514
184,192,222972,1,0,0:0:0:0:
60,240,224093,1,0,0:0:0:0:
112,180,225214,1,0,0:0:0:0:
44,328,226335,2,0,L|352:120,1,289.999990463257
112,188,227456,1,0,0:0:0:0:
104,364,228016,2,0,L|392:56,1,289.999990463257
136,212,229698,1,0,0:0:0:0:
224,180,230258,1,0,0:0:0:0:
192,120,230819,1,0,0:0:0:0:
96,276,231939,1,0,0:0:0:0:
108,256,232500,2,0,L|416:36,1,289.999990463257
140,164,233621,1,0,0:0:0:0:
384,56,234181,2,0,L|92:340,1,289.999990463257
248,192,235863,1,0,0:0:0:0:
124,264,236423,1,0,0:0:0:0:
64,288,237544,2,0,L|384:64,3,289.999990463257
88,232,240346,1,0,0:0:0:0:
140,180,242028,1,0,0:0:0:0:
100,308,242588,2,0,L|412:68,1,289.999990463257
364,304,244269,1,0,0:0:0:0:
372,288,244830,2,0,L|40:60,1,289.999990463257
72,284,246511,6,0,L|400:60,2,289.999990463257
208,268,248753,1,0,0:0:0:0:
40,336,249313,2,0,L|408:80,1,289.999990463257
36,288,250434,2,0,L|416:24,2,289.999990463257
140,256,252676,1,0,0:0:0:0:
224,176,253236,1,0,0:0:0:0:
76,320,254357,2,0,L|408:72,5,289.999990463257
256,192,257720,12,0,259963,0:0:0:0:
256,192,261083,12,0,266130,0:0:0:0:
256,192,268369,12,0,272294,0:0:0:0:
200,192,280698,5,0,0:0:0:0:
112,216,281259,1,0,0:0:0:0:
136,280,282380,1,0,0:0:0:0:
192,212,283501,1,0,0:0:0:0:
96,296,284061,2,0,L|432:52,2,289.999990463257
100,236,286863,1,0,0:0:0:0:
144,192,287424,1,0,0:0:0:0:
136,272,289666,1,0,0:0:0:0:
172,168,290786,1,0,0:0:0:0:
172,256,291347,1,0,0:0:0:0:
96,220,293028,1,0,0:0:0:0:
204,216,293589,1,0,0:0:0:0:
76,192,295830,1,0,0:0:0:0:
84,288,297512,2,0,L|416:60,3,289.999990463257
