osu file format v6

[General]
AudioFilename: 05-Dust in the wind-.mp3
AudioLeadIn: 0
PreviewTime: -1
Countdown: 1
SampleSet: Soft
StackLeniency: 0.7
Mode: 0
LetterboxInBreaks: 1

[Editor]
DistanceSpacing: 0.800000011920929
BeatDivisor: 4
GridSize: 32

[Metadata]
Title:Dust in the wind
Artist:love songs
Creator:wrenlei
Version:Easy
Source:local
Tags:golden love song

[Difficulty]
HPDrainRate:5
CircleSize:5
OverallDifficulty:5
SliderMultiplier:1.4
SliderTickRate:2

[Events]
//Background and Video events
0,0,"633427402496050000.jpg"
//Break Periods
2,23200,27050
2,108200,128800
2,187950,191800
//Storyboard Layer 0 (Background)
//Storyboard Layer 1 (Fail)
//Storyboard Layer 2 (Pass)
//Storyboard Layer 3 (Foreground)
//Storyboard Sound Samples
//Background Colour Transformations
3,100,163,162,255

[TimingPoints]
10000,1000,4,2,0,100,1,0

[HitObjects]
96,64,21500,1,0
160,64,22000,1,0
224,64,22500,1,0
288,64,23000,1,0
96,128,28250,5,0
224,128,29250,1,0
416,128,31000,1,0
192,256,33250,1,0
0,256,35000,1,0
224,128,37250,1,0
448,64,39250,1,0
288,192,41000,1,0
32,224,43250,1,0
256,96,47250,1,0
416,96,48750,1,0
320,96,49750,1,0
160,96,51250,1,0
384,96,53250,1,0
192,96,55000,1,0
384,96,56750,1,0
227,118,58000,2,0,B|64:96|64:160|96:192|128:224|160:224|192:256|192:288|192:320,4,350
448,128,70000,2,0,B|160:128|160:128,6,245
160,128,83000,1,0
416,128,85250,1,0
128,160,87750,1,0
416,128,90500,1,0
192,320,93250,1,0
448,288,95500,1,0
288,288,97000,1,0
96,256,98750,1,0
192,128,100250,1,0
352,64,101750,1,0
448,192,103250,1,0
256,224,105000,1,0
96,128,108000,1,0
96,128,130000,5,0
224,128,131000,1,0
448,128,133000,1,0
320,128,134250,1,0
96,128,136250,1,0
192,256,137750,1,0
384,160,139750,1,0
224,32,141500,1,0
64,160,143250,1,0
192,160,144500,1,0
320,160,145750,1,0
480,160,147000,1,0
320,160,148250,1,0
192,160,149500,1,0
64,160,150750,1,0
416,96,153750,2,0,B|192:160|192:160,3,210
128,192,159250,1,0
320,64,161250,1,0
192,192,163000,1,0
64,32,164750,1,0
224,256,167000,1,0
224,96,168500,1,0
224,288,170250,1,0
224,64,172250,1,0
224,288,174250,1,0
224,96,179250,1,0
224,160,182750,1,0
224,192,185500,1,0
224,224,187750,1,0
224,256,193000,5,0
