osu file format v12

[General]
AudioFilename: Starlight_ Disco.mp3
AudioLeadIn: 0
PreviewTime: 48036
Countdown: 0
SampleSet: None
StackLeniency: 0.7
Mode: 0
LetterboxInBreaks: 0
WidescreenStoryboard: 0

[Editor]
Bookmarks: 18739,33739,48739,63739
DistanceSpacing: 1.1
BeatDivisor: 4
GridSize: 4

[Metadata]
Title:Starlight Disco
TitleUnicode:Starlight Disco
Artist:loos feat. Meramipop
ArtistUnicode:loos feat. Meramipop
Creator:[CSGA]Ar3sgice
Version:Industrial Centrifuge
Source:maimai
Tags:halfpipe tokyo 舞萌 めらみぽっぷ
BeatmapID:369492
BeatmapSetID:149540

[Difficulty]
HPDrainRate:6
CircleSize:4
OverallDifficulty:6
ApproachRate:10
SliderMultiplier:3.6
SliderTickRate:1

[Events]
//Background and Video events
0,0,"bg3.jpg",0,0
//Break Periods
//Storyboard Layer 0 (Background)
//Storyboard Layer 1 (Fail)
//Storyboard Layer 2 (Pass)
//Storyboard Layer 3 (Foreground)
Sprite,Foreground,Centre,"ring.png",320,240 F,0,3514,3589,0,1 C,0,3589,,255,255,128 M,0,3589,3739,335,208,381,88 F,0,3589,3739,1 F,0,3739,3777,1,0
Sprite,Foreground,Centre,"ring.png",320,240 F,0,4452,4527,0,1 C,0,4527,,255,255,128 M,0,4527,4677,302,287,249,404 F,0,4527,4677,1 F,0,4677,4715,1,0
Sprite,Foreground,Centre,"ring.png",320,240 F,0,5389,5464,0,1 C,0,5464,,255,255,128 M,0,5464,5614,279,232,157,184 F,0,5464,5614,1 F,0,5614,5652,1,0
Sprite,Foreground,Centre,"ring.png",320,240 F,0,6327,6402,0,1 C,0,6402,,255,255,128 M,0,6402,6552,358,264,474,313 F,0,6402,6552,1 F,0,6552,6590,1,0
Sprite,Foreground,Centre,"ring.png",320,240 F,0,7030,7105,0,1 C,0,7105,,255,255,128 M,0,7105,7255,302,208,248,90 F,0,7105,7255,1 F,0,7255,7293,1,0
Sprite,Foreground,Centre,"ring.png",320,240 F,0,7264,7339,0,1 C,0,7339,,255,255,128 M,0,7339,7489,335,208,381,88 F,0,7339,7489,1 F,0,7489,7527,1,0
Sprite,Foreground,Centre,"ring.png",320,240 F,0,8202,8277,0,1 C,0,8277,,255,255,128 M,0,8277,8427,335,287,383,404 F,0,8277,8427,1 F,0,8427,8465,1,0
Sprite,Foreground,Centre,"ring.png",320,240 F,0,9139,9214,0,1 C,0,9214,,255,255,128 M,0,9214,9364,279,232,157,184 F,0,9214,9364,1 F,0,9364,9402,1,0
Sprite,Foreground,Centre,"ring.png",320,240 F,0,10077,10152,0,1 C,0,10152,,255,255,128 M,0,10152,10302,358,230,472,178 F,0,10152,10302,1 F,0,10302,10340,1,0
Sprite,Foreground,Centre,"ring.png",320,240 F,0,10311,10386,0,1 C,0,10386,,255,255,128 M,0,10386,10536,358,230,472,178 F,0,10386,10536,1 F,0,10536,10574,1,0
Sprite,Foreground,Centre,"ring.png",320,240 F,0,11014,11089,0,1 C,0,11089,,255,255,128 M,0,11089,11239,302,287,249,404 F,0,11089,11239,1 F,0,11239,11277,1,0
Sprite,Foreground,Centre,"ring.png",320,240 F,0,11248,11323,0,1 C,0,11323,,255,255,128 M,0,11323,11473,279,264,157,313 F,0,11323,11473,1 F,0,11473,11511,1,0
Sprite,Foreground,Centre,"ring.png",320,240 F,0,11483,11558,0,1 C,0,11558,,255,255,128 M,0,11558,11708,335,287,383,404 F,0,11558,11708,1 F,0,11708,11746,1,0
Sprite,Foreground,Centre,"ring.png",320,240 F,0,11952,12027,0,1 C,0,12027,,255,255,128 M,0,12027,12177,302,208,248,90 F,0,12027,12177,1 F,0,12177,12215,1,0
Sprite,Foreground,Centre,"ring.png",320,240 F,0,12186,12261,0,1 C,0,12261,,255,255,128 M,0,12261,12411,279,232,157,184 F,0,12261,12411,1 F,0,12411,12449,1,0
Sprite,Foreground,Centre,"ring.png",320,240 F,0,12420,12495,0,1 C,0,12495,,255,255,128 M,0,12495,12645,302,208,248,90 F,0,12495,12645,1 F,0,12645,12683,1,0
Sprite,Foreground,Centre,"ring.png",320,240 F,0,12889,12964,0,1 C,0,12964,,255,255,128 M,0,12964,13114,358,264,474,313 F,0,12964,13114,1 F,0,13114,13152,1,0
Sprite,Foreground,Centre,"ring.png",320,240 F,0,13358,13433,0,1 C,0,13433,,255,255,128 M,0,13433,13583,358,230,472,178 F,0,13433,13583,1 F,0,13583,13621,1,0
Sprite,Foreground,Centre,"ring.png",320,240 F,0,13827,13902,0,1 C,0,13902,,255,255,128 M,0,13902,14052,335,208,381,88 F,0,13902,14052,1 F,0,14052,14090,1,0
Sprite,Foreground,Centre,"ring.png",320,240 F,0,14295,14370,0,1 C,0,14370,,255,255,128 M,0,14370,14520,279,232,157,184 F,0,14370,14520,1 F,0,14520,14558,1,0
Sprite,Foreground,Centre,"ring.png",320,240 F,0,14530,14605,0,1 C,0,14605,,255,255,128 M,0,14605,14755,279,264,157,313 F,0,14605,14755,1 F,0,14755,14793,1,0
Sprite,Foreground,Centre,"ring.png",320,240 F,0,14764,14839,0,1 C,0,14839,,255,255,128 M,0,14839,14989,302,208,248,90 F,0,14839,14989,1 F,0,14989,15027,1,0
Sprite,Foreground,Centre,"ring.png",320,240 F,0,15233,15308,0,1 C,0,15308,,255,255,128 M,0,15308,15458,335,287,383,404 F,0,15308,15458,1 F,0,15458,15496,1,0
Sprite,Foreground,Centre,"ring.png",320,240 F,0,15702,15777,0,1 C,0,15777,,255,255,128 M,0,15777,15927,358,264,474,313 F,0,15777,15927,1 F,0,15927,15965,1,0
Sprite,Foreground,Centre,"ring.png",320,240 F,0,16170,16245,0,1 C,0,16245,,255,255,128 M,0,16245,16395,358,230,472,178 F,0,16245,16395,1 F,0,16395,16433,1,0
Sprite,Foreground,Centre,"ring.png",320,240 F,0,16405,16480,0,1 C,0,16480,,255,255,128 M,0,16480,16630,302,287,249,404 F,0,16480,16630,1 F,0,16630,16668,1,0
Sprite,Foreground,Centre,"ring.png",320,240 F,0,16639,16714,0,1 C,0,16714,,255,255,128 M,0,16714,16864,358,264,474,313 F,0,16714,16864,1 F,0,16864,16902,1,0
Sprite,Foreground,Centre,"ring.png",320,240 F,0,18045,18120,0,1 C,0,18120,,255,255,128 M,0,18120,18270,335,208,381,88 F,0,18120,18270,1 F,0,18270,18308,1,0
Sprite,Foreground,Centre,"ring.png",320,240 F,0,18514,18589,0,1 C,0,18589,,255,255,128 M,0,18589,18739,279,264,157,313 F,0,18589,18739,1 F,0,18739,18777,1,0
Sprite,Foreground,Centre,"ring.png",320,240 F,0,18748,18823,0,1 C,0,18823,,255,255,128 M,0,18823,18973,358,264,474,313 F,0,18823,18973,1 F,0,18973,19011,1,0
Sprite,Foreground,Centre,"ring.png",320,240 F,0,18983,19058,0,1 C,0,19058,,255,255,128 M,0,19058,19208,279,232,157,184 F,0,19058,19208,1 F,0,19208,19246,1,0
Sprite,Foreground,Centre,"ring.png",320,240 F,0,19217,19292,0,1 C,0,19292,,255,255,128 M,0,19292,19442,335,287,383,404 F,0,19292,19442,1 F,0,19442,19480,1,0
Sprite,Foreground,Centre,"ring.png",320,240 F,0,19452,19527,0,1 C,0,19527,,255,255,128 M,0,19527,19677,302,208,248,90 F,0,19527,19677,1 F,0,19677,19715,1,0
Sprite,Foreground,Centre,"ring.png",320,240 F,0,19686,19761,0,1 C,0,19761,,255,255,128 M,0,19761,19911,358,230,472,178 F,0,19761,19911,1 F,0,19911,19949,1,0
Sprite,Foreground,Centre,"ring.png",320,240 F,0,19920,19995,0,1 C,0,19995,,255,255,128 M,0,19995,20145,335,208,381,88 F,0,19995,20145,1 F,0,20145,20183,1,0
Sprite,Foreground,Centre,"lt.png",320,240 F,0,20230,20380,0,1 R,0,20380,,1.996419 C,0,20380,,128,255,255 M,0,20380,20849,204,380,340,80
Sprite,Foreground,Centre,"ring.png",320,240 F,0,20858,20933,0,1 C,0,20933,,255,255,128 M,0,20933,21083,358,264,474,313 F,0,20933,21083,1 F,0,21083,21121,1,0
Sprite,Foreground,Centre,"ring.png",320,240 F,0,21092,21167,0,1 C,0,21167,,255,255,128 M,0,21167,21317,279,232,157,184 F,0,21167,21317,1 F,0,21317,21355,1,0
Sprite,Foreground,Centre,"ring.png",320,240 F,0,21327,21402,0,1 C,0,21402,,255,255,128 M,0,21402,21552,302,208,248,90 F,0,21402,21552,1 F,0,21552,21590,1,0
Sprite,Foreground,Centre,"ring.png",320,240 F,0,21561,21636,0,1 C,0,21636,,255,255,128 M,0,21636,21786,335,287,383,404 F,0,21636,21786,1 F,0,21786,21824,1,0
Sprite,Foreground,Centre,"ring.png",320,240 F,0,21795,21870,0,1 C,0,21870,,255,255,128 M,0,21870,22020,358,230,472,178 F,0,21870,22020,1 F,0,22020,22058,1,0
Sprite,Foreground,Centre,"ring.png",320,240 F,0,22030,22105,0,1 C,0,22105,,255,255,128 M,0,22105,22255,279,264,157,313 F,0,22105,22255,1 F,0,22255,22293,1,0
Sprite,Foreground,Centre,"ring.png",320,240 F,0,22264,22339,0,1 C,0,22339,,255,255,128 M,0,22339,22489,358,264,474,313 F,0,22339,22489,1 F,0,22489,22527,1,0
Sprite,Foreground,Centre,"ring.png",320,240 F,0,22498,22573,0,1 C,0,22573,,255,255,128 M,0,22573,22723,335,287,383,404 F,0,22573,22723,1 F,0,22723,22761,1,0
Sprite,Foreground,Centre,"ring.png",320,240 F,0,22733,22808,0,1 C,0,22808,,255,255,128 M,0,22808,22958,279,232,157,184 F,0,22808,22958,1 F,0,22958,22996,1,0
Sprite,Foreground,Centre,"ring.png",320,240 F,0,22967,23042,0,1 C,0,23042,,255,255,128 M,0,23042,23192,302,208,248,90 F,0,23042,23192,1 F,0,23192,23230,1,0
Sprite,Foreground,Centre,"ring.png",320,240 F,0,23202,23277,0,1 C,0,23277,,255,255,128 M,0,23277,23427,358,230,472,178 F,0,23277,23427,1 F,0,23427,23465,1,0
Sprite,Foreground,Centre,"ring.png",320,240 F,0,23436,23511,0,1 C,0,23511,,255,255,128 M,0,23511,23661,279,264,157,313 F,0,23511,23661,1 F,0,23661,23699,1,0
Sprite,Foreground,Centre,"ring.png",320,240 F,0,23670,23745,0,1 C,0,23745,,255,255,128 M,0,23745,23895,358,264,474,313 F,0,23745,23895,1 F,0,23895,23933,1,0
Sprite,Foreground,Centre,"lt.png",320,240 F,0,23980,24130,0,1 R,0,24130,,-1.151319 C,0,24130,,128,255,255 M,0,24130,24599,428,116,296,412
Sprite,Foreground,Centre,"ring.png",320,240 F,0,24608,24683,0,1 C,0,24683,,255,255,128 M,0,24683,24833,335,287,383,404 F,0,24683,24833,1 F,0,24833,24871,1,0
Sprite,Foreground,Centre,"ring.png",320,240 F,0,24842,24917,0,1 C,0,24917,,255,255,128 M,0,24917,25067,279,232,157,184 F,0,24917,25067,1 F,0,25067,25105,1,0
Sprite,Foreground,Centre,"lt.png",320,240 F,0,25152,25302,0,1 R,0,25302,,0.0949517 C,0,25302,,128,255,255 M,0,25302,25478,456,140,204,116
Sprite,Foreground,Centre,"lt.png",320,240 F,0,25386,25536,0,1 R,0,25536,,-1.46945 C,0,25536,,128,255,255 M,0,25536,25712,204,116,180,352
Sprite,Foreground,Centre,"lt.png",320,240 F,0,25620,25770,0,1 R,0,25770,,-2.79794 C,0,25770,,128,255,255 M,0,25770,25946,165,249,429,342
Sprite,Foreground,Centre,"ring.png",320,240 F,0,25780,25855,0,1 C,0,25855,,255,255,128 M,0,25855,26005,358,264,474,313 F,0,25855,26005,1 F,0,26005,26043,1,0
Sprite,Foreground,Centre,"ring.png",320,240 F,0,25897,25972,0,1 C,0,25972,,255,255,128 M,0,25972,26122,358,264,474,313 F,0,25972,26122,1 F,0,26122,26160,1,0
Sprite,Foreground,Centre,"ring.png",320,240 F,0,26014,26089,0,1 C,0,26089,,255,255,128 M,0,26089,26239,335,208,381,88 F,0,26089,26239,1 F,0,26239,26277,1,0
Sprite,Foreground,Centre,"ring.png",320,240 F,0,26248,26323,0,1 C,0,26323,,255,255,128 M,0,26323,26473,302,287,249,404 F,0,26323,26473,1 F,0,26473,26511,1,0
Sprite,Foreground,Centre,"ring.png",320,240 F,0,26483,26558,0,1 C,0,26558,,255,255,128 M,0,26558,26708,279,232,157,184 F,0,26558,26708,1 F,0,26708,26746,1,0
Sprite,Foreground,Centre,"ring.png",320,240 F,0,26717,26792,0,1 C,0,26792,,255,255,128 M,0,26792,26942,302,208,248,90 F,0,26792,26942,1 F,0,26942,26980,1,0
Sprite,Foreground,Centre,"ring.png",320,240 F,0,26952,27027,0,1 C,0,27027,,255,255,128 M,0,27027,27177,335,287,383,404 F,0,27027,27177,1 F,0,27177,27215,1,0
Sprite,Foreground,Centre,"ring.png",320,240 F,0,27186,27261,0,1 C,0,27261,,255,255,128 M,0,27261,27411,279,264,157,313 F,0,27261,27411,1 F,0,27411,27449,1,0
Sprite,Foreground,Centre,"ring.png",320,240 F,0,27420,27495,0,1 C,0,27495,,255,255,128 M,0,27495,27645,335,287,383,404 F,0,27495,27645,1 F,0,27645,27683,1,0
Sprite,Foreground,Centre,"lt.png",320,240 F,0,27730,27880,0,1 R,0,27880,,-2.754299 C,0,27880,,128,255,255 M,0,27880,28349,180,140,484,264
Sprite,Foreground,Centre,"ring.png",320,240 F,0,28358,28433,0,1 C,0,28433,,255,255,128 M,0,28433,28583,358,230,472,178 F,0,28433,28583,1 F,0,28583,28621,1,0
Sprite,Foreground,Centre,"ring.png",320,240 F,0,28592,28667,0,1 C,0,28667,,255,255,128 M,0,28667,28817,302,287,249,404 F,0,28667,28817,1 F,0,28817,28855,1,0
Sprite,Foreground,Centre,"ring.png",320,240 F,0,28827,28902,0,1 C,0,28902,,255,255,128 M,0,28902,29052,335,208,381,88 F,0,28902,29052,1 F,0,29052,29090,1,0
Sprite,Foreground,Centre,"ring.png",320,240 F,0,29061,29136,0,1 C,0,29136,,255,255,128 M,0,29136,29286,302,208,248,90 F,0,29136,29286,1 F,0,29286,29324,1,0
Sprite,Foreground,Centre,"ring.png",320,240 F,0,29295,29370,0,1 C,0,29370,,255,255,128 M,0,29370,29520,358,264,474,313 F,0,29370,29520,1 F,0,29520,29558,1,0
Sprite,Foreground,Centre,"ring.png",320,240 F,0,29530,29605,0,1 C,0,29605,,255,255,128 M,0,29605,29755,358,230,472,178 F,0,29605,29755,1 F,0,29755,29793,1,0
Sprite,Foreground,Centre,"ring.png",320,240 F,0,29764,29839,0,1 C,0,29839,,255,255,128 M,0,29839,29989,279,264,157,313 F,0,29839,29989,1 F,0,29989,30027,1,0
Sprite,Foreground,Centre,"ring.png",320,240 F,0,29998,30073,0,1 C,0,30073,,255,255,128 M,0,30073,30223,335,287,383,404 F,0,30073,30223,1 F,0,30223,30261,1,0
Sprite,Foreground,Centre,"ring.png",320,240 F,0,30233,30308,0,1 C,0,30308,,255,255,128 M,0,30308,30458,279,232,157,184 F,0,30308,30458,1 F,0,30458,30496,1,0
Sprite,Foreground,Centre,"ring.png",320,240 F,0,30467,30542,0,1 C,0,30542,,255,255,128 M,0,30542,30692,358,264,474,313 F,0,30542,30692,1 F,0,30692,30730,1,0
Sprite,Foreground,Centre,"ring.png",320,240 F,0,30702,30777,0,1 C,0,30777,,255,255,128 M,0,30777,30927,335,208,381,88 F,0,30777,30927,1 F,0,30927,30965,1,0
Sprite,Foreground,Centre,"ring.png",320,240 F,0,30936,31011,0,1 C,0,31011,,255,255,128 M,0,31011,31161,358,230,472,178 F,0,31011,31161,1 F,0,31161,31199,1,0
Sprite,Foreground,Centre,"ring.png",320,240 F,0,31170,31245,0,1 C,0,31245,,255,255,128 M,0,31245,31395,335,208,381,88 F,0,31245,31395,1 F,0,31395,31433,1,0
Sprite,Foreground,Centre,"lt.png",320,240 F,0,31480,31630,0,1 R,0,31630,,-2.001489 C,0,31630,,128,255,255 M,0,31630,32099,204,116,340,412
Sprite,Foreground,Centre,"lt.png",320,240 F,0,32183,32333,0,1 R,0,32333,,-0.4409795 C,0,32333,,128,255,255 M,0,32333,32567,445,260,204,380
Sprite,Foreground,Centre,"ring.png",320,240 F,0,32577,32652,0,1 C,0,32652,,255,255,128 M,0,32652,32802,279,232,157,184 F,0,32652,32802,1 F,0,32802,32840,1,0
Sprite,Foreground,Centre,"ring.png",320,240 F,0,32811,32886,0,1 C,0,32886,,255,255,128 M,0,32886,33036,358,230,472,178 F,0,32886,33036,1 F,0,33036,33074,1,0
Sprite,Foreground,Centre,"ring.png",320,240 F,0,33045,33120,0,1 C,0,33120,,255,255,128 M,0,33120,33270,335,287,383,404 F,0,33120,33270,1 F,0,33270,33308,1,0
Sprite,Foreground,Centre,"ring.png",320,240 F,0,33514,33589,0,1 C,0,33589,,255,255,128 M,0,33589,33739,279,264,157,313 F,0,33589,33739,1 F,0,33739,33777,1,0
Sprite,Foreground,Centre,"ring.png",320,240 F,0,33748,33823,0,1 C,0,33823,,255,255,128 M,0,33823,33973,358,264,474,313 F,0,33823,33973,1 F,0,33973,34011,1,0
Sprite,Foreground,Centre,"ring.png",320,240 F,0,33983,34058,0,1 C,0,34058,,255,255,128 M,0,34058,34208,302,208,248,90 F,0,34058,34208,1 F,0,34208,34246,1,0
Sprite,Foreground,Centre,"ring.png",320,240 F,0,34217,34292,0,1 C,0,34292,,255,255,128 M,0,34292,34442,335,208,381,88 F,0,34292,34442,1 F,0,34442,34480,1,0
Sprite,Foreground,Centre,"ring.png",320,240 F,0,34452,34527,0,1 C,0,34527,,255,255,128 M,0,34527,34677,302,287,249,404 F,0,34527,34677,1 F,0,34677,34715,1,0
Sprite,Foreground,Centre,"ring.png",320,240 F,0,34686,34761,0,1 C,0,34761,,255,255,128 M,0,34761,34911,279,264,157,313 F,0,34761,34911,1 F,0,34911,34949,1,0
Sprite,Foreground,Centre,"ring.png",320,240 F,0,34920,34995,0,1 C,0,34995,,255,255,128 M,0,34995,35145,302,287,249,404 F,0,34995,35145,1 F,0,35145,35183,1,0
Sprite,Foreground,Centre,"lt.png",320,240 F,0,35230,35380,0,1 R,0,35380,,-0.4905284 C,0,35380,,128,255,255 M,0,35380,35732,445,261,204,380
Sprite,Foreground,Centre,"ring.png",320,240 F,0,35623,35698,0,1 C,0,35698,,255,255,128 M,0,35698,35848,302,287,249,404 F,0,35698,35848,1 F,0,35848,35886,1,0
Sprite,Foreground,Centre,"ring.png",320,240 F,0,35858,35933,0,1 C,0,35933,,255,255,128 M,0,35933,36083,302,208,248,90 F,0,35933,36083,1 F,0,36083,36121,1,0
Sprite,Foreground,Centre,"ring.png",320,240 F,0,36092,36167,0,1 C,0,36167,,255,255,128 M,0,36167,36317,279,232,157,184 F,0,36167,36317,1 F,0,36317,36355,1,0
Sprite,Foreground,Centre,"ring.png",320,240 F,0,36327,36402,0,1 C,0,36402,,255,255,128 M,0,36402,36552,358,230,472,178 F,0,36402,36552,1 F,0,36552,36590,1,0
Sprite,Foreground,Centre,"ring.png",320,240 F,0,36561,36636,0,1 C,0,36636,,255,255,128 M,0,36636,36786,358,230,472,178 F,0,36636,36786,1 F,0,36786,36824,1,0
Sprite,Foreground,Centre,"lt.png",320,240 F,0,36870,37020,0,1 R,0,37020,,2.74307 C,0,37020,,128,255,255 M,0,37020,37254,180,352,484,224
Sprite,Foreground,Centre,"ring.png",320,240 F,0,37264,37339,0,1 C,0,37339,,255,255,128 M,0,37339,37489,335,208,381,88 F,0,37339,37489,1 F,0,37489,37527,1,0
Sprite,Foreground,Centre,"ring.png",320,240 F,0,37498,37573,0,1 C,0,37573,,255,255,128 M,0,37573,37723,358,264,474,313 F,0,37573,37723,1 F,0,37723,37761,1,0
Sprite,Foreground,Centre,"ring.png",320,240 F,0,37733,37808,0,1 C,0,37808,,255,255,128 M,0,37808,37958,302,287,249,404 F,0,37808,37958,1 F,0,37958,37996,1,0
Sprite,Foreground,Centre,"ring.png",320,240 F,0,37967,38042,0,1 C,0,38042,,255,255,128 M,0,38042,38192,279,232,157,184 F,0,38042,38192,1 F,0,38192,38230,1,0
Sprite,Foreground,Centre,"ring.png",320,240 F,0,38202,38277,0,1 C,0,38277,,255,255,128 M,0,38277,38427,302,208,248,90 F,0,38277,38427,1 F,0,38427,38465,1,0
Sprite,Foreground,Centre,"ring.png",320,240 F,0,38436,38511,0,1 C,0,38511,,255,255,128 M,0,38511,38661,302,208,248,90 F,0,38511,38661,1 F,0,38661,38699,1,0
Sprite,Foreground,Centre,"ring.png",320,240 F,0,38670,38745,0,1 C,0,38745,,255,255,128 M,0,38745,38895,335,287,383,404 F,0,38745,38895,1 F,0,38895,38933,1,0
Sprite,Foreground,Centre,"lt.png",320,240 F,0,38980,39130,0,1 R,0,39130,,0 C,0,39130,,128,255,255 M,0,39130,39482,456,352,180,352
Sprite,Foreground,Centre,"ring.png",320,240 F,0,39373,39448,0,1 C,0,39448,,255,255,128 M,0,39448,39598,279,232,157,184 F,0,39448,39598,1 F,0,39598,39636,1,0
Sprite,Foreground,Centre,"ring.png",320,240 F,0,39608,39683,0,1 C,0,39683,,255,255,128 M,0,39683,39833,302,287,249,404 F,0,39683,39833,1 F,0,39833,39871,1,0
Sprite,Foreground,Centre,"ring.png",320,240 F,0,39842,39917,0,1 C,0,39917,,255,255,128 M,0,39917,40067,358,230,472,178 F,0,39917,40067,1 F,0,40067,40105,1,0
Sprite,Foreground,Centre,"ring.png",320,240 F,0,40077,40152,0,1 C,0,40152,,255,255,128 M,0,40152,40302,279,232,157,184 F,0,40152,40302,1 F,0,40302,40340,1,0
Sprite,Foreground,Centre,"ring.png",320,240 F,0,40311,40386,0,1 C,0,40386,,255,255,128 M,0,40386,40536,335,208,381,88 F,0,40386,40536,1 F,0,40536,40574,1,0
Sprite,Foreground,Centre,"ring.png",320,240 F,0,40545,40620,0,1 C,0,40620,,255,255,128 M,0,40620,40770,335,287,383,404 F,0,40620,40770,1 F,0,40770,40808,1,0
Sprite,Foreground,Centre,"ring.png",320,240 F,0,40780,40855,0,1 C,0,40855,,255,255,128 M,0,40855,41005,358,264,474,313 F,0,40855,41005,1 F,0,41005,41043,1,0
Sprite,Foreground,Centre,"ring.png",320,240 F,0,40897,40972,0,1 C,0,40972,,255,255,128 M,0,40972,41122,358,264,474,313 F,0,40972,41122,1 F,0,41122,41160,1,0
Sprite,Foreground,Centre,"ring.png",320,240 F,0,41014,41089,0,1 C,0,41089,,255,255,128 M,0,41089,41239,358,230,472,178 F,0,41089,41239,1 F,0,41239,41277,1,0
Sprite,Foreground,Centre,"ring.png",320,240 F,0,41248,41323,0,1 C,0,41323,,255,255,128 M,0,41323,41473,335,208,381,88 F,0,41323,41473,1 F,0,41473,41511,1,0
Sprite,Foreground,Centre,"ring.png",320,240 F,0,41483,41558,0,1 C,0,41558,,255,255,128 M,0,41558,41708,302,208,248,90 F,0,41558,41708,1 F,0,41708,41746,1,0
Sprite,Foreground,Centre,"ring.png",320,240 F,0,41717,41792,0,1 C,0,41792,,255,255,128 M,0,41792,41942,279,232,157,184 F,0,41792,41942,1 F,0,41942,41980,1,0
Sprite,Foreground,Centre,"ring.png",320,240 F,0,41952,42027,0,1 C,0,42027,,255,255,128 M,0,42027,42177,279,264,157,313 F,0,42027,42177,1 F,0,42177,42215,1,0
Sprite,Foreground,Centre,"ring.png",320,240 F,0,42186,42261,0,1 C,0,42261,,255,255,128 M,0,42261,42411,279,232,157,184 F,0,42261,42411,1 F,0,42411,42449,1,0
Sprite,Foreground,Centre,"ring.png",320,240 F,0,42420,42495,0,1 C,0,42495,,255,255,128 M,0,42495,42645,302,287,249,404 F,0,42495,42645,1 F,0,42645,42683,1,0
Sprite,Foreground,Centre,"ring.png",320,240 F,0,42655,42730,0,1 C,0,42730,,255,255,128 M,0,42730,42880,335,287,383,404 F,0,42730,42880,1 F,0,42880,42918,1,0
Sprite,Foreground,Centre,"ring.png",320,240 F,0,42772,42847,0,1 C,0,42847,,255,255,128 M,0,42847,42997,335,287,383,404 F,0,42847,42997,1 F,0,42997,43035,1,0
Sprite,Foreground,Centre,"ring.png",320,240 F,0,42889,42964,0,1 C,0,42964,,255,255,128 M,0,42964,43114,335,287,383,404 F,0,42964,43114,1 F,0,43114,43152,1,0
Sprite,Foreground,Centre,"ring.png",320,240 F,0,43123,43198,0,1 C,0,43198,,255,255,128 M,0,43198,43348,358,264,474,313 F,0,43198,43348,1 F,0,43348,43386,1,0
Sprite,Foreground,Centre,"ring.png",320,240 F,0,43358,43433,0,1 C,0,43433,,255,255,128 M,0,43433,43583,358,230,472,178 F,0,43433,43583,1 F,0,43583,43621,1,0
Sprite,Foreground,Centre,"ring.png",320,240 F,0,43592,43667,0,1 C,0,43667,,255,255,128 M,0,43667,43817,335,208,381,88 F,0,43667,43817,1 F,0,43817,43855,1,0
Sprite,Foreground,Centre,"ring.png",320,240 F,0,43827,43902,0,1 C,0,43902,,255,255,128 M,0,43902,44052,279,232,157,184 F,0,43902,44052,1 F,0,44052,44090,1,0
Sprite,Foreground,Centre,"ring.png",320,240 F,0,44061,44136,0,1 C,0,44136,,255,255,128 M,0,44136,44286,358,264,474,313 F,0,44136,44286,1 F,0,44286,44324,1,0
Sprite,Foreground,Centre,"ring.png",320,240 F,0,44295,44370,0,1 C,0,44370,,255,255,128 M,0,44370,44520,279,264,157,313 F,0,44370,44520,1 F,0,44520,44558,1,0
Sprite,Foreground,Centre,"ring.png",320,240 F,0,44530,44605,0,1 C,0,44605,,255,255,128 M,0,44605,44755,358,230,472,178 F,0,44605,44755,1 F,0,44755,44793,1,0
Sprite,Foreground,Centre,"ring.png",320,240 F,0,44764,44839,0,1 C,0,44839,,255,255,128 M,0,44839,44989,302,208,248,90 F,0,44839,44989,1 F,0,44989,45027,1,0
Sprite,Foreground,Centre,"ring.png",320,240 F,0,45702,45777,0,1 C,0,45777,,255,255,128 M,0,45777,45927,302,208,248,90 F,0,45777,45927,1 F,0,45927,45965,1,0
Sprite,Foreground,Centre,"ring.png",320,240 F,0,46170,46245,0,1 C,0,46245,,255,255,128 M,0,46245,46395,279,232,157,184 F,0,46245,46395,1 F,0,46395,46433,1,0
Sprite,Foreground,Centre,"ring.png",320,240 F,0,46405,46480,0,1 C,0,46480,,255,255,128 M,0,46480,46630,302,208,248,90 F,0,46480,46630,1 F,0,46630,46668,1,0
Sprite,Foreground,Centre,"ring.png",320,240 F,0,46873,46948,0,1 C,0,46948,,255,255,128 M,0,46948,47098,358,264,474,313 F,0,46948,47098,1 F,0,47098,47136,1,0
Sprite,Foreground,Centre,"ring.png",320,240 F,0,47108,47183,0,1 C,0,47183,,255,255,128 M,0,47183,47333,302,287,249,404 F,0,47183,47333,1 F,0,47333,47371,1,0
Sprite,Foreground,Centre,"ring.png",320,240 F,0,47342,47417,0,1 C,0,47417,,255,255,128 M,0,47417,47567,335,287,383,404 F,0,47417,47567,1 F,0,47567,47605,1,0
Sprite,Foreground,Centre,"ring.png",320,240 F,0,47577,47652,0,1 C,0,47652,,255,255,128 M,0,47652,47802,279,264,157,313 F,0,47652,47802,1 F,0,47802,47840,1,0
Sprite,Foreground,Centre,"ring.png",320,240 F,0,47811,47886,0,1 C,0,47886,,255,255,128 M,0,47886,48036,302,287,249,404 F,0,47886,48036,1 F,0,48036,48074,1,0
Sprite,Foreground,Centre,"ring.png",320,240 F,0,48045,48120,0,1 C,0,48120,,255,255,128 M,0,48120,48270,358,230,472,178 F,0,48120,48270,1 F,0,48270,48308,1,0
Sprite,Foreground,Centre,"ring.png",320,240 F,0,48397,48472,0,1 C,0,48472,,255,255,128 M,0,48472,48622,279,232,157,184 F,0,48472,48622,1 F,0,48622,48660,1,0
Sprite,Foreground,Centre,"lt.png",320,240 F,0,48589,48739,0,1 R,0,48739,,-1.46945 C,0,48739,,128,255,255 M,0,48739,49091,204,116,180,352
Sprite,Foreground,Centre,"ring.png",320,240 F,0,48983,49058,0,1 C,0,49058,,255,255,128 M,0,49058,49208,335,287,383,404 F,0,49058,49208,1 F,0,49208,49246,1,0
Sprite,Foreground,Centre,"ring.png",320,240 F,0,49217,49292,0,1 C,0,49292,,255,255,128 M,0,49292,49442,358,264,474,313 F,0,49292,49442,1 F,0,49442,49480,1,0
Sprite,Foreground,Centre,"ring.png",320,240 F,0,49452,49527,0,1 C,0,49527,,255,255,128 M,0,49527,49677,335,208,381,88 F,0,49527,49677,1 F,0,49677,49715,1,0
Sprite,Foreground,Centre,"ring.png",320,240 F,0,49569,49644,0,1 C,0,49644,,255,255,128 M,0,49644,49794,335,208,381,88 F,0,49644,49794,1 F,0,49794,49832,1,0
Sprite,Foreground,Centre,"ring.png",320,240 F,0,49803,49878,0,1 C,0,49878,,255,255,128 M,0,49878,50028,302,208,248,90 F,0,49878,50028,1 F,0,50028,50066,1,0
Sprite,Foreground,Centre,"ring.png",320,240 F,0,49920,49995,0,1 C,0,49995,,255,255,128 M,0,49995,50145,302,208,248,90 F,0,49995,50145,1 F,0,50145,50183,1,0
Sprite,Foreground,Centre,"ring.png",320,240 F,0,50155,50230,0,1 C,0,50230,,255,255,128 M,0,50230,50380,358,230,472,178 F,0,50230,50380,1 F,0,50380,50418,1,0
Sprite,Foreground,Centre,"ring.png",320,240 F,0,50389,50464,0,1 C,0,50464,,255,255,128 M,0,50464,50614,279,232,157,184 F,0,50464,50614,1 F,0,50614,50652,1,0
Sprite,Foreground,Centre,"ring.png",320,240 F,0,50741,50816,0,1 C,0,50816,,255,255,128 M,0,50816,50966,302,287,249,404 F,0,50816,50966,1 F,0,50966,51004,1,0
Sprite,Foreground,Centre,"ring.png",320,240 F,0,50858,50933,0,1 C,0,50933,,255,255,128 M,0,50933,51083,302,287,249,404 F,0,50933,51083,1 F,0,51083,51121,1,0
Sprite,Foreground,Centre,"ring.png",320,240 F,0,51092,51167,0,1 C,0,51167,,255,255,128 M,0,51167,51317,358,264,474,313 F,0,51167,51317,1 F,0,51317,51355,1,0
Sprite,Foreground,Centre,"ring.png",320,240 F,0,51327,51402,0,1 C,0,51402,,255,255,128 M,0,51402,51552,335,208,381,88 F,0,51402,51552,1 F,0,51552,51590,1,0
Sprite,Foreground,Centre,"ring.png",320,240 F,0,51444,51519,0,1 C,0,51519,,255,255,128 M,0,51519,51669,302,208,248,90 F,0,51519,51669,1 F,0,51669,51707,1,0
Sprite,Foreground,Centre,"ring.png",320,240 F,0,51561,51636,0,1 C,0,51636,,255,255,128 M,0,51636,51786,279,232,157,184 F,0,51636,51786,1 F,0,51786,51824,1,0
Sprite,Foreground,Centre,"ring.png",320,240 F,0,51795,51870,0,1 C,0,51870,,255,255,128 M,0,51870,52020,335,287,383,404 F,0,51870,52020,1 F,0,52020,52058,1,0
Sprite,Foreground,Centre,"ring.png",320,240 F,0,52030,52105,0,1 C,0,52105,,255,255,128 M,0,52105,52255,358,230,472,178 F,0,52105,52255,1 F,0,52255,52293,1,0
Sprite,Foreground,Centre,"lt.png",320,240 F,0,52339,52489,0,1 R,0,52489,,1.672143 C,0,52489,,128,255,255 M,0,52489,52723,180,352,204,116
Sprite,Foreground,Centre,"ring.png",320,240 F,0,52616,52691,0,1 C,0,52691,,255,255,128 M,0,52691,52841,335,208,381,88 F,0,52691,52841,1 F,0,52841,52879,1,0
Sprite,Foreground,Centre,"ring.png",320,240 F,0,52967,53042,0,1 C,0,53042,,255,255,128 M,0,53042,53192,358,264,474,313 F,0,53042,53192,1 F,0,53192,53230,1,0
Sprite,Foreground,Centre,"lt.png",320,240 F,0,53277,53427,0,1 R,0,53427,,-2.698843 C,0,53427,,128,255,255 M,0,53427,53661,199,271,404,349
Sprite,Foreground,Centre,"ring.png",320,240 F,0,53553,53628,0,1 C,0,53628,,255,255,128 M,0,53628,53778,358,264,474,313 F,0,53628,53778,1 F,0,53778,53816,1,0
Sprite,Foreground,Centre,"ring.png",320,240 F,0,53905,53980,0,1 C,0,53980,,255,255,128 M,0,53980,54130,302,208,248,90 F,0,53980,54130,1 F,0,54130,54168,1,0
Sprite,Foreground,Centre,"ring.png",320,240 F,0,54139,54214,0,1 C,0,54214,,255,255,128 M,0,54214,54364,358,230,472,178 F,0,54214,54364,1 F,0,54364,54402,1,0
Sprite,Foreground,Centre,"ring.png",320,240 F,0,54373,54448,0,1 C,0,54448,,255,255,128 M,0,54448,54598,279,232,157,184 F,0,54448,54598,1 F,0,54598,54636,1,0
Sprite,Foreground,Centre,"ring.png",320,240 F,0,54608,54683,0,1 C,0,54683,,255,255,128 M,0,54683,54833,358,230,472,178 F,0,54683,54833,1 F,0,54833,54871,1,0
Sprite,Foreground,Centre,"lt.png",320,240 F,0,54917,55067,0,1 R,0,55067,,-1.570796 C,0,55067,,128,255,255 M,0,55067,55419,428,116,428,380
Sprite,Foreground,Centre,"ring.png",320,240 F,0,55311,55386,0,1 C,0,55386,,255,255,128 M,0,55386,55536,358,264,474,313 F,0,55386,55536,1 F,0,55536,55574,1,0
Sprite,Foreground,Centre,"ring.png",320,240 F,0,55545,55620,0,1 C,0,55620,,255,255,128 M,0,55620,55770,279,264,157,313 F,0,55620,55770,1 F,0,55770,55808,1,0
Sprite,Foreground,Centre,"ring.png",320,240 F,0,55780,55855,0,1 C,0,55855,,255,255,128 M,0,55855,56005,302,208,248,90 F,0,55855,56005,1 F,0,56005,56043,1,0
Sprite,Foreground,Centre,"ring.png",320,240 F,0,55897,55972,0,1 C,0,55972,,255,255,128 M,0,55972,56122,279,232,157,184 F,0,55972,56122,1 F,0,56122,56160,1,0
Sprite,Foreground,Centre,"ring.png",320,240 F,0,56014,56089,0,1 C,0,56089,,255,255,128 M,0,56089,56239,302,208,248,90 F,0,56089,56239,1 F,0,56239,56277,1,0
Sprite,Foreground,Centre,"ring.png",320,240 F,0,56366,56441,0,1 C,0,56441,,255,255,128 M,0,56441,56591,358,230,472,178 F,0,56441,56591,1 F,0,56591,56629,1,0
Sprite,Foreground,Centre,"ring.png",320,240 F,0,56483,56558,0,1 C,0,56558,,255,255,128 M,0,56558,56708,358,264,474,313 F,0,56558,56708,1 F,0,56708,56746,1,0
Sprite,Foreground,Centre,"ring.png",320,240 F,0,56717,56792,0,1 C,0,56792,,255,255,128 M,0,56792,56942,335,287,383,404 F,0,56792,56942,1 F,0,56942,56980,1,0
Sprite,Foreground,Centre,"ring.png",320,240 F,0,56952,57027,0,1 C,0,57027,,255,255,128 M,0,57027,57177,302,287,249,404 F,0,57027,57177,1 F,0,57177,57215,1,0
Sprite,Foreground,Centre,"ring.png",320,240 F,0,57069,57144,0,1 C,0,57144,,255,255,128 M,0,57144,57294,279,264,157,313 F,0,57144,57294,1 F,0,57294,57332,1,0
Sprite,Foreground,Centre,"ring.png",320,240 F,0,57186,57261,0,1 C,0,57261,,255,255,128 M,0,57261,57411,302,287,249,404 F,0,57261,57411,1 F,0,57411,57449,1,0
Sprite,Foreground,Centre,"ring.png",320,240 F,0,57420,57495,0,1 C,0,57495,,255,255,128 M,0,57495,57645,335,208,381,88 F,0,57495,57645,1 F,0,57645,57683,1,0
Sprite,Foreground,Centre,"ring.png",320,240 F,0,57655,57730,0,1 C,0,57730,,255,255,128 M,0,57730,57880,279,232,157,184 F,0,57730,57880,1 F,0,57880,57918,1,0
Sprite,Foreground,Centre,"ring.png",320,240 F,0,57889,57964,0,1 C,0,57964,,255,255,128 M,0,57964,58114,358,264,474,313 F,0,57964,58114,1 F,0,58114,58152,1,0
Sprite,Foreground,Centre,"ring.png",320,240 F,0,58123,58198,0,1 C,0,58198,,255,255,128 M,0,58198,58348,302,208,248,90 F,0,58198,58348,1 F,0,58348,58386,1,0
Sprite,Foreground,Centre,"ring.png",320,240 F,0,58241,58316,0,1 C,0,58316,,255,255,128 M,0,58316,58466,302,208,248,90 F,0,58316,58466,1 F,0,58466,58504,1,0
Sprite,Foreground,Centre,"ring.png",320,240 F,0,58592,58667,0,1 C,0,58667,,255,255,128 M,0,58667,58817,358,230,472,178 F,0,58667,58817,1 F,0,58817,58855,1,0
Sprite,Foreground,Centre,"ring.png",320,240 F,0,58827,58902,0,1 C,0,58902,,255,255,128 M,0,58902,59052,335,287,383,404 F,0,58902,59052,1 F,0,59052,59090,1,0
Sprite,Foreground,Centre,"ring.png",320,240 F,0,58944,59019,0,1 C,0,59019,,255,255,128 M,0,59019,59169,358,264,474,313 F,0,59019,59169,1 F,0,59169,59207,1,0
Sprite,Foreground,Centre,"ring.png",320,240 F,0,59178,59253,0,1 C,0,59253,,255,255,128 M,0,59253,59403,279,232,157,184 F,0,59253,59403,1 F,0,59403,59441,1,0
Sprite,Foreground,Centre,"ring.png",320,240 F,0,59295,59370,0,1 C,0,59370,,255,255,128 M,0,59370,59520,302,208,248,90 F,0,59370,59520,1 F,0,59520,59558,1,0
Sprite,Foreground,Centre,"ring.png",320,240 F,0,59530,59605,0,1 C,0,59605,,255,255,128 M,0,59605,59755,335,208,381,88 F,0,59605,59755,1 F,0,59755,59793,1,0
Sprite,Foreground,Centre,"ring.png",320,240 F,0,59764,59839,0,1 C,0,59839,,255,255,128 M,0,59839,59989,279,264,157,313 F,0,59839,59989,1 F,0,59989,60027,1,0
Sprite,Foreground,Centre,"ring.png",320,240 F,0,60116,60191,0,1 C,0,60191,,255,255,128 M,0,60191,60341,302,287,249,404 F,0,60191,60341,1 F,0,60341,60379,1,0
Sprite,Foreground,Centre,"ring.png",320,240 F,0,60467,60542,0,1 C,0,60542,,255,255,128 M,0,60542,60692,358,264,474,313 F,0,60542,60692,1 F,0,60692,60730,1,0
Sprite,Foreground,Centre,"ring.png",320,240 F,0,60702,60777,0,1 C,0,60777,,255,255,128 M,0,60777,60927,358,230,472,178 F,0,60777,60927,1 F,0,60927,60965,1,0
Sprite,Foreground,Centre,"ring.png",320,240 F,0,61053,61128,0,1 C,0,61128,,255,255,128 M,0,61128,61278,335,287,383,404 F,0,61128,61278,1 F,0,61278,61316,1,0
Sprite,Foreground,Centre,"ring.png",320,240 F,0,61170,61245,0,1 C,0,61245,,255,255,128 M,0,61245,61395,335,287,383,404 F,0,61245,61395,1 F,0,61395,61433,1,0
Sprite,Foreground,Centre,"ring.png",320,240 F,0,61405,61480,0,1 C,0,61480,,255,255,128 M,0,61480,61630,279,232,157,184 F,0,61480,61630,1 F,0,61630,61668,1,0
Sprite,Foreground,Centre,"ring.png",320,240 F,0,61639,61714,0,1 C,0,61714,,255,255,128 M,0,61714,61864,335,208,381,88 F,0,61714,61864,1 F,0,61864,61902,1,0
Sprite,Foreground,Centre,"ring.png",320,240 F,0,61991,62066,0,1 C,0,62066,,255,255,128 M,0,62066,62216,302,208,248,90 F,0,62066,62216,1 F,0,62216,62254,1,0
Sprite,Foreground,Centre,"ring.png",320,240 F,0,62108,62183,0,1 C,0,62183,,255,255,128 M,0,62183,62333,335,208,381,88 F,0,62183,62333,1 F,0,62333,62371,1,0
Sprite,Foreground,Centre,"ring.png",320,240 F,0,62342,62417,0,1 C,0,62417,,255,255,128 M,0,62417,62567,358,264,474,313 F,0,62417,62567,1 F,0,62567,62605,1,0
Sprite,Foreground,Centre,"ring.png",320,240 F,0,62577,62652,0,1 C,0,62652,,255,255,128 M,0,62652,62802,302,287,249,404 F,0,62652,62802,1 F,0,62802,62840,1,0
Sprite,Foreground,Centre,"ring.png",320,240 F,0,62694,62769,0,1 C,0,62769,,255,255,128 M,0,62769,62919,279,264,157,313 F,0,62769,62919,1 F,0,62919,62957,1,0
Sprite,Foreground,Centre,"ring.png",320,240 F,0,62811,62886,0,1 C,0,62886,,255,255,128 M,0,62886,63036,279,264,157,313 F,0,62886,63036,1 F,0,63036,63074,1,0
Sprite,Foreground,Centre,"ring.png",320,240 F,0,62928,63003,0,1 C,0,63003,,255,255,128 M,0,63003,63153,279,264,157,313 F,0,63003,63153,1 F,0,63153,63191,1,0
Sprite,Foreground,Centre,"ring.png",320,240 F,0,63045,63120,0,1 C,0,63120,,255,255,128 M,0,63120,63270,279,232,157,184 F,0,63120,63270,1 F,0,63270,63308,1,0
Sprite,Foreground,Centre,"ring.png",320,240 F,0,63280,63355,0,1 C,0,63355,,255,255,128 M,0,63355,63505,358,230,472,178 F,0,63355,63505,1 F,0,63505,63543,1,0
Sprite,Foreground,Centre,"ring.png",320,240 F,0,63397,63472,0,1 C,0,63472,,255,255,128 M,0,63472,63622,358,230,472,178 F,0,63472,63622,1 F,0,63622,63660,1,0
Sprite,Foreground,Centre,"ring.png",320,240 F,0,63514,63589,0,1 C,0,63589,,255,255,128 M,0,63589,63739,335,208,381,88 F,0,63589,63739,1 F,0,63739,63777,1,0
Sprite,Foreground,Centre,"ring.png",320,240 F,0,63866,63941,0,1 C,0,63941,,255,255,128 M,0,63941,64091,335,287,383,404 F,0,63941,64091,1 F,0,64091,64129,1,0
Sprite,Foreground,Centre,"ring.png",320,240 F,0,63983,64058,0,1 C,0,64058,,255,255,128 M,0,64058,64208,335,287,383,404 F,0,64058,64208,1 F,0,64208,64246,1,0
Sprite,Foreground,Centre,"ring.png",320,240 F,0,64217,64292,0,1 C,0,64292,,255,255,128 M,0,64292,64442,358,264,474,313 F,0,64292,64442,1 F,0,64442,64480,1,0
Sprite,Foreground,Centre,"ring.png",320,240 F,0,64452,64527,0,1 C,0,64527,,255,255,128 M,0,64527,64677,302,208,248,90 F,0,64527,64677,1 F,0,64677,64715,1,0
Sprite,Foreground,Centre,"ring.png",320,240 F,0,64569,64644,0,1 C,0,64644,,255,255,128 M,0,64644,64794,335,208,381,88 F,0,64644,64794,1 F,0,64794,64832,1,0
Sprite,Foreground,Centre,"ring.png",320,240 F,0,64803,64878,0,1 C,0,64878,,255,255,128 M,0,64878,65028,279,264,157,313 F,0,64878,65028,1 F,0,65028,65066,1,0
Sprite,Foreground,Centre,"ring.png",320,240 F,0,64920,64995,0,1 C,0,64995,,255,255,128 M,0,64995,65145,302,287,249,404 F,0,64995,65145,1 F,0,65145,65183,1,0
Sprite,Foreground,Centre,"ring.png",320,240 F,0,65155,65230,0,1 C,0,65230,,255,255,128 M,0,65230,65380,358,230,472,178 F,0,65230,65380,1 F,0,65380,65418,1,0
Sprite,Foreground,Centre,"ring.png",320,240 F,0,65389,65464,0,1 C,0,65464,,255,255,128 M,0,65464,65614,279,232,157,184 F,0,65464,65614,1 F,0,65614,65652,1,0
Sprite,Foreground,Centre,"ring.png",320,240 F,0,65741,65816,0,1 C,0,65816,,255,255,128 M,0,65816,65966,279,232,157,184 F,0,65816,65966,1 F,0,65966,66004,1,0
Sprite,Foreground,Centre,"ring.png",320,240 F,0,65975,66050,0,1 C,0,66050,,255,255,128 M,0,66050,66200,358,264,474,313 F,0,66050,66200,1 F,0,66200,66238,1,0
Sprite,Foreground,Centre,"ring.png",320,240 F,0,66092,66167,0,1 C,0,66167,,255,255,128 M,0,66167,66317,358,264,474,313 F,0,66167,66317,1 F,0,66317,66355,1,0
Sprite,Foreground,Centre,"ring.png",320,240 F,0,66327,66402,0,1 C,0,66402,,255,255,128 M,0,66402,66552,279,264,157,313 F,0,66402,66552,1 F,0,66552,66590,1,0
Sprite,Foreground,Centre,"ring.png",320,240 F,0,66561,66636,0,1 C,0,66636,,255,255,128 M,0,66636,66786,335,287,383,404 F,0,66636,66786,1 F,0,66786,66824,1,0
Sprite,Foreground,Centre,"ring.png",320,240 F,0,66795,66870,0,1 C,0,66870,,255,255,128 M,0,66870,67020,335,208,381,88 F,0,66870,67020,1 F,0,67020,67058,1,0
Sprite,Foreground,Centre,"ring.png",320,240 F,0,67030,67105,0,1 C,0,67105,,255,255,128 M,0,67105,67255,358,230,472,178 F,0,67105,67255,1 F,0,67255,67293,1,0
Sprite,Foreground,Centre,"lt.png",320,240 F,0,67339,67489,0,1 R,0,67489,,-1.570796 C,0,67489,,128,255,255 M,0,67489,67841,204,116,204,380
Sprite,Foreground,Centre,"lt.png",320,240 F,0,67808,67958,0,1 R,0,67958,,-3.029166 C,0,67958,,128,255,255 M,0,67958,68192,180,352,428,380
Sprite,Foreground,Centre,"ring.png",320,240 F,0,68202,68277,0,1 C,0,68277,,255,255,128 M,0,68277,68427,358,230,472,178 F,0,68277,68427,1 F,0,68427,68465,1,0
Sprite,Foreground,Centre,"ring.png",320,240 F,0,68319,68394,0,1 C,0,68394,,255,255,128 M,0,68394,68544,358,264,474,313 F,0,68394,68544,1 F,0,68544,68582,1,0
Sprite,Foreground,Centre,"ring.png",320,240 F,0,68436,68511,0,1 C,0,68511,,255,255,128 M,0,68511,68661,335,287,383,404 F,0,68511,68661,1 F,0,68661,68699,1,0
Sprite,Foreground,Centre,"ring.png",320,240 F,0,68670,68745,0,1 C,0,68745,,255,255,128 M,0,68745,68895,279,232,157,184 F,0,68745,68895,1 F,0,68895,68933,1,0
Sprite,Foreground,Centre,"ring.png",320,240 F,0,68905,68980,0,1 C,0,68980,,255,255,128 M,0,68980,69130,335,208,381,88 F,0,68980,69130,1 F,0,69130,69168,1,0
Sprite,Foreground,Centre,"ring.png",320,240 F,0,69139,69214,0,1 C,0,69214,,255,255,128 M,0,69214,69364,302,287,249,404 F,0,69214,69364,1 F,0,69364,69402,1,0
Sprite,Foreground,Centre,"ring.png",320,240 F,0,69491,69566,0,1 C,0,69566,,255,255,128 M,0,69566,69716,302,287,249,404 F,0,69566,69716,1 F,0,69716,69754,1,0
Sprite,Foreground,Centre,"ring.png",320,240 F,0,69842,69917,0,1 C,0,69917,,255,255,128 M,0,69917,70067,302,208,248,90 F,0,69917,70067,1 F,0,70067,70105,1,0
Sprite,Foreground,Centre,"ring.png",320,240 F,0,70077,70152,0,1 C,0,70152,,255,255,128 M,0,70152,70302,358,264,474,313 F,0,70152,70302,1 F,0,70302,70340,1,0
Sprite,Foreground,Centre,"ring.png",320,240 F,0,70311,70386,0,1 C,0,70386,,255,255,128 M,0,70386,70536,358,230,472,178 F,0,70386,70536,1 F,0,70536,70574,1,0
Sprite,Foreground,Centre,"ring.png",320,240 F,0,70545,70620,0,1 C,0,70620,,255,255,128 M,0,70620,70770,358,264,474,313 F,0,70620,70770,1 F,0,70770,70808,1,0
Sprite,Foreground,Centre,"ring.png",320,240 F,0,70780,70855,0,1 C,0,70855,,255,255,128 M,0,70855,71005,279,264,157,313 F,0,70855,71005,1 F,0,71005,71043,1,0
Sprite,Foreground,Centre,"lt.png",320,240 F,0,71089,71239,0,1 R,0,71239,,0.7690062 C,0,71239,,128,255,255 M,0,71239,71591,428,380,180,140
Sprite,Foreground,Centre,"ring.png",320,240 F,0,71483,71558,0,1 C,0,71558,,255,255,128 M,0,71558,71708,335,208,381,88 F,0,71558,71708,1 F,0,71708,71746,1,0
Sprite,Foreground,Centre,"ring.png",320,240 F,0,71717,71792,0,1 C,0,71792,,255,255,128 M,0,71792,71942,302,287,249,404 F,0,71792,71942,1 F,0,71942,71980,1,0
Sprite,Foreground,Centre,"ring.png",320,240 F,0,71952,72027,0,1 C,0,72027,,255,255,128 M,0,72027,72177,358,230,472,178 F,0,72027,72177,1 F,0,72177,72215,1,0
Sprite,Foreground,Centre,"ring.png",320,240 F,0,72186,72261,0,1 C,0,72261,,255,255,128 M,0,72261,72411,302,208,248,90 F,0,72261,72411,1 F,0,72411,72449,1,0
Sprite,Foreground,Centre,"ring.png",320,240 F,0,72420,72495,0,1 C,0,72495,,255,255,128 M,0,72495,72645,358,230,472,178 F,0,72495,72645,1 F,0,72645,72683,1,0
Sprite,Foreground,Centre,"ring.png",320,240 F,0,72537,72612,0,1 C,0,72612,,255,255,128 M,0,72612,72762,358,264,474,313 F,0,72612,72762,1 F,0,72762,72800,1,0
Sprite,Foreground,Centre,"ring.png",320,240 F,0,72772,72847,0,1 C,0,72847,,255,255,128 M,0,72847,72997,279,264,157,313 F,0,72847,72997,1 F,0,72997,73035,1,0
Sprite,Foreground,Centre,"lt.png",320,240 F,0,72964,73114,0,1 R,0,73114,,1.570796 C,0,73114,,128,255,255 M,0,73114,73466,204,380,204,116
Sprite,Foreground,Centre,"ring.png",320,240 F,0,73358,73433,0,1 C,0,73433,,255,255,128 M,0,73433,73583,335,287,383,404 F,0,73433,73583,1 F,0,73583,73621,1,0
Sprite,Foreground,Centre,"ring.png",320,240 F,0,73592,73667,0,1 C,0,73667,,255,255,128 M,0,73667,73817,358,230,472,178 F,0,73667,73817,1 F,0,73817,73855,1,0
Sprite,Foreground,Centre,"ring.png",320,240 F,0,73827,73902,0,1 C,0,73902,,255,255,128 M,0,73902,74052,279,232,157,184 F,0,73902,74052,1 F,0,74052,74090,1,0
Sprite,Foreground,Centre,"ring.png",320,240 F,0,74061,74136,0,1 C,0,74136,,255,255,128 M,0,74136,74286,335,208,381,88 F,0,74136,74286,1 F,0,74286,74324,1,0
Sprite,Foreground,Centre,"ring.png",320,240 F,0,74295,74370,0,1 C,0,74370,,255,255,128 M,0,74370,74520,358,264,474,313 F,0,74370,74520,1 F,0,74520,74558,1,0
Sprite,Foreground,Centre,"ring.png",320,240 F,0,74530,74605,0,1 C,0,74605,,255,255,128 M,0,74605,74755,279,264,157,313 F,0,74605,74755,1 F,0,74755,74793,1,0
Sprite,Foreground,Centre,"lt.png",320,240 F,0,74839,74989,0,1 R,0,74989,,1.570796 C,0,74989,,128,255,255 M,0,74989,75341,204,380,204,116
Sprite,Foreground,Centre,"ring.png",320,240 F,0,75233,75308,0,1 C,0,75308,,255,255,128 M,0,75308,75458,279,232,157,184 F,0,75308,75458,1 F,0,75458,75496,1,0
Sprite,Foreground,Centre,"ring.png",320,240 F,0,75467,75542,0,1 C,0,75542,,255,255,128 M,0,75542,75692,358,264,474,313 F,0,75542,75692,1 F,0,75692,75730,1,0
Sprite,Foreground,Centre,"lt.png",320,240 F,0,75776,75926,0,1 R,0,75926,,1.570796 C,0,75926,,128,255,255 M,0,75926,76278,428,380,428,116
Sprite,Foreground,Centre,"ring.png",320,240 F,0,76170,76245,0,1 C,0,76245,,255,255,128 M,0,76245,76395,358,230,472,178 F,0,76245,76395,1 F,0,76395,76433,1,0
Sprite,Foreground,Centre,"ring.png",320,240 F,0,76405,76480,0,1 C,0,76480,,255,255,128 M,0,76480,76630,279,264,157,313 F,0,76480,76630,1 F,0,76630,76668,1,0
Sprite,Foreground,Centre,"ring.png",320,240 F,0,76639,76714,0,1 C,0,76714,,255,255,128 M,0,76714,76864,358,264,474,313 F,0,76714,76864,1 F,0,76864,76902,1,0
Sprite,Foreground,Centre,"ring.png",320,240 F,0,76991,77066,0,1 C,0,77066,,255,255,128 M,0,77066,77216,302,208,248,90 F,0,77066,77216,1 F,0,77216,77254,1,0
Sprite,Foreground,Centre,"ring.png",320,240 F,0,77342,77417,0,1 C,0,77417,,255,255,128 M,0,77417,77567,335,208,381,88 F,0,77417,77567,1 F,0,77567,77605,1,0
Sprite,Foreground,Centre,"ring.png",320,240 F,0,77459,77534,0,1 C,0,77534,,255,255,128 M,0,77534,77684,335,208,381,88 F,0,77534,77684,1 F,0,77684,77722,1,0
Sprite,Foreground,Centre,"ring.png",320,240 F,0,77577,77652,0,1 C,0,77652,,255,255,128 M,0,77652,77802,335,208,381,88 F,0,77652,77802,1 F,0,77802,77840,1,0
Sprite,Foreground,Centre,"ring.png",320,240 F,0,77811,77886,0,1 C,0,77886,,255,255,128 M,0,77886,78036,279,232,157,184 F,0,77886,78036,1 F,0,78036,78074,1,0
Sprite,Foreground,Centre,"ring.png",320,240 F,0,78045,78120,0,1 C,0,78120,,255,255,128 M,0,78120,78270,358,230,472,178 F,0,78120,78270,1 F,0,78270,78308,1,0
Sprite,Foreground,Centre,"lt.png",320,240 F,0,78355,78505,0,1 R,0,78505,,0.7690062 C,0,78505,,128,255,255 F,0,78505,80145,1,0.2196129 M,0,78505,80146,428,380,180,140
//Storyboard Sound Samples
//Background Colour Transformations
3,100,163,162,255

[TimingPoints]
3739.5,468.75,4,1,1,70,1,0
20380,-106.382978723404,4,1,1,70,0,0
25302,-50,4,1,1,70,0,0
27880,-106.382978723404,4,1,1,70,0,0
32333,-75.7575757575758,4,1,1,70,0,0
35380,-100,4,1,1,70,0,0
37020,-52.6315789473684,4,1,1,70,0,0
39130,-78.125,4,1,1,70,0,0
48739,-95.2380952380952,4,1,1,70,0,1
52489,-67.5675675675676,4,1,1,70,0,1
55067,-83.3333333333333,4,1,1,70,0,1
67958,-67.5675675675676,4,1,1,70,0,1
71239,-83.3333333333333,4,1,1,70,0,1
73114,-80.6451612903226,4,1,1,70,0,1
78505,-322.58064516129,4,2,1,70,0,0

[Colours]
Combo1 : 255,128,128
Combo2 : 47,225,221
Combo3 : 212,212,212

[HitObjects]
317,32,3739,1,0,0:0:0:0:
185,348,4677,1,0,0:0:0:0:
93,128,5614,1,0,0:0:0:0:
410,257,6552,1,0,0:0:0:0:
184,34,7255,1,0,0:0:0:0:
317,32,7489,1,0,0:0:0:0:
319,348,8427,1,0,0:0:0:0:
93,128,9364,1,0,0:0:0:0:
408,122,10302,1,0,0:0:0:0:
408,122,10536,1,0,0:0:0:0:
185,348,11239,1,0,0:0:0:0:
93,257,11473,1,0,0:0:0:0:
319,348,11708,1,0,0:0:0:0:
184,34,12177,1,0,0:0:0:0:
93,128,12411,1,0,0:0:0:0:
184,34,12645,1,0,0:0:0:0:
410,257,13114,1,0,0:0:0:0:
408,122,13583,1,0,0:0:0:0:
317,32,14052,1,0,0:0:0:0:
93,128,14520,1,0,0:0:0:0:
93,257,14755,1,0,0:0:0:0:
184,34,14989,1,0,0:0:0:0:
319,348,15458,1,0,0:0:0:0:
410,257,15927,1,0,0:0:0:0:
408,122,16395,1,0,0:0:0:0:
185,348,16630,1,0,0:0:0:0:
410,257,16864,1,0,0:0:0:0:
317,32,18270,1,0,0:0:0:0:
93,257,18739,1,0,0:0:0:0:
410,257,18973,1,0,0:0:0:0:
93,128,19208,1,0,0:0:0:0:
319,348,19442,1,0,0:0:0:0:
184,34,19677,1,0,0:0:0:0:
408,122,19911,1,0,0:0:0:0:
317,32,20145,1,0,0:0:0:0:
193,347,20380,2,0,L|323:25,1,338.399994836426
410,257,21083,1,0,0:0:0:0:
93,128,21317,1,0,0:0:0:0:
184,34,21552,1,0,0:0:0:0:
319,348,21786,1,0,0:0:0:0:
408,122,22020,1,0,0:0:0:0:
93,257,22255,1,0,0:0:0:0:
410,257,22489,1,0,0:0:0:0:
319,348,22723,1,0,0:0:0:0:
93,128,22958,1,0,0:0:0:0:
184,34,23192,1,0,0:0:0:0:
408,122,23427,1,0,0:0:0:0:
93,257,23661,1,0,0:0:0:0:
410,257,23895,1,0,0:0:0:0:
320,32,24130,2,0,L|193:347,1,338.399994836426
319,348,24833,1,0,0:0:0:0:
93,128,25067,1,0,0:0:0:0:
415,118,25302,2,0,P|282:125|192:28,1,270
194,33,25536,2,0,P|201:165|104:256,1,270
104,256,25770,2,0,P|179:338|332:343,1,270
410,257,26005,1,0,0:0:0:0:
410,257,26122,1,0,0:0:0:0:
317,32,26239,1,0,0:0:0:0:
185,348,26473,1,0,0:0:0:0:
93,128,26708,1,0,0:0:0:0:
184,34,26942,1,0,0:0:0:0:
319,348,27177,1,0,0:0:0:0:
93,257,27411,1,0,0:0:0:0:
319,348,27645,1,0,0:0:0:0:
98,123,27880,2,0,L|411:254,1,338.399994836426
408,122,28583,1,0,0:0:0:0:
185,348,28817,1,0,0:0:0:0:
317,32,29052,1,0,0:0:0:0:
184,34,29286,1,0,0:0:0:0:
410,257,29520,1,0,0:0:0:0:
408,122,29755,1,0,0:0:0:0:
93,257,29989,1,0,0:0:0:0:
319,348,30223,1,0,0:0:0:0:
93,128,30458,1,0,0:0:0:0:
410,257,30692,1,0,0:0:0:0:
317,32,30927,1,0,0:0:0:0:
408,122,31161,1,0,0:0:0:0:
317,32,31395,1,0,0:0:0:0:
182,32,31630,2,0,L|325:340,1,338.399994836426
411,254,32333,2,0,L|193:347,1,237.599999274902
93,128,32802,1,0,0:0:0:0:
408,122,33036,1,0,0:0:0:0:
319,348,33270,1,0,0:0:0:0:
93,257,33739,1,0,0:0:0:0:
410,257,33973,1,0,0:0:0:0:
184,34,34208,1,0,0:0:0:0:
317,32,34442,1,0,0:0:0:0:
185,348,34677,1,0,0:0:0:0:
93,257,34911,1,0,0:0:0:0:
185,348,35145,1,0,0:0:0:0:
412,256,35380,2,0,P|320:352|188:348,1,270
185,348,35848,1,0,0:0:0:0:
184,34,36083,1,0,0:0:0:0:
93,128,36317,1,0,0:0:0:0:
408,122,36552,1,0,0:0:0:0:
408,122,36786,1,0,0:0:0:0:
96,252,37020,2,0,L|412:120,1,341.999990867615
317,32,37489,1,0,0:0:0:0:
410,257,37723,1,0,0:0:0:0:
185,348,37958,1,0,0:0:0:0:
93,128,38192,1,0,0:0:0:0:
184,34,38427,1,0,0:0:0:0:
184,34,38661,1,0,0:0:0:0:
319,348,38895,1,0,0:0:0:0:
416,256,39130,2,0,P|244:200|96:260,1,345.6
93,128,39598,1,0,0:0:0:0:
185,348,39833,1,0,0:0:0:0:
408,122,40067,1,0,0:0:0:0:
93,128,40302,1,0,0:0:0:0:
317,32,40536,1,0,0:0:0:0:
319,348,40770,1,0,0:0:0:0:
410,257,41005,1,0,0:0:0:0:
410,257,41122,1,0,0:0:0:0:
408,122,41239,1,0,0:0:0:0:
317,32,41473,1,0,0:0:0:0:
184,34,41708,1,0,0:0:0:0:
93,128,41942,1,0,0:0:0:0:
93,257,42177,1,0,0:0:0:0:
93,128,42411,1,0,0:0:0:0:
185,348,42645,1,0,0:0:0:0:
319,348,42880,1,0,0:0:0:0:
319,348,42997,1,0,0:0:0:0:
319,348,43114,1,0,0:0:0:0:
410,257,43348,1,0,0:0:0:0:
408,122,43583,1,0,0:0:0:0:
317,32,43817,1,0,0:0:0:0:
93,128,44052,1,0,0:0:0:0:
410,257,44286,1,0,0:0:0:0:
93,257,44520,1,0,0:0:0:0:
408,122,44755,1,0,0:0:0:0:
184,34,44989,1,0,0:0:0:0:
184,34,45927,1,0,0:0:0:0:
93,128,46395,1,0,0:0:0:0:
184,34,46630,1,0,0:0:0:0:
410,257,47098,1,0,0:0:0:0:
185,348,47333,1,0,0:0:0:0:
319,348,47567,1,0,0:0:0:0:
93,257,47802,1,0,0:0:0:0:
185,348,48036,1,0,0:0:0:0:
408,122,48270,1,0,0:0:0:0:
93,128,48622,1,0,0:0:0:0:
185,34,48739,2,0,P|205:134|89:262,1,283.499991348267
319,348,49208,1,0,0:0:0:0:
410,257,49442,1,0,0:0:0:0:
317,32,49677,1,0,0:0:0:0:
317,32,49794,1,0,0:0:0:0:
184,34,50028,1,0,0:0:0:0:
184,34,50145,1,0,0:0:0:0:
408,122,50380,1,0,0:0:0:0:
93,128,50614,1,0,0:0:0:0:
185,348,50966,1,0,0:0:0:0:
185,348,51083,1,0,0:0:0:0:
410,257,51317,1,0,0:0:0:0:
317,32,51552,1,0,0:0:0:0:
184,34,51669,1,0,0:0:0:0:
93,128,51786,1,0,0:0:0:0:
319,348,52020,1,0,0:0:0:0:
408,122,52255,1,0,0:0:0:0:
96,256,52489,2,0,P|96:120|192:32,1,266.400006503906
317,32,52841,1,0,0:0:0:0:
410,257,53192,1,0,0:0:0:0:
96,256,53427,2,0,P|192:348|320:344,1,266.400006503906
410,257,53778,1,0,0:0:0:0:
184,34,54130,1,0,0:0:0:0:
408,122,54364,1,0,0:0:0:0:
93,128,54598,1,0,0:0:0:0:
408,122,54833,1,0,0:0:0:0:
312,32,55067,2,0,P|276:176|320:344,1,323.999990112305
410,257,55536,1,0,0:0:0:0:
93,257,55770,1,0,0:0:0:0:
184,34,56005,1,0,0:0:0:0:
93,128,56122,1,0,0:0:0:0:
184,34,56239,1,0,0:0:0:0:
408,122,56591,1,0,0:0:0:0:
410,257,56708,1,0,0:0:0:0:
319,348,56942,1,0,0:0:0:0:
185,348,57177,1,0,0:0:0:0:
93,257,57294,1,0,0:0:0:0:
185,348,57411,1,0,0:0:0:0:
317,32,57645,1,0,0:0:0:0:
93,128,57880,1,0,0:0:0:0:
410,257,58114,1,0,0:0:0:0:
184,34,58348,1,0,0:0:0:0:
184,34,58466,1,0,0:0:0:0:
408,122,58817,1,0,0:0:0:0:
319,348,59052,1,0,0:0:0:0:
410,257,59169,1,0,0:0:0:0:
93,128,59403,1,0,0:0:0:0:
184,34,59520,1,0,0:0:0:0:
317,32,59755,1,0,0:0:0:0:
93,257,59989,1,0,0:0:0:0:
185,348,60341,1,0,0:0:0:0:
410,257,60692,1,0,0:0:0:0:
408,122,60927,1,0,0:0:0:0:
319,348,61278,1,0,0:0:0:0:
319,348,61395,1,0,0:0:0:0:
93,128,61630,1,0,0:0:0:0:
317,32,61864,1,0,0:0:0:0:
184,34,62216,1,0,0:0:0:0:
317,32,62333,1,0,0:0:0:0:
410,257,62567,1,0,0:0:0:0:
185,348,62802,1,0,0:0:0:0:
93,257,62919,1,0,0:0:0:0:
93,257,63036,1,0,0:0:0:0:
93,257,63153,1,0,0:0:0:0:
93,128,63270,1,0,0:0:0:0:
408,122,63505,1,0,0:0:0:0:
408,122,63622,1,0,0:0:0:0:
317,32,63739,1,0,0:0:0:0:
319,348,64091,1,0,0:0:0:0:
319,348,64208,1,0,0:0:0:0:
410,257,64442,1,0,0:0:0:0:
184,34,64677,1,0,0:0:0:0:
317,32,64794,1,0,0:0:0:0:
93,257,65028,1,0,0:0:0:0:
185,348,65145,1,0,0:0:0:0:
408,122,65380,1,0,0:0:0:0:
93,128,65614,1,0,0:0:0:0:
93,128,65966,1,0,0:0:0:0:
410,257,66200,1,0,0:0:0:0:
410,257,66317,1,0,0:0:0:0:
93,257,66552,1,0,0:0:0:0:
319,348,66786,1,0,0:0:0:0:
317,32,67020,1,0,0:0:0:0:
408,122,67255,1,0,0:0:0:0:
184,32,67489,2,0,P|220:144|188:344,1,323.999990112305
96,252,67958,2,0,P|256:280|328:348,1,266.400006503906
408,122,68427,1,0,0:0:0:0:
410,257,68544,1,0,0:0:0:0:
319,348,68661,1,0,0:0:0:0:
93,128,68895,1,0,0:0:0:0:
317,32,69130,1,0,0:0:0:0:
185,348,69364,1,0,0:0:0:0:
185,348,69716,1,0,0:0:0:0:
184,34,70067,1,0,0:0:0:0:
410,257,70302,1,0,0:0:0:0:
408,122,70536,1,0,0:0:0:0:
410,257,70770,1,0,0:0:0:0:
93,257,71005,1,0,0:0:0:0:
320,344,71239,2,0,P|268:244|96:128,1,323.999990112305
317,32,71708,1,0,0:0:0:0:
185,348,71942,1,0,0:0:0:0:
408,122,72177,1,0,0:0:0:0:
184,34,72411,1,0,0:0:0:0:
408,122,72645,1,0,0:0:0:0:
410,257,72762,1,0,0:0:0:0:
93,257,72997,1,0,0:0:0:0:
188,352,73114,2,0,P|228:228|188:28,1,334.79998671753
319,348,73583,1,0,0:0:0:0:
408,122,73817,1,0,0:0:0:0:
93,128,74052,1,0,0:0:0:0:
317,32,74286,1,0,0:0:0:0:
410,257,74520,1,0,0:0:0:0:
93,257,74755,1,0,0:0:0:0:
184,348,74989,2,0,P|232:232|176:36,1,334.79998671753
93,128,75458,1,0,0:0:0:0:
410,257,75692,1,0,0:0:0:0:
328,348,75926,2,0,P|280:232|336:36,1,334.79998671753
408,122,76395,1,0,0:0:0:0:
93,257,76630,1,0,0:0:0:0:
410,257,76864,1,0,0:0:0:0:
184,34,77216,1,0,0:0:0:0:
317,32,77567,1,0,0:0:0:0:
317,32,77684,1,0,0:0:0:0:
317,32,77802,1,0,0:0:0:0:
93,128,78036,1,0,0:0:0:0:
408,122,78270,1,0,0:0:0:0:
316,348,78505,2,0,P|244:360|96:132,1,390.599984503785
