osu file format v12

[General]
AudioFilename: Starlight_ Disco.mp3
AudioLeadIn: 0
PreviewTime: 48036
Countdown: 0
SampleSet: None
StackLeniency: 0.7
Mode: 0
LetterboxInBreaks: 0
WidescreenStoryboard: 1

[Editor]
Bookmarks: 18739,33739,48739,63739
DistanceSpacing: 1.1
BeatDivisor: 4
GridSize: 4

[Metadata]
Title:Starlight Disco
TitleUnicode:Starlight Disco
Artist:loos feat. Meramipop
ArtistUnicode:loos feat. Meramipop
Creator:[CSGA]Ar3sgice
Version:AR++ during kiai
Source:maimai
Tags:halfpipe tokyo 舞萌 めらみぽっぷ
BeatmapID:370649
BeatmapSetID:149540

[Difficulty]
HPDrainRate:4
CircleSize:4
OverallDifficulty:6
ApproachRate:8
SliderMultiplier:3.6
SliderTickRate:1

[Events]
//Background and Video events
0,0,"bg3.jpg",0,0
//Break Periods
//Storyboard Layer 0 (Background)
//Storyboard Layer 1 (Fail)
//Storyboard Layer 2 (Pass)
//Storyboard Layer 3 (Foreground)
Sprite,Foreground,Centre,"ring.png",320,240 F,0,3040,3273,0,1 C,0,3273,,255,255,128 M,0,3273,3739,335,208,381,88 F,0,3273,3739,1 F,0,3739,3856,1,0
Sprite,Foreground,Centre,"ring.png",320,240 F,0,3978,4211,0,1 C,0,4211,,255,255,128 M,0,4211,4677,302,287,249,404 F,0,4211,4677,1 F,0,4677,4794,1,0
Sprite,Foreground,Centre,"ring.png",320,240 F,0,4915,5148,0,1 C,0,5148,,255,255,128 M,0,5148,5614,279,232,157,184 F,0,5148,5614,1 F,0,5614,5731,1,0
Sprite,Foreground,Centre,"ring.png",320,240 F,0,5853,6086,0,1 C,0,6086,,255,255,128 M,0,6086,6552,358,264,474,313 F,0,6086,6552,1 F,0,6552,6669,1,0
Sprite,Foreground,Centre,"ring.png",320,240 F,0,6556,6789,0,1 C,0,6789,,255,255,128 M,0,6789,7255,302,208,248,90 F,0,6789,7255,1 F,0,7255,7372,1,0
Sprite,Foreground,Centre,"ring.png",320,240 F,0,6790,7023,0,1 C,0,7023,,255,255,128 M,0,7023,7489,335,208,381,88 F,0,7023,7489,1 F,0,7489,7606,1,0
Sprite,Foreground,Centre,"ring.png",320,240 F,0,7728,7961,0,1 C,0,7961,,255,255,128 M,0,7961,8427,335,287,383,404 F,0,7961,8427,1 F,0,8427,8544,1,0
Sprite,Foreground,Centre,"ring.png",320,240 F,0,8665,8898,0,1 C,0,8898,,255,255,128 M,0,8898,9364,279,232,157,184 F,0,8898,9364,1 F,0,9364,9481,1,0
Sprite,Foreground,Centre,"ring.png",320,240 F,0,9603,9836,0,1 C,0,9836,,255,255,128 M,0,9836,10302,358,230,472,178 F,0,9836,10302,1 F,0,10302,10419,1,0
Sprite,Foreground,Centre,"ring.png",320,240 F,0,9837,10070,0,1 C,0,10070,,255,255,128 M,0,10070,10536,358,230,472,178 F,0,10070,10536,1 F,0,10536,10653,1,0
Sprite,Foreground,Centre,"ring.png",320,240 F,0,10540,10773,0,1 C,0,10773,,255,255,128 M,0,10773,11239,302,287,249,404 F,0,10773,11239,1 F,0,11239,11356,1,0
Sprite,Foreground,Centre,"ring.png",320,240 F,0,10774,11007,0,1 C,0,11007,,255,255,128 M,0,11007,11473,279,264,157,313 F,0,11007,11473,1 F,0,11473,11590,1,0
Sprite,Foreground,Centre,"ring.png",320,240 F,0,11009,11242,0,1 C,0,11242,,255,255,128 M,0,11242,11708,335,287,383,404 F,0,11242,11708,1 F,0,11708,11825,1,0
Sprite,Foreground,Centre,"ring.png",320,240 F,0,11478,11711,0,1 C,0,11711,,255,255,128 M,0,11711,12177,302,208,248,90 F,0,11711,12177,1 F,0,12177,12294,1,0
Sprite,Foreground,Centre,"ring.png",320,240 F,0,11712,11945,0,1 C,0,11945,,255,255,128 M,0,11945,12411,279,232,157,184 F,0,11945,12411,1 F,0,12411,12528,1,0
Sprite,Foreground,Centre,"ring.png",320,240 F,0,11946,12179,0,1 C,0,12179,,255,255,128 M,0,12179,12645,302,208,248,90 F,0,12179,12645,1 F,0,12645,12762,1,0
Sprite,Foreground,Centre,"ring.png",320,240 F,0,12415,12648,0,1 C,0,12648,,255,255,128 M,0,12648,13114,358,264,474,313 F,0,12648,13114,1 F,0,13114,13231,1,0
Sprite,Foreground,Centre,"ring.png",320,240 F,0,12884,13117,0,1 C,0,13117,,255,255,128 M,0,13117,13583,358,230,472,178 F,0,13117,13583,1 F,0,13583,13700,1,0
Sprite,Foreground,Centre,"ring.png",320,240 F,0,13353,13586,0,1 C,0,13586,,255,255,128 M,0,13586,14052,335,208,381,88 F,0,13586,14052,1 F,0,14052,14169,1,0
Sprite,Foreground,Centre,"ring.png",320,240 F,0,13821,14054,0,1 C,0,14054,,255,255,128 M,0,14054,14520,279,232,157,184 F,0,14054,14520,1 F,0,14520,14637,1,0
Sprite,Foreground,Centre,"ring.png",320,240 F,0,14056,14289,0,1 C,0,14289,,255,255,128 M,0,14289,14755,279,264,157,313 F,0,14289,14755,1 F,0,14755,14872,1,0
Sprite,Foreground,Centre,"ring.png",320,240 F,0,14290,14523,0,1 C,0,14523,,255,255,128 M,0,14523,14989,302,208,248,90 F,0,14523,14989,1 F,0,14989,15106,1,0
Sprite,Foreground,Centre,"ring.png",320,240 F,0,14759,14992,0,1 C,0,14992,,255,255,128 M,0,14992,15458,335,287,383,404 F,0,14992,15458,1 F,0,15458,15575,1,0
Sprite,Foreground,Centre,"ring.png",320,240 F,0,15228,15461,0,1 C,0,15461,,255,255,128 M,0,15461,15927,358,264,474,313 F,0,15461,15927,1 F,0,15927,16044,1,0
Sprite,Foreground,Centre,"ring.png",320,240 F,0,15696,15929,0,1 C,0,15929,,255,255,128 M,0,15929,16395,358,230,472,178 F,0,15929,16395,1 F,0,16395,16512,1,0
Sprite,Foreground,Centre,"ring.png",320,240 F,0,15931,16164,0,1 C,0,16164,,255,255,128 M,0,16164,16630,302,287,249,404 F,0,16164,16630,1 F,0,16630,16747,1,0
Sprite,Foreground,Centre,"ring.png",320,240 F,0,16165,16398,0,1 C,0,16398,,255,255,128 M,0,16398,16864,358,264,474,313 F,0,16398,16864,1 F,0,16864,16981,1,0
Sprite,Foreground,Centre,"ring.png",320,240 F,0,17571,17804,0,1 C,0,17804,,255,255,128 M,0,17804,18270,335,208,381,88 F,0,17804,18270,1 F,0,18270,18387,1,0
Sprite,Foreground,Centre,"ring.png",320,240 F,0,18040,18273,0,1 C,0,18273,,255,255,128 M,0,18273,18739,279,264,157,313 F,0,18273,18739,1 F,0,18739,18856,1,0
Sprite,Foreground,Centre,"ring.png",320,240 F,0,18274,18507,0,1 C,0,18507,,255,255,128 M,0,18507,18973,358,264,474,313 F,0,18507,18973,1 F,0,18973,19090,1,0
Sprite,Foreground,Centre,"ring.png",320,240 F,0,18509,18742,0,1 C,0,18742,,255,255,128 M,0,18742,19208,279,232,157,184 F,0,18742,19208,1 F,0,19208,19325,1,0
Sprite,Foreground,Centre,"ring.png",320,240 F,0,18743,18976,0,1 C,0,18976,,255,255,128 M,0,18976,19442,335,287,383,404 F,0,18976,19442,1 F,0,19442,19559,1,0
Sprite,Foreground,Centre,"ring.png",320,240 F,0,18978,19211,0,1 C,0,19211,,255,255,128 M,0,19211,19677,302,208,248,90 F,0,19211,19677,1 F,0,19677,19794,1,0
Sprite,Foreground,Centre,"ring.png",320,240 F,0,19212,19445,0,1 C,0,19445,,255,255,128 M,0,19445,19911,358,230,472,178 F,0,19445,19911,1 F,0,19911,20028,1,0
Sprite,Foreground,Centre,"ring.png",320,240 F,0,19446,19679,0,1 C,0,19679,,255,255,128 M,0,19679,20145,335,208,381,88 F,0,19679,20145,1 F,0,20145,20262,1,0
Sprite,Foreground,Centre,"ring.png",320,240 F,0,20384,20617,0,1 C,0,20617,,255,255,128 M,0,20617,21083,358,264,474,313 F,0,20617,21083,1 F,0,21083,21200,1,0
Sprite,Foreground,Centre,"ring.png",320,240 F,0,20618,20851,0,1 C,0,20851,,255,255,128 M,0,20851,21317,279,232,157,184 F,0,20851,21317,1 F,0,21317,21434,1,0
Sprite,Foreground,Centre,"ring.png",320,240 F,0,20853,21086,0,1 C,0,21086,,255,255,128 M,0,21086,21552,302,208,248,90 F,0,21086,21552,1 F,0,21552,21669,1,0
Sprite,Foreground,Centre,"ring.png",320,240 F,0,21087,21320,0,1 C,0,21320,,255,255,128 M,0,21320,21786,335,287,383,404 F,0,21320,21786,1 F,0,21786,21903,1,0
Sprite,Foreground,Centre,"ring.png",320,240 F,0,21321,21554,0,1 C,0,21554,,255,255,128 M,0,21554,22020,358,230,472,178 F,0,21554,22020,1 F,0,22020,22137,1,0
Sprite,Foreground,Centre,"ring.png",320,240 F,0,21556,21789,0,1 C,0,21789,,255,255,128 M,0,21789,22255,279,264,157,313 F,0,21789,22255,1 F,0,22255,22372,1,0
Sprite,Foreground,Centre,"ring.png",320,240 F,0,21790,22023,0,1 C,0,22023,,255,255,128 M,0,22023,22489,358,264,474,313 F,0,22023,22489,1 F,0,22489,22606,1,0
Sprite,Foreground,Centre,"ring.png",320,240 F,0,22024,22257,0,1 C,0,22257,,255,255,128 M,0,22257,22723,335,287,383,404 F,0,22257,22723,1 F,0,22723,22840,1,0
Sprite,Foreground,Centre,"ring.png",320,240 F,0,22259,22492,0,1 C,0,22492,,255,255,128 M,0,22492,22958,279,232,157,184 F,0,22492,22958,1 F,0,22958,23075,1,0
Sprite,Foreground,Centre,"ring.png",320,240 F,0,22493,22726,0,1 C,0,22726,,255,255,128 M,0,22726,23192,302,208,248,90 F,0,22726,23192,1 F,0,23192,23309,1,0
Sprite,Foreground,Centre,"ring.png",320,240 F,0,22728,22961,0,1 C,0,22961,,255,255,128 M,0,22961,23427,358,230,472,178 F,0,22961,23427,1 F,0,23427,23544,1,0
Sprite,Foreground,Centre,"ring.png",320,240 F,0,22962,23195,0,1 C,0,23195,,255,255,128 M,0,23195,23661,279,264,157,313 F,0,23195,23661,1 F,0,23661,23778,1,0
Sprite,Foreground,Centre,"ring.png",320,240 F,0,23196,23429,0,1 C,0,23429,,255,255,128 M,0,23429,23895,358,264,474,313 F,0,23429,23895,1 F,0,23895,24012,1,0
Sprite,Foreground,Centre,"ring.png",320,240 F,0,24134,24367,0,1 C,0,24367,,255,255,128 M,0,24367,24833,335,287,383,404 F,0,24367,24833,1 F,0,24833,24950,1,0
Sprite,Foreground,Centre,"ring.png",320,240 F,0,24368,24601,0,1 C,0,24601,,255,255,128 M,0,24601,25067,279,232,157,184 F,0,24601,25067,1 F,0,25067,25184,1,0
Sprite,Foreground,Centre,"lt.png",320,240 F,0,19914,20380,0,1 R,0,20380,,1.996419 C,0,20380,,128,255,255 M,0,20380,20849,204,380,340,80
Sprite,Foreground,Centre,"lt.png",320,240 F,0,23664,24130,0,1 R,0,24130,,-1.151319 C,0,24130,,128,255,255 M,0,24130,24599,428,116,296,412
Sprite,Foreground,Centre,"lt.png",320,240 F,0,24836,25302,0,1 R,0,25302,,0.0949517 C,0,25302,,128,255,255 M,0,25302,25478,456,140,204,116
Sprite,Foreground,Centre,"lt.png",320,240 F,0,25070,25536,0,1 R,0,25536,,-1.46945 C,0,25536,,128,255,255 M,0,25536,25712,204,116,180,352
Sprite,Foreground,Centre,"lt.png",320,240 F,0,25304,25770,0,1 R,0,25770,,-2.781424 C,0,25770,,128,255,255 M,0,25770,25946,173,246,417,346
Sprite,Foreground,Centre,"lt.png",320,240 F,0,27414,27880,0,1 R,0,27880,,-2.754299 C,0,27880,,128,255,255 M,0,27880,28349,180,140,484,264
Sprite,Foreground,Centre,"ring.png",320,240 F,0,25306,25539,0,1 C,0,25539,,255,255,128 M,0,25539,26005,358,264,474,313 F,0,25539,26005,1 F,0,26005,26122,1,0
Sprite,Foreground,Centre,"ring.png",320,240 F,0,25423,25656,0,1 C,0,25656,,255,255,128 M,0,25656,26122,358,264,474,313 F,0,25656,26122,1 F,0,26122,26239,1,0
Sprite,Foreground,Centre,"ring.png",320,240 F,0,25540,25773,0,1 C,0,25773,,255,255,128 M,0,25773,26239,335,208,381,88 F,0,25773,26239,1 F,0,26239,26356,1,0
Sprite,Foreground,Centre,"ring.png",320,240 F,0,25774,26007,0,1 C,0,26007,,255,255,128 M,0,26007,26473,302,287,249,404 F,0,26007,26473,1 F,0,26473,26590,1,0
Sprite,Foreground,Centre,"ring.png",320,240 F,0,26009,26242,0,1 C,0,26242,,255,255,128 M,0,26242,26708,279,232,157,184 F,0,26242,26708,1 F,0,26708,26825,1,0
Sprite,Foreground,Centre,"ring.png",320,240 F,0,26243,26476,0,1 C,0,26476,,255,255,128 M,0,26476,26942,302,208,248,90 F,0,26476,26942,1 F,0,26942,27059,1,0
Sprite,Foreground,Centre,"ring.png",320,240 F,0,26478,26711,0,1 C,0,26711,,255,255,128 M,0,26711,27177,335,287,383,404 F,0,26711,27177,1 F,0,27177,27294,1,0
Sprite,Foreground,Centre,"ring.png",320,240 F,0,26712,26945,0,1 C,0,26945,,255,255,128 M,0,26945,27411,279,264,157,313 F,0,26945,27411,1 F,0,27411,27528,1,0
Sprite,Foreground,Centre,"ring.png",320,240 F,0,26946,27179,0,1 C,0,27179,,255,255,128 M,0,27179,27645,335,287,383,404 F,0,27179,27645,1 F,0,27645,27762,1,0
Sprite,Foreground,Centre,"ring.png",320,240 F,0,27884,28117,0,1 C,0,28117,,255,255,128 M,0,28117,28583,358,230,472,178 F,0,28117,28583,1 F,0,28583,28700,1,0
Sprite,Foreground,Centre,"ring.png",320,240 F,0,28118,28351,0,1 C,0,28351,,255,255,128 M,0,28351,28817,302,287,249,404 F,0,28351,28817,1 F,0,28817,28934,1,0
Sprite,Foreground,Centre,"ring.png",320,240 F,0,28353,28586,0,1 C,0,28586,,255,255,128 M,0,28586,29052,335,208,381,88 F,0,28586,29052,1 F,0,29052,29169,1,0
Sprite,Foreground,Centre,"ring.png",320,240 F,0,28587,28820,0,1 C,0,28820,,255,255,128 M,0,28820,29286,302,208,248,90 F,0,28820,29286,1 F,0,29286,29403,1,0
Sprite,Foreground,Centre,"ring.png",320,240 F,0,28821,29054,0,1 C,0,29054,,255,255,128 M,0,29054,29520,358,264,474,313 F,0,29054,29520,1 F,0,29520,29637,1,0
Sprite,Foreground,Centre,"ring.png",320,240 F,0,29056,29289,0,1 C,0,29289,,255,255,128 M,0,29289,29755,358,230,472,178 F,0,29289,29755,1 F,0,29755,29872,1,0
Sprite,Foreground,Centre,"ring.png",320,240 F,0,29290,29523,0,1 C,0,29523,,255,255,128 M,0,29523,29989,279,264,157,313 F,0,29523,29989,1 F,0,29989,30106,1,0
Sprite,Foreground,Centre,"ring.png",320,240 F,0,29524,29757,0,1 C,0,29757,,255,255,128 M,0,29757,30223,335,287,383,404 F,0,29757,30223,1 F,0,30223,30340,1,0
Sprite,Foreground,Centre,"ring.png",320,240 F,0,29759,29992,0,1 C,0,29992,,255,255,128 M,0,29992,30458,279,232,157,184 F,0,29992,30458,1 F,0,30458,30575,1,0
Sprite,Foreground,Centre,"ring.png",320,240 F,0,29993,30226,0,1 C,0,30226,,255,255,128 M,0,30226,30692,358,264,474,313 F,0,30226,30692,1 F,0,30692,30809,1,0
Sprite,Foreground,Centre,"ring.png",320,240 F,0,30228,30461,0,1 C,0,30461,,255,255,128 M,0,30461,30927,335,208,381,88 F,0,30461,30927,1 F,0,30927,31044,1,0
Sprite,Foreground,Centre,"ring.png",320,240 F,0,30462,30695,0,1 C,0,30695,,255,255,128 M,0,30695,31161,358,230,472,178 F,0,30695,31161,1 F,0,31161,31278,1,0
Sprite,Foreground,Centre,"ring.png",320,240 F,0,30696,30929,0,1 C,0,30929,,255,255,128 M,0,30929,31395,335,208,381,88 F,0,30929,31395,1 F,0,31395,31512,1,0
Sprite,Foreground,Centre,"lt.png",320,240 F,0,31164,31630,0,1 R,0,31630,,-2.001489 C,0,31630,,128,255,255 M,0,31630,32099,204,116,340,412
Sprite,Foreground,Centre,"lt.png",320,240 F,0,31867,32333,0,1 R,0,32333,,-0.4079472 C,0,32333,,128,255,255 M,0,32333,32567,450,263,208,363
Sprite,Foreground,Centre,"ring.png",320,240 F,0,32103,32336,0,1 C,0,32336,,255,255,128 M,0,32336,32802,279,232,157,184 F,0,32336,32802,1 F,0,32802,32919,1,0
Sprite,Foreground,Centre,"ring.png",320,240 F,0,32337,32570,0,1 C,0,32570,,255,255,128 M,0,32570,33036,358,230,472,178 F,0,32570,33036,1 F,0,33036,33153,1,0
Sprite,Foreground,Centre,"ring.png",320,240 F,0,32571,32804,0,1 C,0,32804,,255,255,128 M,0,32804,33270,335,287,383,404 F,0,32804,33270,1 F,0,33270,33387,1,0
Sprite,Foreground,Centre,"ring.png",320,240 F,0,33040,33273,0,1 C,0,33273,,255,255,128 M,0,33273,33739,279,264,157,313 F,0,33273,33739,1 F,0,33739,33856,1,0
Sprite,Foreground,Centre,"ring.png",320,240 F,0,33274,33507,0,1 C,0,33507,,255,255,128 M,0,33507,33973,358,264,474,313 F,0,33507,33973,1 F,0,33973,34090,1,0
Sprite,Foreground,Centre,"ring.png",320,240 F,0,33509,33742,0,1 C,0,33742,,255,255,128 M,0,33742,34208,302,208,248,90 F,0,33742,34208,1 F,0,34208,34325,1,0
Sprite,Foreground,Centre,"ring.png",320,240 F,0,33743,33976,0,1 C,0,33976,,255,255,128 M,0,33976,34442,335,208,381,88 F,0,33976,34442,1 F,0,34442,34559,1,0
Sprite,Foreground,Centre,"ring.png",320,240 F,0,33978,34211,0,1 C,0,34211,,255,255,128 M,0,34211,34677,302,287,249,404 F,0,34211,34677,1 F,0,34677,34794,1,0
Sprite,Foreground,Centre,"ring.png",320,240 F,0,34212,34445,0,1 C,0,34445,,255,255,128 M,0,34445,34911,279,264,157,313 F,0,34445,34911,1 F,0,34911,35028,1,0
Sprite,Foreground,Centre,"ring.png",320,240 F,0,34446,34679,0,1 C,0,34679,,255,255,128 M,0,34679,35145,302,287,249,404 F,0,34679,35145,1 F,0,35145,35262,1,0
Sprite,Foreground,Centre,"lt.png",320,240 F,0,34914,35380,0,1 R,0,35380,,-0.1106572 C,0,35380,,128,255,255 M,0,35380,35732,456,352,204,380
Sprite,Foreground,Centre,"ring.png",320,240 F,0,35149,35382,0,1 C,0,35382,,255,255,128 M,0,35382,35848,302,287,249,404 F,0,35382,35848,1 F,0,35848,35965,1,0
Sprite,Foreground,Centre,"ring.png",320,240 F,0,35384,35617,0,1 C,0,35617,,255,255,128 M,0,35617,36083,302,208,248,90 F,0,35617,36083,1 F,0,36083,36200,1,0
Sprite,Foreground,Centre,"ring.png",320,240 F,0,35618,35851,0,1 C,0,35851,,255,255,128 M,0,35851,36317,279,232,157,184 F,0,35851,36317,1 F,0,36317,36434,1,0
Sprite,Foreground,Centre,"ring.png",320,240 F,0,35853,36086,0,1 C,0,36086,,255,255,128 M,0,36086,36552,358,230,472,178 F,0,36086,36552,1 F,0,36552,36669,1,0
Sprite,Foreground,Centre,"ring.png",320,240 F,0,36087,36320,0,1 C,0,36320,,255,255,128 M,0,36320,36786,358,230,472,178 F,0,36320,36786,1 F,0,36786,36903,1,0
Sprite,Foreground,Centre,"lt.png",320,240 F,0,36554,37020,0,1 R,0,37020,,2.74307 C,0,37020,,128,255,255 M,0,37020,37254,180,352,484,224
Sprite,Foreground,Centre,"ring.png",320,240 F,0,36790,37023,0,1 C,0,37023,,255,255,128 M,0,37023,37489,335,208,381,88 F,0,37023,37489,1 F,0,37489,37606,1,0
Sprite,Foreground,Centre,"ring.png",320,240 F,0,37024,37257,0,1 C,0,37257,,255,255,128 M,0,37257,37723,358,264,474,313 F,0,37257,37723,1 F,0,37723,37840,1,0
Sprite,Foreground,Centre,"ring.png",320,240 F,0,37259,37492,0,1 C,0,37492,,255,255,128 M,0,37492,37958,302,287,249,404 F,0,37492,37958,1 F,0,37958,38075,1,0
Sprite,Foreground,Centre,"ring.png",320,240 F,0,37493,37726,0,1 C,0,37726,,255,255,128 M,0,37726,38192,279,232,157,184 F,0,37726,38192,1 F,0,38192,38309,1,0
Sprite,Foreground,Centre,"ring.png",320,240 F,0,37728,37961,0,1 C,0,37961,,255,255,128 M,0,37961,38427,302,208,248,90 F,0,37961,38427,1 F,0,38427,38544,1,0
Sprite,Foreground,Centre,"ring.png",320,240 F,0,37962,38195,0,1 C,0,38195,,255,255,128 M,0,38195,38661,302,208,248,90 F,0,38195,38661,1 F,0,38661,38778,1,0
Sprite,Foreground,Centre,"ring.png",320,240 F,0,38196,38429,0,1 C,0,38429,,255,255,128 M,0,38429,38895,335,287,383,404 F,0,38429,38895,1 F,0,38895,39012,1,0
Sprite,Foreground,Centre,"lt.png",320,240 F,0,38664,39130,0,1 R,0,39130,,0 C,0,39130,,128,255,255 M,0,39130,39482,456,352,180,352
Sprite,Foreground,Centre,"ring.png",320,240 F,0,38899,39132,0,1 C,0,39132,,255,255,128 M,0,39132,39598,279,232,157,184 F,0,39132,39598,1 F,0,39598,39715,1,0
Sprite,Foreground,Centre,"ring.png",320,240 F,0,39134,39367,0,1 C,0,39367,,255,255,128 M,0,39367,39833,302,287,249,404 F,0,39367,39833,1 F,0,39833,39950,1,0
Sprite,Foreground,Centre,"ring.png",320,240 F,0,39368,39601,0,1 C,0,39601,,255,255,128 M,0,39601,40067,358,230,472,178 F,0,39601,40067,1 F,0,40067,40184,1,0
Sprite,Foreground,Centre,"ring.png",320,240 F,0,39603,39836,0,1 C,0,39836,,255,255,128 M,0,39836,40302,279,232,157,184 F,0,39836,40302,1 F,0,40302,40419,1,0
Sprite,Foreground,Centre,"ring.png",320,240 F,0,39837,40070,0,1 C,0,40070,,255,255,128 M,0,40070,40536,335,208,381,88 F,0,40070,40536,1 F,0,40536,40653,1,0
Sprite,Foreground,Centre,"ring.png",320,240 F,0,40071,40304,0,1 C,0,40304,,255,255,128 M,0,40304,40770,335,287,383,404 F,0,40304,40770,1 F,0,40770,40887,1,0
Sprite,Foreground,Centre,"ring.png",320,240 F,0,40306,40539,0,1 C,0,40539,,255,255,128 M,0,40539,41005,358,264,474,313 F,0,40539,41005,1 F,0,41005,41122,1,0
Sprite,Foreground,Centre,"ring.png",320,240 F,0,40423,40656,0,1 C,0,40656,,255,255,128 M,0,40656,41122,358,264,474,313 F,0,40656,41122,1 F,0,41122,41239,1,0
Sprite,Foreground,Centre,"ring.png",320,240 F,0,40540,40773,0,1 C,0,40773,,255,255,128 M,0,40773,41239,358,230,472,178 F,0,40773,41239,1 F,0,41239,41356,1,0
Sprite,Foreground,Centre,"ring.png",320,240 F,0,40774,41007,0,1 C,0,41007,,255,255,128 M,0,41007,41473,335,208,381,88 F,0,41007,41473,1 F,0,41473,41590,1,0
Sprite,Foreground,Centre,"ring.png",320,240 F,0,41009,41242,0,1 C,0,41242,,255,255,128 M,0,41242,41708,302,208,248,90 F,0,41242,41708,1 F,0,41708,41825,1,0
Sprite,Foreground,Centre,"ring.png",320,240 F,0,41243,41476,0,1 C,0,41476,,255,255,128 M,0,41476,41942,279,232,157,184 F,0,41476,41942,1 F,0,41942,42059,1,0
Sprite,Foreground,Centre,"ring.png",320,240 F,0,41478,41711,0,1 C,0,41711,,255,255,128 M,0,41711,42177,279,264,157,313 F,0,41711,42177,1 F,0,42177,42294,1,0
Sprite,Foreground,Centre,"ring.png",320,240 F,0,41712,41945,0,1 C,0,41945,,255,255,128 M,0,41945,42411,279,232,157,184 F,0,41945,42411,1 F,0,42411,42528,1,0
Sprite,Foreground,Centre,"ring.png",320,240 F,0,41946,42179,0,1 C,0,42179,,255,255,128 M,0,42179,42645,302,287,249,404 F,0,42179,42645,1 F,0,42645,42762,1,0
Sprite,Foreground,Centre,"ring.png",320,240 F,0,42181,42414,0,1 C,0,42414,,255,255,128 M,0,42414,42880,335,287,383,404 F,0,42414,42880,1 F,0,42880,42997,1,0
Sprite,Foreground,Centre,"ring.png",320,240 F,0,42298,42531,0,1 C,0,42531,,255,255,128 M,0,42531,42997,335,287,383,404 F,0,42531,42997,1 F,0,42997,43114,1,0
Sprite,Foreground,Centre,"ring.png",320,240 F,0,42415,42648,0,1 C,0,42648,,255,255,128 M,0,42648,43114,335,287,383,404 F,0,42648,43114,1 F,0,43114,43231,1,0
Sprite,Foreground,Centre,"ring.png",320,240 F,0,42649,42882,0,1 C,0,42882,,255,255,128 M,0,42882,43348,358,264,474,313 F,0,42882,43348,1 F,0,43348,43465,1,0
Sprite,Foreground,Centre,"ring.png",320,240 F,0,42884,43117,0,1 C,0,43117,,255,255,128 M,0,43117,43583,358,230,472,178 F,0,43117,43583,1 F,0,43583,43700,1,0
Sprite,Foreground,Centre,"ring.png",320,240 F,0,43118,43351,0,1 C,0,43351,,255,255,128 M,0,43351,43817,335,208,381,88 F,0,43351,43817,1 F,0,43817,43934,1,0
Sprite,Foreground,Centre,"ring.png",320,240 F,0,43353,43586,0,1 C,0,43586,,255,255,128 M,0,43586,44052,279,232,157,184 F,0,43586,44052,1 F,0,44052,44169,1,0
Sprite,Foreground,Centre,"ring.png",320,240 F,0,43587,43820,0,1 C,0,43820,,255,255,128 M,0,43820,44286,358,264,474,313 F,0,43820,44286,1 F,0,44286,44403,1,0
Sprite,Foreground,Centre,"ring.png",320,240 F,0,43821,44054,0,1 C,0,44054,,255,255,128 M,0,44054,44520,279,264,157,313 F,0,44054,44520,1 F,0,44520,44637,1,0
Sprite,Foreground,Centre,"ring.png",320,240 F,0,44056,44289,0,1 C,0,44289,,255,255,128 M,0,44289,44755,358,230,472,178 F,0,44289,44755,1 F,0,44755,44872,1,0
Sprite,Foreground,Centre,"ring.png",320,240 F,0,44290,44523,0,1 C,0,44523,,255,255,128 M,0,44523,44989,302,208,248,90 F,0,44523,44989,1 F,0,44989,45106,1,0
Sprite,Foreground,Centre,"ring.png",320,240 F,0,45228,45461,0,1 C,0,45461,,255,255,128 M,0,45461,45927,302,208,248,90 F,0,45461,45927,1 F,0,45927,46044,1,0
Sprite,Foreground,Centre,"ring.png",320,240 F,0,45696,45929,0,1 C,0,45929,,255,255,128 M,0,45929,46395,279,232,157,184 F,0,45929,46395,1 F,0,46395,46512,1,0
Sprite,Foreground,Centre,"ring.png",320,240 F,0,45931,46164,0,1 C,0,46164,,255,255,128 M,0,46164,46630,302,208,248,90 F,0,46164,46630,1 F,0,46630,46747,1,0
Sprite,Foreground,Centre,"ring.png",320,240 F,0,46399,46632,0,1 C,0,46632,,255,255,128 M,0,46632,47098,358,264,474,313 F,0,46632,47098,1 F,0,47098,47215,1,0
Sprite,Foreground,Centre,"ring.png",320,240 F,0,46634,46867,0,1 C,0,46867,,255,255,128 M,0,46867,47333,302,287,249,404 F,0,46867,47333,1 F,0,47333,47450,1,0
Sprite,Foreground,Centre,"ring.png",320,240 F,0,46868,47101,0,1 C,0,47101,,255,255,128 M,0,47101,47567,335,287,383,404 F,0,47101,47567,1 F,0,47567,47684,1,0
Sprite,Foreground,Centre,"ring.png",320,240 F,0,47103,47336,0,1 C,0,47336,,255,255,128 M,0,47336,47802,279,264,157,313 F,0,47336,47802,1 F,0,47802,47919,1,0
Sprite,Foreground,Centre,"ring.png",320,240 F,0,47337,47570,0,1 C,0,47570,,255,255,128 M,0,47570,48036,302,287,249,404 F,0,47570,48036,1 F,0,48036,48153,1,0
Sprite,Foreground,Centre,"ring.png",320,240 F,0,47571,47804,0,1 C,0,47804,,255,255,128 M,0,47804,48270,358,230,472,178 F,0,47804,48270,1 F,0,48270,48387,1,0
Sprite,Foreground,Centre,"ring.png",320,240 F,0,47923,48156,0,1 C,0,48156,,255,255,128 M,0,48156,48622,279,232,157,184 F,0,48156,48622,1 F,0,48622,48739,1,0
Sprite,Foreground,Centre,"lt.png",320,240 F,0,48484,48739,0,1 R,0,48739,,-1.46945 C,0,48739,,128,255,255 M,0,48739,49091,204,116,180,352
Sprite,Foreground,Centre,"ring.png",320,240 F,0,48826,48953,0,1 C,0,48953,,255,255,128 M,0,48953,49208,335,287,383,404 F,0,48953,49208,1 F,0,49208,49272,1,0
Sprite,Foreground,Centre,"ring.png",320,240 F,0,49060,49187,0,1 C,0,49187,,255,255,128 M,0,49187,49442,358,264,474,313 F,0,49187,49442,1 F,0,49442,49506,1,0
Sprite,Foreground,Centre,"ring.png",320,240 F,0,49295,49422,0,1 C,0,49422,,255,255,128 M,0,49422,49677,335,208,381,88 F,0,49422,49677,1 F,0,49677,49741,1,0
Sprite,Foreground,Centre,"ring.png",320,240 F,0,49412,49539,0,1 C,0,49539,,255,255,128 M,0,49539,49794,335,208,381,88 F,0,49539,49794,1 F,0,49794,49858,1,0
Sprite,Foreground,Centre,"ring.png",320,240 F,0,49646,49773,0,1 C,0,49773,,255,255,128 M,0,49773,50028,302,208,248,90 F,0,49773,50028,1 F,0,50028,50092,1,0
Sprite,Foreground,Centre,"ring.png",320,240 F,0,49763,49890,0,1 C,0,49890,,255,255,128 M,0,49890,50145,302,208,248,90 F,0,49890,50145,1 F,0,50145,50209,1,0
Sprite,Foreground,Centre,"ring.png",320,240 F,0,49998,50125,0,1 C,0,50125,,255,255,128 M,0,50125,50380,358,230,472,178 F,0,50125,50380,1 F,0,50380,50444,1,0
Sprite,Foreground,Centre,"ring.png",320,240 F,0,50232,50359,0,1 C,0,50359,,255,255,128 M,0,50359,50614,279,232,157,184 F,0,50359,50614,1 F,0,50614,50678,1,0
Sprite,Foreground,Centre,"ring.png",320,240 F,0,50584,50711,0,1 C,0,50711,,255,255,128 M,0,50711,50966,302,287,249,404 F,0,50711,50966,1 F,0,50966,51030,1,0
Sprite,Foreground,Centre,"ring.png",320,240 F,0,50701,50828,0,1 C,0,50828,,255,255,128 M,0,50828,51083,302,287,249,404 F,0,50828,51083,1 F,0,51083,51147,1,0
Sprite,Foreground,Centre,"ring.png",320,240 F,0,50935,51062,0,1 C,0,51062,,255,255,128 M,0,51062,51317,358,264,474,313 F,0,51062,51317,1 F,0,51317,51381,1,0
Sprite,Foreground,Centre,"ring.png",320,240 F,0,51170,51297,0,1 C,0,51297,,255,255,128 M,0,51297,51552,335,208,381,88 F,0,51297,51552,1 F,0,51552,51616,1,0
Sprite,Foreground,Centre,"ring.png",320,240 F,0,51287,51414,0,1 C,0,51414,,255,255,128 M,0,51414,51669,302,208,248,90 F,0,51414,51669,1 F,0,51669,51733,1,0
Sprite,Foreground,Centre,"ring.png",320,240 F,0,51404,51531,0,1 C,0,51531,,255,255,128 M,0,51531,51786,279,232,157,184 F,0,51531,51786,1 F,0,51786,51850,1,0
Sprite,Foreground,Centre,"ring.png",320,240 F,0,51638,51765,0,1 C,0,51765,,255,255,128 M,0,51765,52020,335,287,383,404 F,0,51765,52020,1 F,0,52020,52084,1,0
Sprite,Foreground,Centre,"ring.png",320,240 F,0,51873,52000,0,1 C,0,52000,,255,255,128 M,0,52000,52255,358,230,472,178 F,0,52000,52255,1 F,0,52255,52319,1,0
Sprite,Foreground,Centre,"lt.png",320,240 F,0,52234,52489,0,1 R,0,52489,,1.672143 C,0,52489,,128,255,255 M,0,52489,52723,180,352,204,116
Sprite,Foreground,Centre,"ring.png",320,240 F,0,52459,52586,0,1 C,0,52586,,255,255,128 M,0,52586,52841,335,208,381,88 F,0,52586,52841,1 F,0,52841,52905,1,0
Sprite,Foreground,Centre,"ring.png",320,240 F,0,52810,52937,0,1 C,0,52937,,255,255,128 M,0,52937,53192,358,264,474,313 F,0,52937,53192,1 F,0,53192,53256,1,0
Sprite,Foreground,Centre,"lt.png",320,240 F,0,53172,53427,0,1 R,0,53427,,-2.649295 C,0,53427,,128,255,255 M,0,53427,53661,194,266,427,356
Sprite,Foreground,Centre,"ring.png",320,240 F,0,53396,53523,0,1 C,0,53523,,255,255,128 M,0,53523,53778,358,264,474,313 F,0,53523,53778,1 F,0,53778,53842,1,0
Sprite,Foreground,Centre,"ring.png",320,240 F,0,53748,53875,0,1 C,0,53875,,255,255,128 M,0,53875,54130,302,208,248,90 F,0,53875,54130,1 F,0,54130,54194,1,0
Sprite,Foreground,Centre,"ring.png",320,240 F,0,53982,54109,0,1 C,0,54109,,255,255,128 M,0,54109,54364,358,230,472,178 F,0,54109,54364,1 F,0,54364,54428,1,0
Sprite,Foreground,Centre,"ring.png",320,240 F,0,54216,54343,0,1 C,0,54343,,255,255,128 M,0,54343,54598,279,232,157,184 F,0,54343,54598,1 F,0,54598,54662,1,0
Sprite,Foreground,Centre,"ring.png",320,240 F,0,54451,54578,0,1 C,0,54578,,255,255,128 M,0,54578,54833,358,230,472,178 F,0,54578,54833,1 F,0,54833,54897,1,0
Sprite,Foreground,Centre,"lt.png",320,240 F,0,54812,55067,0,1 R,0,55067,,-1.570796 C,0,55067,,128,255,255 M,0,55067,55419,428,116,428,380
Sprite,Foreground,Centre,"ring.png",320,240 F,0,55154,55281,0,1 C,0,55281,,255,255,128 M,0,55281,55536,358,264,474,313 F,0,55281,55536,1 F,0,55536,55600,1,0
Sprite,Foreground,Centre,"ring.png",320,240 F,0,55388,55515,0,1 C,0,55515,,255,255,128 M,0,55515,55770,279,264,157,313 F,0,55515,55770,1 F,0,55770,55834,1,0
Sprite,Foreground,Centre,"ring.png",320,240 F,0,55623,55750,0,1 C,0,55750,,255,255,128 M,0,55750,56005,302,208,248,90 F,0,55750,56005,1 F,0,56005,56069,1,0
Sprite,Foreground,Centre,"ring.png",320,240 F,0,55740,55867,0,1 C,0,55867,,255,255,128 M,0,55867,56122,279,232,157,184 F,0,55867,56122,1 F,0,56122,56186,1,0
Sprite,Foreground,Centre,"ring.png",320,240 F,0,55857,55984,0,1 C,0,55984,,255,255,128 M,0,55984,56239,302,208,248,90 F,0,55984,56239,1 F,0,56239,56303,1,0
Sprite,Foreground,Centre,"ring.png",320,240 F,0,56209,56336,0,1 C,0,56336,,255,255,128 M,0,56336,56591,358,230,472,178 F,0,56336,56591,1 F,0,56591,56655,1,0
Sprite,Foreground,Centre,"ring.png",320,240 F,0,56326,56453,0,1 C,0,56453,,255,255,128 M,0,56453,56708,358,264,474,313 F,0,56453,56708,1 F,0,56708,56772,1,0
Sprite,Foreground,Centre,"ring.png",320,240 F,0,56560,56687,0,1 C,0,56687,,255,255,128 M,0,56687,56942,335,287,383,404 F,0,56687,56942,1 F,0,56942,57006,1,0
Sprite,Foreground,Centre,"ring.png",320,240 F,0,56795,56922,0,1 C,0,56922,,255,255,128 M,0,56922,57177,302,287,249,404 F,0,56922,57177,1 F,0,57177,57241,1,0
Sprite,Foreground,Centre,"ring.png",320,240 F,0,56912,57039,0,1 C,0,57039,,255,255,128 M,0,57039,57294,279,264,157,313 F,0,57039,57294,1 F,0,57294,57358,1,0
Sprite,Foreground,Centre,"ring.png",320,240 F,0,57029,57156,0,1 C,0,57156,,255,255,128 M,0,57156,57411,302,287,249,404 F,0,57156,57411,1 F,0,57411,57475,1,0
Sprite,Foreground,Centre,"ring.png",320,240 F,0,57263,57390,0,1 C,0,57390,,255,255,128 M,0,57390,57645,335,208,381,88 F,0,57390,57645,1 F,0,57645,57709,1,0
Sprite,Foreground,Centre,"ring.png",320,240 F,0,57498,57625,0,1 C,0,57625,,255,255,128 M,0,57625,57880,279,232,157,184 F,0,57625,57880,1 F,0,57880,57944,1,0
Sprite,Foreground,Centre,"ring.png",320,240 F,0,57732,57859,0,1 C,0,57859,,255,255,128 M,0,57859,58114,358,264,474,313 F,0,57859,58114,1 F,0,58114,58178,1,0
Sprite,Foreground,Centre,"ring.png",320,240 F,0,57966,58093,0,1 C,0,58093,,255,255,128 M,0,58093,58348,302,208,248,90 F,0,58093,58348,1 F,0,58348,58412,1,0
Sprite,Foreground,Centre,"ring.png",320,240 F,0,58084,58211,0,1 C,0,58211,,255,255,128 M,0,58211,58466,302,208,248,90 F,0,58211,58466,1 F,0,58466,58530,1,0
Sprite,Foreground,Centre,"ring.png",320,240 F,0,58435,58562,0,1 C,0,58562,,255,255,128 M,0,58562,58817,358,230,472,178 F,0,58562,58817,1 F,0,58817,58881,1,0
Sprite,Foreground,Centre,"ring.png",320,240 F,0,58670,58797,0,1 C,0,58797,,255,255,128 M,0,58797,59052,335,287,383,404 F,0,58797,59052,1 F,0,59052,59116,1,0
Sprite,Foreground,Centre,"ring.png",320,240 F,0,58787,58914,0,1 C,0,58914,,255,255,128 M,0,58914,59169,358,264,474,313 F,0,58914,59169,1 F,0,59169,59233,1,0
Sprite,Foreground,Centre,"ring.png",320,240 F,0,59021,59148,0,1 C,0,59148,,255,255,128 M,0,59148,59403,279,232,157,184 F,0,59148,59403,1 F,0,59403,59467,1,0
Sprite,Foreground,Centre,"ring.png",320,240 F,0,59138,59265,0,1 C,0,59265,,255,255,128 M,0,59265,59520,302,208,248,90 F,0,59265,59520,1 F,0,59520,59584,1,0
Sprite,Foreground,Centre,"ring.png",320,240 F,0,59373,59500,0,1 C,0,59500,,255,255,128 M,0,59500,59755,335,208,381,88 F,0,59500,59755,1 F,0,59755,59819,1,0
Sprite,Foreground,Centre,"ring.png",320,240 F,0,59607,59734,0,1 C,0,59734,,255,255,128 M,0,59734,59989,279,264,157,313 F,0,59734,59989,1 F,0,59989,60053,1,0
Sprite,Foreground,Centre,"ring.png",320,240 F,0,59959,60086,0,1 C,0,60086,,255,255,128 M,0,60086,60341,302,287,249,404 F,0,60086,60341,1 F,0,60341,60405,1,0
Sprite,Foreground,Centre,"ring.png",320,240 F,0,60310,60437,0,1 C,0,60437,,255,255,128 M,0,60437,60692,358,264,474,313 F,0,60437,60692,1 F,0,60692,60756,1,0
Sprite,Foreground,Centre,"ring.png",320,240 F,0,60545,60672,0,1 C,0,60672,,255,255,128 M,0,60672,60927,358,230,472,178 F,0,60672,60927,1 F,0,60927,60991,1,0
Sprite,Foreground,Centre,"ring.png",320,240 F,0,60896,61023,0,1 C,0,61023,,255,255,128 M,0,61023,61278,335,287,383,404 F,0,61023,61278,1 F,0,61278,61342,1,0
Sprite,Foreground,Centre,"ring.png",320,240 F,0,61013,61140,0,1 C,0,61140,,255,255,128 M,0,61140,61395,335,287,383,404 F,0,61140,61395,1 F,0,61395,61459,1,0
Sprite,Foreground,Centre,"ring.png",320,240 F,0,61248,61375,0,1 C,0,61375,,255,255,128 M,0,61375,61630,279,232,157,184 F,0,61375,61630,1 F,0,61630,61694,1,0
Sprite,Foreground,Centre,"ring.png",320,240 F,0,61482,61609,0,1 C,0,61609,,255,255,128 M,0,61609,61864,335,208,381,88 F,0,61609,61864,1 F,0,61864,61928,1,0
Sprite,Foreground,Centre,"ring.png",320,240 F,0,61834,61961,0,1 C,0,61961,,255,255,128 M,0,61961,62216,302,208,248,90 F,0,61961,62216,1 F,0,62216,62280,1,0
Sprite,Foreground,Centre,"ring.png",320,240 F,0,61951,62078,0,1 C,0,62078,,255,255,128 M,0,62078,62333,335,208,381,88 F,0,62078,62333,1 F,0,62333,62397,1,0
Sprite,Foreground,Centre,"ring.png",320,240 F,0,62185,62312,0,1 C,0,62312,,255,255,128 M,0,62312,62567,358,264,474,313 F,0,62312,62567,1 F,0,62567,62631,1,0
Sprite,Foreground,Centre,"ring.png",320,240 F,0,62420,62547,0,1 C,0,62547,,255,255,128 M,0,62547,62802,302,287,249,404 F,0,62547,62802,1 F,0,62802,62866,1,0
Sprite,Foreground,Centre,"ring.png",320,240 F,0,62537,62664,0,1 C,0,62664,,255,255,128 M,0,62664,62919,279,264,157,313 F,0,62664,62919,1 F,0,62919,62983,1,0
Sprite,Foreground,Centre,"ring.png",320,240 F,0,62654,62781,0,1 C,0,62781,,255,255,128 M,0,62781,63036,279,264,157,313 F,0,62781,63036,1 F,0,63036,63100,1,0
Sprite,Foreground,Centre,"ring.png",320,240 F,0,62771,62898,0,1 C,0,62898,,255,255,128 M,0,62898,63153,279,264,157,313 F,0,62898,63153,1 F,0,63153,63217,1,0
Sprite,Foreground,Centre,"ring.png",320,240 F,0,62888,63015,0,1 C,0,63015,,255,255,128 M,0,63015,63270,279,232,157,184 F,0,63015,63270,1 F,0,63270,63334,1,0
Sprite,Foreground,Centre,"ring.png",320,240 F,0,63123,63250,0,1 C,0,63250,,255,255,128 M,0,63250,63505,358,230,472,178 F,0,63250,63505,1 F,0,63505,63569,1,0
Sprite,Foreground,Centre,"ring.png",320,240 F,0,63240,63367,0,1 C,0,63367,,255,255,128 M,0,63367,63622,358,230,472,178 F,0,63367,63622,1 F,0,63622,63686,1,0
Sprite,Foreground,Centre,"ring.png",320,240 F,0,63357,63484,0,1 C,0,63484,,255,255,128 M,0,63484,63739,335,208,381,88 F,0,63484,63739,1 F,0,63739,63803,1,0
Sprite,Foreground,Centre,"ring.png",320,240 F,0,63709,63836,0,1 C,0,63836,,255,255,128 M,0,63836,64091,335,287,383,404 F,0,63836,64091,1 F,0,64091,64155,1,0
Sprite,Foreground,Centre,"ring.png",320,240 F,0,63826,63953,0,1 C,0,63953,,255,255,128 M,0,63953,64208,335,287,383,404 F,0,63953,64208,1 F,0,64208,64272,1,0
Sprite,Foreground,Centre,"ring.png",320,240 F,0,64060,64187,0,1 C,0,64187,,255,255,128 M,0,64187,64442,358,264,474,313 F,0,64187,64442,1 F,0,64442,64506,1,0
Sprite,Foreground,Centre,"ring.png",320,240 F,0,64295,64422,0,1 C,0,64422,,255,255,128 M,0,64422,64677,302,208,248,90 F,0,64422,64677,1 F,0,64677,64741,1,0
Sprite,Foreground,Centre,"ring.png",320,240 F,0,64412,64539,0,1 C,0,64539,,255,255,128 M,0,64539,64794,335,208,381,88 F,0,64539,64794,1 F,0,64794,64858,1,0
Sprite,Foreground,Centre,"ring.png",320,240 F,0,64646,64773,0,1 C,0,64773,,255,255,128 M,0,64773,65028,279,264,157,313 F,0,64773,65028,1 F,0,65028,65092,1,0
Sprite,Foreground,Centre,"ring.png",320,240 F,0,64763,64890,0,1 C,0,64890,,255,255,128 M,0,64890,65145,302,287,249,404 F,0,64890,65145,1 F,0,65145,65209,1,0
Sprite,Foreground,Centre,"ring.png",320,240 F,0,64998,65125,0,1 C,0,65125,,255,255,128 M,0,65125,65380,358,230,472,178 F,0,65125,65380,1 F,0,65380,65444,1,0
Sprite,Foreground,Centre,"ring.png",320,240 F,0,65232,65359,0,1 C,0,65359,,255,255,128 M,0,65359,65614,279,232,157,184 F,0,65359,65614,1 F,0,65614,65678,1,0
Sprite,Foreground,Centre,"ring.png",320,240 F,0,65584,65711,0,1 C,0,65711,,255,255,128 M,0,65711,65966,279,232,157,184 F,0,65711,65966,1 F,0,65966,66030,1,0
Sprite,Foreground,Centre,"ring.png",320,240 F,0,65818,65945,0,1 C,0,65945,,255,255,128 M,0,65945,66200,358,264,474,313 F,0,65945,66200,1 F,0,66200,66264,1,0
Sprite,Foreground,Centre,"ring.png",320,240 F,0,65935,66062,0,1 C,0,66062,,255,255,128 M,0,66062,66317,358,264,474,313 F,0,66062,66317,1 F,0,66317,66381,1,0
Sprite,Foreground,Centre,"ring.png",320,240 F,0,66170,66297,0,1 C,0,66297,,255,255,128 M,0,66297,66552,279,264,157,313 F,0,66297,66552,1 F,0,66552,66616,1,0
Sprite,Foreground,Centre,"ring.png",320,240 F,0,66404,66531,0,1 C,0,66531,,255,255,128 M,0,66531,66786,335,287,383,404 F,0,66531,66786,1 F,0,66786,66850,1,0
Sprite,Foreground,Centre,"ring.png",320,240 F,0,66638,66765,0,1 C,0,66765,,255,255,128 M,0,66765,67020,335,208,381,88 F,0,66765,67020,1 F,0,67020,67084,1,0
Sprite,Foreground,Centre,"ring.png",320,240 F,0,66873,67000,0,1 C,0,67000,,255,255,128 M,0,67000,67255,358,230,472,178 F,0,67000,67255,1 F,0,67255,67319,1,0
Sprite,Foreground,Centre,"lt.png",320,240 F,0,67234,67489,0,1 R,0,67489,,-1.570796 C,0,67489,,128,255,255 M,0,67489,67841,204,116,204,380
Sprite,Foreground,Centre,"lt.png",320,240 F,0,67703,67958,0,1 R,0,67958,,-3.029166 C,0,67958,,128,255,255 M,0,67958,68192,180,352,428,380
Sprite,Foreground,Centre,"ring.png",320,240 F,0,68045,68172,0,1 C,0,68172,,255,255,128 M,0,68172,68427,358,230,472,178 F,0,68172,68427,1 F,0,68427,68491,1,0
Sprite,Foreground,Centre,"ring.png",320,240 F,0,68162,68289,0,1 C,0,68289,,255,255,128 M,0,68289,68544,358,264,474,313 F,0,68289,68544,1 F,0,68544,68608,1,0
Sprite,Foreground,Centre,"ring.png",320,240 F,0,68279,68406,0,1 C,0,68406,,255,255,128 M,0,68406,68661,335,287,383,404 F,0,68406,68661,1 F,0,68661,68725,1,0
Sprite,Foreground,Centre,"ring.png",320,240 F,0,68513,68640,0,1 C,0,68640,,255,255,128 M,0,68640,68895,279,232,157,184 F,0,68640,68895,1 F,0,68895,68959,1,0
Sprite,Foreground,Centre,"ring.png",320,240 F,0,68748,68875,0,1 C,0,68875,,255,255,128 M,0,68875,69130,335,208,381,88 F,0,68875,69130,1 F,0,69130,69194,1,0
Sprite,Foreground,Centre,"ring.png",320,240 F,0,68982,69109,0,1 C,0,69109,,255,255,128 M,0,69109,69364,302,287,249,404 F,0,69109,69364,1 F,0,69364,69428,1,0
Sprite,Foreground,Centre,"ring.png",320,240 F,0,69334,69461,0,1 C,0,69461,,255,255,128 M,0,69461,69716,302,287,249,404 F,0,69461,69716,1 F,0,69716,69780,1,0
Sprite,Foreground,Centre,"ring.png",320,240 F,0,69685,69812,0,1 C,0,69812,,255,255,128 M,0,69812,70067,302,208,248,90 F,0,69812,70067,1 F,0,70067,70131,1,0
Sprite,Foreground,Centre,"ring.png",320,240 F,0,69920,70047,0,1 C,0,70047,,255,255,128 M,0,70047,70302,358,264,474,313 F,0,70047,70302,1 F,0,70302,70366,1,0
Sprite,Foreground,Centre,"ring.png",320,240 F,0,70154,70281,0,1 C,0,70281,,255,255,128 M,0,70281,70536,358,230,472,178 F,0,70281,70536,1 F,0,70536,70600,1,0
Sprite,Foreground,Centre,"ring.png",320,240 F,0,70388,70515,0,1 C,0,70515,,255,255,128 M,0,70515,70770,358,264,474,313 F,0,70515,70770,1 F,0,70770,70834,1,0
Sprite,Foreground,Centre,"ring.png",320,240 F,0,70623,70750,0,1 C,0,70750,,255,255,128 M,0,70750,71005,279,264,157,313 F,0,70750,71005,1 F,0,71005,71069,1,0
Sprite,Foreground,Centre,"lt.png",320,240 F,0,70984,71239,0,1 R,0,71239,,0.7690062 C,0,71239,,128,255,255 M,0,71239,71591,428,380,180,140
Sprite,Foreground,Centre,"ring.png",320,240 F,0,71326,71453,0,1 C,0,71453,,255,255,128 M,0,71453,71708,335,208,381,88 F,0,71453,71708,1 F,0,71708,71772,1,0
Sprite,Foreground,Centre,"ring.png",320,240 F,0,71560,71687,0,1 C,0,71687,,255,255,128 M,0,71687,71942,302,287,249,404 F,0,71687,71942,1 F,0,71942,72006,1,0
Sprite,Foreground,Centre,"ring.png",320,240 F,0,71795,71922,0,1 C,0,71922,,255,255,128 M,0,71922,72177,358,230,472,178 F,0,71922,72177,1 F,0,72177,72241,1,0
Sprite,Foreground,Centre,"ring.png",320,240 F,0,72029,72156,0,1 C,0,72156,,255,255,128 M,0,72156,72411,302,208,248,90 F,0,72156,72411,1 F,0,72411,72475,1,0
Sprite,Foreground,Centre,"ring.png",320,240 F,0,72263,72390,0,1 C,0,72390,,255,255,128 M,0,72390,72645,358,230,472,178 F,0,72390,72645,1 F,0,72645,72709,1,0
Sprite,Foreground,Centre,"ring.png",320,240 F,0,72380,72507,0,1 C,0,72507,,255,255,128 M,0,72507,72762,358,264,474,313 F,0,72507,72762,1 F,0,72762,72826,1,0
Sprite,Foreground,Centre,"ring.png",320,240 F,0,72615,72742,0,1 C,0,72742,,255,255,128 M,0,72742,72997,279,264,157,313 F,0,72742,72997,1 F,0,72997,73061,1,0
Sprite,Foreground,Centre,"lt.png",320,240 F,0,72859,73114,0,1 R,0,73114,,1.570796 C,0,73114,,128,255,255 M,0,73114,73466,204,380,204,116
Sprite,Foreground,Centre,"ring.png",320,240 F,0,73201,73328,0,1 C,0,73328,,255,255,128 M,0,73328,73583,335,287,383,404 F,0,73328,73583,1 F,0,73583,73647,1,0
Sprite,Foreground,Centre,"ring.png",320,240 F,0,73435,73562,0,1 C,0,73562,,255,255,128 M,0,73562,73817,358,230,472,178 F,0,73562,73817,1 F,0,73817,73881,1,0
Sprite,Foreground,Centre,"ring.png",320,240 F,0,73670,73797,0,1 C,0,73797,,255,255,128 M,0,73797,74052,279,232,157,184 F,0,73797,74052,1 F,0,74052,74116,1,0
Sprite,Foreground,Centre,"ring.png",320,240 F,0,73904,74031,0,1 C,0,74031,,255,255,128 M,0,74031,74286,335,208,381,88 F,0,74031,74286,1 F,0,74286,74350,1,0
Sprite,Foreground,Centre,"ring.png",320,240 F,0,74138,74265,0,1 C,0,74265,,255,255,128 M,0,74265,74520,358,264,474,313 F,0,74265,74520,1 F,0,74520,74584,1,0
Sprite,Foreground,Centre,"ring.png",320,240 F,0,74373,74500,0,1 C,0,74500,,255,255,128 M,0,74500,74755,279,264,157,313 F,0,74500,74755,1 F,0,74755,74819,1,0
Sprite,Foreground,Centre,"lt.png",320,240 F,0,74734,74989,0,1 R,0,74989,,1.570796 C,0,74989,,128,255,255 M,0,74989,75341,204,380,204,116
Sprite,Foreground,Centre,"ring.png",320,240 F,0,75076,75203,0,1 C,0,75203,,255,255,128 M,0,75203,75458,279,232,157,184 F,0,75203,75458,1 F,0,75458,75522,1,0
Sprite,Foreground,Centre,"ring.png",320,240 F,0,75310,75437,0,1 C,0,75437,,255,255,128 M,0,75437,75692,358,264,474,313 F,0,75437,75692,1 F,0,75692,75756,1,0
Sprite,Foreground,Centre,"lt.png",320,240 F,0,75671,75926,0,1 R,0,75926,,1.570796 C,0,75926,,128,255,255 M,0,75926,76278,428,380,428,116
Sprite,Foreground,Centre,"ring.png",320,240 F,0,76013,76140,0,1 C,0,76140,,255,255,128 M,0,76140,76395,358,230,472,178 F,0,76140,76395,1 F,0,76395,76459,1,0
Sprite,Foreground,Centre,"ring.png",320,240 F,0,76248,76375,0,1 C,0,76375,,255,255,128 M,0,76375,76630,279,264,157,313 F,0,76375,76630,1 F,0,76630,76694,1,0
Sprite,Foreground,Centre,"ring.png",320,240 F,0,76482,76609,0,1 C,0,76609,,255,255,128 M,0,76609,76864,358,264,474,313 F,0,76609,76864,1 F,0,76864,76928,1,0
Sprite,Foreground,Centre,"ring.png",320,240 F,0,76834,76961,0,1 C,0,76961,,255,255,128 M,0,76961,77216,302,208,248,90 F,0,76961,77216,1 F,0,77216,77280,1,0
Sprite,Foreground,Centre,"ring.png",320,240 F,0,77185,77312,0,1 C,0,77312,,255,255,128 M,0,77312,77567,335,208,381,88 F,0,77312,77567,1 F,0,77567,77631,1,0
Sprite,Foreground,Centre,"ring.png",320,240 F,0,77302,77429,0,1 C,0,77429,,255,255,128 M,0,77429,77684,335,208,381,88 F,0,77429,77684,1 F,0,77684,77748,1,0
Sprite,Foreground,Centre,"ring.png",320,240 F,0,77420,77547,0,1 C,0,77547,,255,255,128 M,0,77547,77802,335,208,381,88 F,0,77547,77802,1 F,0,77802,77866,1,0
Sprite,Foreground,Centre,"ring.png",320,240 F,0,77654,77781,0,1 C,0,77781,,255,255,128 M,0,77781,78036,279,232,157,184 F,0,77781,78036,1 F,0,78036,78100,1,0
Sprite,Foreground,Centre,"ring.png",320,240 F,0,77888,78015,0,1 C,0,78015,,255,255,128 M,0,78015,78270,358,230,472,178 F,0,78015,78270,1 F,0,78270,78334,1,0
Sprite,Foreground,Centre,"lt.png",320,240 F,0,78250,78505,0,1 R,0,78505,,0.7690062 C,0,78505,,128,255,255 F,0,78505,80145,1,0.4590968 M,0,78505,80146,428,380,180,140
//Storyboard Sound Samples
//Background Colour Transformations
3,100,163,162,255

[TimingPoints]
3739.5,468.75,4,1,1,70,1,0
20380,-106.382978723404,4,1,1,70,0,0
25302,-50,4,1,1,70,0,0
27880,-106.382978723404,4,1,1,70,0,0
32333,-75.7575757575758,4,1,1,70,0,0
35380,-100,4,1,1,70,0,0
37020,-52.6315789473684,4,1,1,70,0,0
39130,-78.125,4,1,1,70,0,0
48739,-95.2380952380952,4,1,1,70,0,1
52489,-67.5675675675676,4,1,1,70,0,1
55067,-83.3333333333333,4,1,1,70,0,1
67958,-67.5675675675676,4,1,1,70,0,1
71239,-83.3333333333333,4,1,1,70,0,1
73114,-80.6451612903226,4,1,1,70,0,1
78505,-322.58064516129,4,2,1,70,0,0

[Colours]
Combo1 : 255,128,128
Combo2 : 214,255,117
Combo3 : 255,203,151

[HitObjects]
317,32,3739,1,0,0:0:0:0:
185,348,4677,1,0,0:0:0:0:
93,128,5614,5,0,0:0:0:0:
410,257,6552,1,0,0:0:0:0:
184,34,7255,5,0,0:0:0:0:
317,32,7489,1,0,0:0:0:0:
319,348,8427,1,0,0:0:0:0:
93,128,9364,5,0,0:0:0:0:
408,122,10302,1,0,0:0:0:0:
408,122,10536,1,0,0:0:0:0:
185,348,11239,5,0,0:0:0:0:
93,257,11473,1,0,0:0:0:0:
319,348,11708,1,0,0:0:0:0:
184,34,12177,1,0,0:0:0:0:
93,128,12411,1,0,0:0:0:0:
184,34,12645,1,0,0:0:0:0:
410,257,13114,5,0,0:0:0:0:
408,122,13583,1,0,0:0:0:0:
317,32,14052,1,0,0:0:0:0:
93,128,14520,1,0,0:0:0:0:
93,257,14755,1,0,0:0:0:0:
184,34,14989,5,0,0:0:0:0:
319,348,15458,1,0,0:0:0:0:
410,257,15927,1,0,0:0:0:0:
408,122,16395,1,0,0:0:0:0:
185,348,16630,1,0,0:0:0:0:
410,257,16864,1,0,0:0:0:0:
317,32,18270,5,0,0:0:0:0:
93,257,18739,5,0,0:0:0:0:
410,257,18973,1,0,0:0:0:0:
93,128,19208,1,0,0:0:0:0:
319,348,19442,1,0,0:0:0:0:
184,34,19677,1,0,0:0:0:0:
408,122,19911,1,0,0:0:0:0:
317,32,20145,1,0,0:0:0:0:
193,347,20380,6,0,L|323:25,1,338.399994836426
410,257,21083,1,0,0:0:0:0:
93,128,21317,1,0,0:0:0:0:
184,34,21552,1,0,0:0:0:0:
319,348,21786,1,0,0:0:0:0:
408,122,22020,1,0,0:0:0:0:
93,257,22255,1,0,0:0:0:0:
410,257,22489,5,0,0:0:0:0:
319,348,22723,1,0,0:0:0:0:
93,128,22958,1,0,0:0:0:0:
184,34,23192,1,0,0:0:0:0:
408,122,23427,1,0,0:0:0:0:
93,257,23661,1,0,0:0:0:0:
410,257,23895,1,0,0:0:0:0:
320,32,24130,6,0,L|193:347,1,338.399994836426
319,348,24833,1,0,0:0:0:0:
93,128,25067,1,0,0:0:0:0:
415,118,25302,6,0,P|282:125|192:28,1,270
194,33,25536,2,0,P|201:165|104:256,1,270
104,256,25770,2,0,P|179:338|332:343,1,270
410,257,26005,1,0,0:0:0:0:
410,257,26122,1,0,0:0:0:0:
317,32,26239,5,0,0:0:0:0:
185,348,26473,1,0,0:0:0:0:
93,128,26708,1,0,0:0:0:0:
184,34,26942,1,0,0:0:0:0:
319,348,27177,1,0,0:0:0:0:
93,257,27411,1,0,0:0:0:0:
319,348,27645,1,0,0:0:0:0:
98,123,27880,6,0,L|411:254,1,338.399994836426
408,122,28583,1,0,0:0:0:0:
185,348,28817,1,0,0:0:0:0:
317,32,29052,1,0,0:0:0:0:
184,34,29286,1,0,0:0:0:0:
410,257,29520,1,0,0:0:0:0:
408,122,29755,1,0,0:0:0:0:
93,257,29989,5,0,0:0:0:0:
319,348,30223,1,0,0:0:0:0:
93,128,30458,1,0,0:0:0:0:
410,257,30692,1,0,0:0:0:0:
317,32,30927,1,0,0:0:0:0:
408,122,31161,1,0,0:0:0:0:
317,32,31395,1,0,0:0:0:0:
182,32,31630,6,0,L|325:340,1,338.399994836426
411,254,32333,2,0,L|193:347,1,237.599999274902
93,128,32802,1,0,0:0:0:0:
408,122,33036,1,0,0:0:0:0:
319,348,33270,1,0,0:0:0:0:
93,257,33739,5,0,0:0:0:0:
410,257,33973,1,0,0:0:0:0:
184,34,34208,1,0,0:0:0:0:
317,32,34442,1,0,0:0:0:0:
185,348,34677,1,0,0:0:0:0:
93,257,34911,1,0,0:0:0:0:
185,348,35145,1,0,0:0:0:0:
412,256,35380,6,0,P|320:352|188:348,1,270
185,348,35848,1,0,0:0:0:0:
184,34,36083,1,0,0:0:0:0:
93,128,36317,1,0,0:0:0:0:
408,122,36552,1,0,0:0:0:0:
408,122,36786,1,0,0:0:0:0:
96,252,37020,2,0,L|412:120,1,341.999990867615
317,32,37489,5,0,0:0:0:0:
410,257,37723,1,0,0:0:0:0:
185,348,37958,1,0,0:0:0:0:
93,128,38192,1,0,0:0:0:0:
184,34,38427,1,0,0:0:0:0:
184,34,38661,1,0,0:0:0:0:
319,348,38895,1,0,0:0:0:0:
416,256,39130,6,0,P|244:200|96:260,1,345.6
93,128,39598,1,0,0:0:0:0:
185,348,39833,1,0,0:0:0:0:
408,122,40067,1,0,0:0:0:0:
93,128,40302,1,0,0:0:0:0:
317,32,40536,1,0,0:0:0:0:
319,348,40770,1,0,0:0:0:0:
410,257,41005,1,0,0:0:0:0:
410,257,41122,1,0,0:0:0:0:
408,122,41239,5,0,0:0:0:0:
317,32,41473,1,0,0:0:0:0:
184,34,41708,1,0,0:0:0:0:
93,128,41942,1,0,0:0:0:0:
93,257,42177,1,0,0:0:0:0:
93,128,42411,1,0,0:0:0:0:
185,348,42645,1,0,0:0:0:0:
319,348,42880,5,0,0:0:0:0:
319,348,42997,1,0,0:0:0:0:
319,348,43114,1,0,0:0:0:0:
410,257,43348,1,0,0:0:0:0:
408,122,43583,1,0,0:0:0:0:
317,32,43817,1,0,0:0:0:0:
93,128,44052,1,0,0:0:0:0:
410,257,44286,1,0,0:0:0:0:
93,257,44520,1,0,0:0:0:0:
408,122,44755,1,0,0:0:0:0:
184,34,44989,5,0,0:0:0:0:
184,34,45927,1,0,0:0:0:0:
93,128,46395,1,0,0:0:0:0:
184,34,46630,1,0,0:0:0:0:
410,257,47098,5,0,0:0:0:0:
185,348,47333,1,0,0:0:0:0:
319,348,47567,1,0,0:0:0:0:
93,257,47802,1,0,0:0:0:0:
185,348,48036,1,0,0:0:0:0:
408,122,48270,1,0,0:0:0:0:
93,128,48622,5,0,0:0:0:0:
185,34,48739,2,0,P|205:134|89:262,1,283.499991348267
319,348,49208,1,0,0:0:0:0:
410,257,49442,1,0,0:0:0:0:
317,32,49677,1,0,0:0:0:0:
317,32,49794,1,0,0:0:0:0:
184,34,50028,1,0,0:0:0:0:
184,34,50145,1,0,0:0:0:0:
408,122,50380,5,0,0:0:0:0:
93,128,50614,1,0,0:0:0:0:
185,348,50966,1,0,0:0:0:0:
185,348,51083,1,0,0:0:0:0:
410,257,51317,1,0,0:0:0:0:
317,32,51552,1,0,0:0:0:0:
184,34,51669,1,0,0:0:0:0:
93,128,51786,1,0,0:0:0:0:
319,348,52020,1,0,0:0:0:0:
408,122,52255,5,0,0:0:0:0:
96,256,52489,2,0,P|96:120|192:32,1,266.400006503906
317,32,52841,1,0,0:0:0:0:
410,257,53192,1,0,0:0:0:0:
96,256,53427,2,0,P|192:348|320:344,1,266.400006503906
410,257,53778,1,0,0:0:0:0:
184,34,54130,5,0,0:0:0:0:
408,122,54364,1,0,0:0:0:0:
93,128,54598,1,0,0:0:0:0:
408,122,54833,1,0,0:0:0:0:
312,32,55067,2,0,P|276:176|320:344,1,323.999990112305
410,257,55536,1,0,0:0:0:0:
93,257,55770,1,0,0:0:0:0:
184,34,56005,1,0,0:0:0:0:
93,128,56122,1,0,0:0:0:0:
184,34,56239,5,0,0:0:0:0:
408,122,56591,1,0,0:0:0:0:
410,257,56708,1,0,0:0:0:0:
319,348,56942,1,0,0:0:0:0:
185,348,57177,1,0,0:0:0:0:
93,257,57294,1,0,0:0:0:0:
185,348,57411,1,0,0:0:0:0:
317,32,57645,1,0,0:0:0:0:
93,128,57880,5,0,0:0:0:0:
410,257,58114,1,0,0:0:0:0:
184,34,58348,1,0,0:0:0:0:
184,34,58466,1,0,0:0:0:0:
408,122,58817,1,0,0:0:0:0:
319,348,59052,1,0,0:0:0:0:
410,257,59169,1,0,0:0:0:0:
93,128,59403,1,0,0:0:0:0:
184,34,59520,1,0,0:0:0:0:
317,32,59755,5,0,0:0:0:0:
93,257,59989,1,0,0:0:0:0:
185,348,60341,1,0,0:0:0:0:
410,257,60692,1,0,0:0:0:0:
408,122,60927,1,0,0:0:0:0:
319,348,61278,1,0,0:0:0:0:
319,348,61395,1,0,0:0:0:0:
93,128,61630,1,0,0:0:0:0:
317,32,61864,5,0,0:0:0:0:
184,34,62216,1,0,0:0:0:0:
317,32,62333,1,0,0:0:0:0:
410,257,62567,1,0,0:0:0:0:
185,348,62802,1,0,0:0:0:0:
93,257,62919,1,0,0:0:0:0:
93,257,63036,1,0,0:0:0:0:
93,257,63153,1,0,0:0:0:0:
93,128,63270,1,0,0:0:0:0:
408,122,63505,5,0,0:0:0:0:
408,122,63622,1,0,0:0:0:0:
317,32,63739,1,0,0:0:0:0:
319,348,64091,1,0,0:0:0:0:
319,348,64208,1,0,0:0:0:0:
410,257,64442,1,0,0:0:0:0:
184,34,64677,5,0,0:0:0:0:
317,32,64794,1,0,0:0:0:0:
93,257,65028,1,0,0:0:0:0:
185,348,65145,1,0,0:0:0:0:
408,122,65380,1,0,0:0:0:0:
93,128,65614,1,0,0:0:0:0:
93,128,65966,1,0,0:0:0:0:
410,257,66200,1,0,0:0:0:0:
410,257,66317,1,0,0:0:0:0:
93,257,66552,5,0,0:0:0:0:
319,348,66786,1,0,0:0:0:0:
317,32,67020,1,0,0:0:0:0:
408,122,67255,1,0,0:0:0:0:
184,32,67489,6,0,P|220:144|188:344,1,323.999990112305
96,252,67958,2,0,P|256:280|328:348,1,266.400006503906
408,122,68427,5,0,0:0:0:0:
410,257,68544,1,0,0:0:0:0:
319,348,68661,1,0,0:0:0:0:
93,128,68895,1,0,0:0:0:0:
317,32,69130,1,0,0:0:0:0:
185,348,69364,5,0,0:0:0:0:
185,348,69716,1,0,0:0:0:0:
184,34,70067,1,0,0:0:0:0:
410,257,70302,1,0,0:0:0:0:
408,122,70536,1,0,0:0:0:0:
410,257,70770,1,0,0:0:0:0:
93,257,71005,1,0,0:0:0:0:
320,344,71239,6,0,P|268:244|96:128,1,323.999990112305
317,32,71708,1,0,0:0:0:0:
185,348,71942,1,0,0:0:0:0:
408,122,72177,1,0,0:0:0:0:
184,34,72411,1,0,0:0:0:0:
408,122,72645,1,0,0:0:0:0:
410,257,72762,1,0,0:0:0:0:
93,257,72997,1,0,0:0:0:0:
188,352,73114,6,0,P|228:228|188:28,1,334.79998671753
319,348,73583,1,0,0:0:0:0:
408,122,73817,1,0,0:0:0:0:
93,128,74052,1,0,0:0:0:0:
317,32,74286,1,0,0:0:0:0:
410,257,74520,1,0,0:0:0:0:
93,257,74755,1,0,0:0:0:0:
184,348,74989,6,0,P|232:232|176:36,1,334.79998671753
93,128,75458,1,0,0:0:0:0:
410,257,75692,1,0,0:0:0:0:
328,348,75926,2,0,P|280:232|336:36,1,334.79998671753
408,122,76395,1,0,0:0:0:0:
93,257,76630,1,0,0:0:0:0:
410,257,76864,5,0,0:0:0:0:
184,34,77216,1,0,0:0:0:0:
317,32,77567,1,0,0:0:0:0:
317,32,77684,1,0,0:0:0:0:
317,32,77802,1,0,0:0:0:0:
93,128,78036,1,0,0:0:0:0:
408,122,78270,1,0,0:0:0:0:
316,348,78505,2,0,P|244:360|96:132,1,390.599984503785
