osu file format v14

[General]
AudioFilename: Starlight Disco.mp3
AudioLeadIn: 0
PreviewTime: 48266
Countdown: 0
SampleSet: None
StackLeniency: 0.7
Mode: 3
LetterboxInBreaks: 0
EpilepsyWarning: 1
SpecialStyle: 0
WidescreenStoryboard: 1

[Editor]
DistanceSpacing: 0.8
BeatDivisor: 4
GridSize: 4
TimelineZoom: 1.8

[Metadata]
Title:Starlight Disco(feat. Meramipop)
TitleUnicode:Starlight Disco(feat. Meramipop)
Artist:loos
ArtistUnicode:loos
Creator:Shinzo-
Version:BASIC
Source:maimai
Tags:めらみぽっぷ ripple space halfpipe tokyo joypolis ExUsagi
BeatmapID:694193
BeatmapSetID:310623

[Difficulty]
HPDrainRate:7
CircleSize:6
OverallDifficulty:7
ApproachRate:5
SliderMultiplier:1.4
SliderTickRate:1

[Events]
//Background and Video events
0,0,"disco.jpg",0,0
//Break Periods
//Storyboard Layer 0 (Background)
//Storyboard Layer 1 (Fail)
//Storyboard Layer 2 (Pass)
//Storyboard Layer 3 (Foreground)
//Storyboard Sound Samples

[TimingPoints]
1860,468.75,4,3,1,40,1,0
48735,-100,4,3,1,40,0,1
61860,-100,4,3,1,40,0,0
63735,-100,4,3,1,40,0,1
78500,-100,4,3,1,40,0,0

[HitObjects]
298,192,3266,128,8,3735:0:0:0:0:
469,192,3735,128,2,4203:0:0:0:0:
42,192,3735,1,4,0:0:0:0:
128,192,4203,1,2,0:0:0:0:
42,192,4672,128,2,5141:0:0:0:0:
384,192,5141,1,2,0:0:0:0:
298,192,5610,128,2,6078:0:0:0:0:
128,192,6078,1,2,0:0:0:0:
213,192,6547,128,2,7016:0:0:0:0:
469,192,7016,1,2,0:0:0:0:
384,192,7485,128,2,7953:0:0:0:0:
213,192,7953,1,2,0:0:0:0:
128,192,8422,128,2,8891:0:0:0:0:
298,192,8891,1,2,0:0:0:0:
469,192,9360,128,2,9828:0:0:0:0:
42,192,9828,1,2,0:0:0:0:
128,192,10297,128,2,10766:0:0:0:0:
384,192,10766,1,2,0:0:0:0:
469,192,11235,1,2,0:0:0:0:
298,192,11469,1,0,0:0:0:0:
42,192,11703,1,8,0:0:0:0:
213,192,11703,1,0,0:0:0:0:
42,192,12172,1,2,0:0:0:0:
213,192,12406,1,0,0:0:0:0:
298,192,12641,1,0,0:0:0:0:
469,192,12641,1,8,0:0:0:0:
384,192,13110,1,2,0:0:0:0:
298,192,13344,1,0,0:0:0:0:
213,192,13578,1,8,0:0:0:0:
42,192,13578,1,0,0:0:0:0:
128,192,14047,1,2,0:0:0:0:
213,192,14281,1,0,0:0:0:0:
298,192,14516,1,8,0:0:0:0:
469,192,14516,1,0,0:0:0:0:
213,192,14985,1,2,0:0:0:0:
128,192,15219,1,0,0:0:0:0:
42,192,15453,1,0,0:0:0:0:
469,192,15453,1,8,0:0:0:0:
298,192,15922,1,2,0:0:0:0:
384,192,16156,1,0,0:0:0:0:
42,192,16391,1,8,0:0:0:0:
469,192,16391,1,0,0:0:0:0:
128,192,16625,1,4,0:0:0:0:
384,192,16625,1,2,0:0:0:0:
42,192,18266,1,8,0:0:0:0:
469,192,18266,1,8,1:0:0:0:
128,192,18735,1,4,0:0:0:0:
384,192,18735,1,2,0:0:0:0:
42,192,18969,1,0,0:0:0:0:
469,192,19203,1,8,0:0:0:0:
128,192,19438,1,0,0:0:0:0:
384,192,19672,1,2,0:0:0:0:
213,192,19906,1,0,0:0:0:0:
298,192,20141,1,8,0:0:0:0:
469,192,20375,128,0,20844:0:0:0:0:
42,192,20844,1,0,0:0:0:0:
384,192,21078,1,8,0:0:0:0:
128,192,21313,1,0,0:0:0:0:
469,192,21547,1,2,0:0:0:0:
213,192,21781,1,0,0:0:0:0:
384,192,22016,1,8,0:0:0:0:
128,192,22016,1,8,1:0:0:0:
42,192,22250,1,0,0:0:0:0:
213,192,22485,1,2,0:0:0:0:
469,192,22485,1,0,0:0:0:0:
128,192,22719,1,0,0:0:0:0:
384,192,22953,1,8,0:0:0:0:
42,192,23188,1,0,0:0:0:0:
469,192,23422,1,2,0:0:0:0:
128,192,23656,1,0,0:0:0:0:
298,192,23891,1,8,0:0:0:0:
469,192,24125,128,0,24594:0:0:0:0:
42,192,24594,1,0,0:0:0:0:
384,192,24828,1,8,0:0:0:0:
213,192,25063,1,0,0:0:0:0:
42,192,25297,1,2,0:0:0:0:
469,192,25531,1,0,0:0:0:0:
128,192,25766,1,8,0:0:0:0:
298,192,25766,128,8,26235:1:0:0:0:
213,192,26235,1,2,0:0:0:0:
42,192,26235,1,0,0:0:0:0:
384,192,26469,1,0,0:0:0:0:
469,192,26703,1,8,0:0:0:0:
128,192,26938,1,0,0:0:0:0:
213,192,27172,1,2,0:0:0:0:
42,192,27406,1,0,0:0:0:0:
384,192,27641,1,8,0:0:0:0:
213,192,27875,128,0,28344:0:0:0:0:
469,192,28344,1,0,0:0:0:0:
298,192,28578,1,8,0:0:0:0:
128,192,28813,1,0,0:0:0:0:
213,192,29047,1,2,0:0:0:0:
384,192,29281,1,0,0:0:0:0:
298,192,29516,1,8,0:0:0:0:
42,192,29516,1,8,1:0:0:0:
128,192,29750,1,0,0:0:0:0:
213,192,29985,1,0,0:0:0:0:
469,192,29985,1,2,0:0:0:0:
298,192,30219,1,0,0:0:0:0:
384,192,30453,1,8,0:0:0:0:
42,192,30688,1,0,0:0:0:0:
128,192,30922,1,2,0:0:0:0:
213,192,31156,1,0,0:0:0:0:
469,192,31391,1,8,0:0:0:0:
298,192,31625,128,0,32094:0:0:0:0:
42,192,32094,1,0,0:0:0:0:
469,192,32328,1,8,0:0:0:0:
42,192,32563,1,0,0:0:0:0:
384,192,32797,1,8,0:0:0:0:
213,192,33031,1,0,0:0:0:0:
42,192,33266,1,8,0:0:0:0:
469,192,33266,1,8,1:0:0:0:
128,192,33735,1,4,0:0:0:0:
384,192,33735,1,2,0:0:0:0:
298,192,33969,1,0,0:0:0:0:
469,192,34203,1,8,0:0:0:0:
42,192,34438,1,0,0:0:0:0:
384,192,34672,1,2,0:0:0:0:
128,192,34906,1,0,0:0:0:0:
213,192,35141,1,8,0:0:0:0:
298,192,35375,128,0,35844:0:0:0:0:
42,192,35844,1,0,0:0:0:0:
213,192,36078,1,8,0:0:0:0:
128,192,36313,1,0,0:0:0:0:
298,192,36547,1,2,0:0:0:0:
469,192,36781,1,0,0:0:0:0:
384,192,37016,1,8,0:0:0:0:
128,192,37016,1,8,1:0:0:0:
213,192,37250,1,0,0:0:0:0:
298,192,37485,1,2,0:0:0:0:
42,192,37485,1,0,0:0:0:0:
384,192,37719,1,0,0:0:0:0:
469,192,37953,1,8,0:0:0:0:
128,192,38188,1,0,0:0:0:0:
298,192,38422,1,2,0:0:0:0:
213,192,38656,1,0,0:0:0:0:
469,192,38891,1,8,0:0:0:0:
298,192,39125,128,0,39594:0:0:0:0:
42,192,39594,1,0,0:0:0:0:
469,192,39828,1,8,0:0:0:0:
298,192,40063,1,0,0:0:0:0:
128,192,40297,1,2,0:0:0:0:
298,192,40531,1,0,0:0:0:0:
213,192,40766,128,8,41235:0:0:0:0:
384,192,40766,1,8,1:0:0:0:
298,192,41235,1,2,0:0:0:0:
469,192,41235,1,4,0:0:0:0:
42,192,41469,1,0,0:0:0:0:
384,192,41703,1,8,0:0:0:0:
213,192,41938,1,0,0:0:0:0:
469,192,42172,1,2,0:0:0:0:
42,192,42406,1,0,0:0:0:0:
298,192,42641,1,8,0:0:0:0:
213,192,42875,128,0,43344:0:0:0:0:
128,192,43344,1,0,0:0:0:0:
469,192,43578,1,8,0:0:0:0:
384,192,43813,1,0,0:0:0:0:
213,192,44047,1,2,0:0:0:0:
469,192,44281,1,0,0:0:0:0:
298,192,44516,1,8,0:0:0:0:
42,192,44516,1,0,0:0:0:0:
213,192,44750,1,0,0:0:0:0:
128,192,44985,1,2,0:0:0:0:
469,192,44985,1,4,0:0:0:0:
128,192,45922,1,2,0:0:0:0:
298,192,45922,1,4,0:0:0:0:
469,192,46274,1,0,0:0:0:0:
128,192,46625,1,4,0:0:0:0:
298,192,46625,1,2,0:0:0:0:
42,192,47094,1,0,0:0:0:0:
213,192,47328,1,0,0:0:0:0:
384,192,47563,1,0,0:0:0:0:
213,192,47797,1,2,0:0:0:0:
469,192,47797,1,0,0:0:0:0:
42,192,48031,1,0,0:0:0:0:
128,192,48266,1,8,0:0:0:0:
384,192,48266,128,0,48735:0:0:0:0:
42,192,48735,1,4,0:0:0:0:
298,192,48735,1,2,0:0:0:0:
213,192,49086,1,0,0:0:0:0:
298,192,49438,128,2,50141:0:0:0:0:
42,192,50141,1,8,1:0:0:0:
469,192,50141,1,8,0:0:0:0:
213,192,50375,1,0,0:0:0:0:
128,192,50610,1,0,0:0:0:0:
384,192,50610,1,2,0:0:0:0:
298,192,50961,1,0,0:0:0:0:
213,192,51313,128,2,52016:0:0:0:0:
42,192,52016,1,8,1:0:0:0:
384,192,52016,1,8,0:0:0:0:
298,192,52250,1,0,0:0:0:0:
469,192,52485,128,0,52953:0:0:0:0:
128,192,52485,1,2,0:0:0:0:
42,192,52953,1,8,0:0:0:0:
384,192,53188,1,0,0:0:0:0:
128,192,53422,128,0,53891:0:0:0:0:
469,192,53422,1,2,0:0:0:0:
298,192,53891,1,8,0:0:0:0:
384,192,54125,1,0,0:0:0:0:
42,192,54360,1,0,0:0:0:0:
298,192,54360,128,2,54828:0:0:0:0:
469,192,54828,1,8,0:0:0:0:
128,192,55063,128,0,55531:0:0:0:0:
469,192,55531,1,0,0:0:0:0:
384,192,55766,1,8,0:0:0:0:
42,192,55766,1,8,1:0:0:0:
213,192,56000,1,0,0:0:0:0:
128,192,56235,1,4,0:0:0:0:
469,192,56235,1,2,0:0:0:0:
384,192,56586,1,0,0:0:0:0:
298,192,56938,128,0,57641:0:0:0:0:
213,192,57641,1,8,0:0:0:0:
469,192,57641,1,8,1:0:0:0:
128,192,57875,1,0,0:0:0:0:
42,192,58110,1,0,0:0:0:0:
384,192,58110,1,2,0:0:0:0:
128,192,58461,1,0,0:0:0:0:
213,192,58813,128,0,59516:0:0:0:0:
42,192,59516,1,8,1:0:0:0:
469,192,59516,1,8,0:0:0:0:
298,192,59750,1,0,0:0:0:0:
128,192,59985,128,0,60336:0:0:0:0:
384,192,59985,1,2,0:0:0:0:
213,192,60336,1,0,0:0:0:0:
298,192,60688,1,0,0:0:0:0:
384,192,60922,128,0,61274:0:0:0:0:
42,192,60922,1,2,0:0:0:0:
213,192,61274,1,0,0:0:0:0:
128,192,61625,1,0,0:0:0:0:
469,192,61860,1,2,0:0:0:0:
42,192,61860,128,0,62211:0:0:0:0:
213,192,62211,1,0,0:0:0:0:
384,192,62563,1,2,0:0:0:0:
128,192,62797,1,2,0:0:0:0:
213,192,63031,1,0,0:0:0:0:
42,192,63266,1,0,0:0:0:0:
469,192,63266,1,8,0:0:0:0:
384,192,63500,1,2,0:0:0:0:
298,192,63735,1,4,0:0:0:0:
42,192,63735,1,2,0:0:0:0:
128,192,64086,1,0,0:0:0:0:
469,192,64438,128,0,67016:0:0:0:0:
42,192,65141,1,8,0:0:0:0:
298,192,66078,1,8,0:0:0:0:
128,192,67016,1,8,0:0:0:0:
384,192,67016,1,8,1:0:0:0:
298,192,67250,1,0,0:0:0:0:
42,192,67485,1,0,0:0:0:0:
469,192,67485,1,2,0:0:0:0:
298,192,67836,1,0,0:0:0:0:
213,192,68188,128,0,70766:0:0:0:0:
469,192,68891,1,8,0:0:0:0:
384,192,69828,1,8,0:0:0:0:
42,192,70766,1,8,1:0:0:0:
469,192,70766,1,8,0:0:0:0:
298,192,71000,1,0,0:0:0:0:
128,192,71235,1,2,0:0:0:0:
384,192,71235,1,4,0:0:0:0:
213,192,71586,1,0,0:0:0:0:
298,192,71938,128,0,74516:0:0:0:0:
42,192,72641,1,8,0:0:0:0:
128,192,73578,1,8,0:0:0:0:
42,192,74516,1,8,1:0:0:0:
469,192,74516,1,8,0:0:0:0:
128,192,74750,1,0,0:0:0:0:
384,192,74985,128,0,75336:0:0:0:0:
213,192,74985,1,2,0:0:0:0:
128,192,75336,1,0,0:0:0:0:
298,192,75688,1,0,0:0:0:0:
42,192,75922,128,0,76274:0:0:0:0:
469,192,75922,1,2,0:0:0:0:
298,192,76274,1,0,0:0:0:0:
213,192,76625,1,0,0:0:0:0:
42,192,76860,1,2,0:0:0:0:
469,192,76860,128,0,77211:0:0:0:0:
213,192,77211,1,0,0:0:0:0:
42,192,77563,128,0,78031:0:0:0:0:
213,192,78031,1,0,0:0:0:0:
384,192,78266,1,8,1:0:0:0:
469,192,78500,128,0,80610:0:0:0:0:
128,192,78500,1,4,0:0:0:0:
