osu file format v14

[General]
AudioFilename: koi yomi zakura.mp3
AudioLeadIn: 0
PreviewTime: 204284
Countdown: 0
SampleSet: None
StackLeniency: 0.4
Mode: 0
LetterboxInBreaks: 0
WidescreenStoryboard: 0

[Editor]
DistanceSpacing: 0.8
BeatDivisor: 4
GridSize: 4
TimelineZoom: 1.5

[Metadata]
Title:Koi Yomi Zakura (Full size)
TitleUnicode:恋詠桜(Full size)
Artist:loos
ArtistUnicode:loos
Creator:papapa213
Version:yf's Expert
Source:
Tags:omoi yoshino オモイヨシノ 柊莉杏 Hiiragi Rian spice+rock imouto ouo koko lyric ametrin yf_bmp gust ultimate madoka
BeatmapID:1330756
BeatmapSetID:602230

[Difficulty]
HPDrainRate:6
CircleSize:5
OverallDifficulty:8.5
ApproachRate:9
SliderMultiplier:1.8
SliderTickRate:1

[Events]
//Background and Video events
0,0,"48542248_p0.jpg",0,0
//Break Periods
2,93145,94666
2,164574,175202
2,176091,189488
//Storyboard Layer 0 (Background)
//Storyboard Layer 1 (Fail)
//Storyboard Layer 2 (Pass)
//Storyboard Layer 3 (Foreground)
//Storyboard Sound Samples

[TimingPoints]
1517,357.142857142857,4,3,10,40,1,0
1517,-133.333333333333,4,3,10,40,0,0
5802,-300,4,3,10,40,0,0
6427,-300,4,3,10,5,0,0
6516,-100,4,3,10,40,0,0
7231,-111.111111111111,4,3,10,40,0,0
11159,-76.9230769230769,4,3,10,40,0,0
11874,-100,4,3,10,40,0,0
12231,-50,4,3,10,60,0,0
12499,-50,4,3,10,5,0,0
12588,-100,4,3,10,70,0,0
18659,-133.333333333333,4,3,10,70,0,0
19195,-100,4,3,10,70,0,0
19731,-76.9230769230769,4,3,10,70,0,0
20088,-100,4,3,10,70,0,0
20624,-66.6666666666667,4,3,10,70,0,0
20981,-100,4,3,10,70,0,0
21338,-100,4,3,10,40,0,0
21427,-100,4,3,10,70,0,0
22945,-200,4,3,10,70,0,0
23659,-76.9230769230769,4,3,10,70,0,0
23749,-76.9230769230769,4,3,10,5,0,0
23838,-76.9230769230769,4,3,10,70,0,0
24374,-166.666666666667,4,2,10,50,0,0
32945,-100,4,2,10,50,0,0
35802,-100,4,3,10,60,0,0
38659,-83.3333333333333,4,3,10,60,0,0
39909,-83.3333333333333,4,3,0,60,0,0
40088,-100,4,3,10,60,0,0
46874,-66.6666666666667,4,3,10,70,0,0
47231,-100,4,3,10,70,0,0
48481,-76.9230769230769,4,3,10,70,0,0
48838,-100,4,3,10,70,0,0
51338,-76.9230769230769,4,3,10,70,0,0
51695,-100,4,3,10,70,0,0
55802,-100,4,3,0,70,0,0
57231,-133.333333333333,4,3,10,70,0,0
58302,-83.3333333333333,4,3,10,70,0,0
58659,-83.3333333333333,4,2,11,70,0,1
78659,-52.6315789473684,4,3,10,70,0,1
80356,-83.3333333333333,4,3,10,70,0,1
81516,-100,4,3,10,70,0,0
87231,-200,4,3,10,70,0,0
87588,-100,4,3,10,70,0,0
92231,-133.333333333333,4,3,10,70,0,0
95802,-125,4,3,10,50,0,0
99374,-133.333333333333,4,3,10,50,0,0
100088,-142.857142857143,4,3,10,50,0,0
101516,-100,4,3,10,60,0,0
104374,-100,4,3,10,60,0,0
108481,-100,4,3,0,60,0,0
108659,-100,4,3,10,60,0,0
110088,-133.333333333333,4,3,10,60,0,0
115445,-66.6666666666667,4,3,10,70,0,0
115802,-100,4,3,10,70,0,0
117052,-76.9230769230769,4,3,10,70,0,0
117409,-100,4,3,10,70,0,0
119909,-76.9230769230769,4,3,10,70,0,0
120266,-100,4,3,10,70,0,0
121695,-100,4,3,0,70,0,0
121874,-100,4,3,10,70,0,0
124374,-100,4,3,0,70,0,0
125802,-100,4,3,10,70,0,0
127231,-133.333333333333,4,2,10,50,0,0
132409,-200,4,2,10,50,0,0
132945,-133.333333333333,4,2,10,50,0,0
138124,-200,4,2,10,50,0,0
138659,-113.636363636364,4,2,0,60,0,0
144374,-113.636363636364,4,3,0,50,0,0
145802,-113.636363636364,4,3,0,55,0,0
146159,-113.636363636364,4,3,0,60,0,0
147231,-113.636363636364,4,3,0,65,0,0
147945,-113.636363636364,4,3,0,70,0,0
148659,-113.636363636364,4,2,10,70,0,0
149909,-66.6666666666667,4,2,10,70,0,0
149954,-66.6666666666667,4,2,10,5,0,0
150088,-133.333333333333,4,3,10,70,0,0
152231,-200,4,3,10,70,0,0
152588,-90.9090909090909,4,3,10,70,0,0
152945,-133.333333333333,4,3,10,70,0,0
153838,-90.9090909090909,4,3,10,70,0,0
155802,-133.333333333333,4,3,10,70,0,0
156695,-90.9090909090909,4,3,10,70,0,0
157945,-133.333333333333,4,3,10,70,0,0
158659,-90.9090909090909,4,3,10,70,0,0
160802,-66.6666666666667,4,3,10,70,0,0
162945,-66.6666666666667,4,3,0,70,0,0
163659,-100,4,3,0,70,0,0
163704,-100,4,3,10,70,0,0
190088,-83.3333333333333,4,3,10,70,0,0
190624,-83.3333333333333,4,3,0,70,0,0
190802,-83.3333333333333,4,3,10,70,0,0
191338,-83.3333333333333,4,3,0,70,0,0
191516,-83.3333333333333,4,3,10,70,0,0
192231,-100,4,3,10,70,0,0
192409,-100,4,3,0,70,0,0
192588,-100,4,3,10,70,0,0
192945,-133.333333333333,4,3,10,70,0,0
193302,-100,4,3,10,70,0,0
194195,-100,4,3,0,70,0,0
194374,-100,4,3,10,70,0,0
195802,-83.3333333333333,4,3,10,70,0,0
196338,-83.3333333333333,4,3,0,70,0,0
196516,-83.3333333333333,4,3,10,70,0,0
197052,-83.3333333333333,4,3,0,70,0,0
197231,-83.3333333333333,4,3,10,70,0,0
197766,-83.3333333333333,4,3,0,70,0,0
197945,-100,4,3,10,70,0,0
200177,-100,4,2,10,30,0,0
200311,-100,4,2,10,20,0,0
200445,-200,4,2,10,20,0,0
201159,-142.857142857143,4,2,10,30,0,0
201338,-111.111111111111,4,2,10,40,0,0
201516,-90.9090909090909,4,2,10,50,0,0
203659,-66.6666666666667,4,3,10,70,0,0
204016,-66.6666666666667,4,3,10,5,0,0
204374,-83.3333333333333,4,2,11,70,0,1
206516,-111.111111111111,4,2,11,70,0,1
206874,-83.3333333333333,4,2,11,70,0,1
212231,-111.111111111111,4,2,11,70,0,1
212588,-83.3333333333333,4,2,11,70,0,1
224374,-52.6315789473684,4,3,10,70,0,1
226070,-83.3333333333333,4,3,10,70,0,1
227231,-83.3333333333333,4,3,10,70,0,0
229374,-200,4,3,10,50,0,0
230802,-200,4,3,10,40,0,0

[Colours]
Combo1 : 233,50,82
Combo2 : 238,87,174
Combo3 : 236,223,66
Combo4 : 33,156,222

[HitObjects]
24,320,1517,5,4,0:0:0:0:
88,344,1695,1,0,0:2:0:0:
108,252,1874,1,2,0:2:0:0:
176,256,2052,1,0,0:0:0:0:
160,164,2231,5,0,0:0:0:0:
228,152,2409,1,0,0:0:0:0:
204,52,2588,1,2,0:2:0:0:
336,28,2766,1,0,0:0:0:0:
488,64,2945,5,4,0:0:0:0:
424,40,3123,1,0,0:2:0:0:
336,128,3302,1,2,0:2:0:0:
404,132,3480,1,0,0:0:0:0:
352,220,3659,5,0,0:0:0:0:
272,236,3837,1,0,0:0:0:0:
176,356,4016,1,2,3:2:0:0:
308,332,4194,1,4,0:3:0:0:
488,376,4374,5,4,0:0:0:0:
380,320,4731,1,2,0:2:0:0:
248,376,5088,1,0,0:0:0:0:
165,306,5445,1,2,0:2:0:0:
16,340,5802,6,0,B|74:325|59:372|118:354,1,105,0|0,0:0|2:0,0:0:0:0:
165,306,6516,6,0,B|212:248|160:182|160:182|88:216|102:291,1,270,0|0,2:0|2:0,0:0:0:0:
180,372,7231,6,0,P|223:377|256:360,1,80.9999975280763,4|2,1:1|0:0,0:0:0:0:
284,300,7499,1,0,0:0:0:0:
280,288,7588,1,8,0:0:0:0:
380,232,7766,1,0,0:0:0:0:
444,336,7945,1,0,1:0:0:0:
324,360,8124,1,0,0:0:0:0:
348,332,8213,1,0,0:0:0:0:
352,296,8302,1,2,0:0:0:0:
304,184,8481,1,0,0:0:0:0:
392,40,8659,6,0,L|480:48,1,80.9999975280763,0|2,1:0|0:0,0:0:0:0:
512,104,8927,1,0,0:0:0:0:
504,116,9016,1,8,1:3:0:0:
288,104,9195,1,0,0:0:0:0:
392,40,9374,1,0,1:0:0:0:
200,4,9552,1,0,0:0:0:0:
224,32,9641,1,0,0:0:0:0:
228,68,9731,1,2,0:0:0:0:
156,184,9909,1,0,0:0:0:0:
36,148,10088,6,0,P|24:109|32:44,1,80.9999975280763,0|2,1:0|0:0,0:0:0:0:
91,51,10356,1,0,0:0:0:0:
91,51,10445,2,0,P|111:85|121:150,1,80.9999975280763,8|0,1:3|0:0,0:0:0:0:
92,188,10713,1,0,0:0:0:0:
92,188,10802,6,0,L|48:220,1,40.4999987640381,0|0,1:0|2:0,0:0:0:0:
121,126,10981,2,0,L|115:71,1,40.4999987640381,0|0,1:0|2:0,0:0:0:0:
155,183,11159,6,0,P|199:215|259:195,1,116.999994644165,2|0,0:0|1:0,0:0:0:0:
219,93,11427,1,2,2:0:0:0:
219,93,11516,2,0,P|220:124|211:157,1,58.4999973220826,0|0,1:0|2:0,0:0:0:0:
128,304,11695,2,0,P|121:275|122:246,1,58.4999973220826,2|0,1:3|2:0,0:0:0:0:
255,198,11874,6,0,L|308:216,1,45,8|0,0:0|2:0,0:0:0:0:
155,183,12052,2,0,L|147:127,1,45,0|0,1:0|2:0,0:0:0:0:
256,268,12231,6,0,B|303:326|251:392|251:392|179:358|193:283,1,270,8|0,1:0|2:0,0:0:0:0:
192,283,12945,6,0,P|196:240|227:209,1,90,4|2,0:1|0:2,0:0:0:0:
128,304,13302,2,0,L|28:292,1,90,8|2,1:0|0:2,0:0:0:0:
16,180,13659,1,0,1:0:0:0:
148,176,13838,1,2,0:2:0:0:
180,148,13927,1,2,0:2:0:0:
176,108,14016,1,8,1:0:0:0:
76,20,14195,1,2,0:2:0:0:
264,0,14374,6,0,P|240:36|252:100,1,90,0|2,1:0|0:2,0:0:0:0:
340,180,14731,2,0,L|448:172,1,90,8|2,1:0|0:2,0:0:0:0:
500,288,15088,1,0,1:0:0:0:
380,344,15266,1,2,0:2:0:0:
340,352,15356,1,2,0:2:0:0:
308,324,15445,1,8,1:0:0:0:
340,180,15624,1,2,0:2:0:0:
424,288,15802,6,0,P|448:332|442:376,1,90,0|2,1:0|0:2,0:0:0:0:
284,384,16159,2,0,L|192:380,1,90,8|2,1:0|0:2,0:0:0:0:
136,344,16427,1,2,2:0:0:0:
132,332,16516,1,2,1:2:0:0:
68,240,16695,1,0,0:0:0:0:
196,312,16874,1,8,1:0:0:0:
52,308,17052,1,8,3:0:0:0:
48,176,17231,5,0,1:0:0:0:
132,332,17409,1,0,1:0:0:0:
256,276,17588,2,0,P|300:278|335:252,1,90,8|0,1:0|0:0,0:0:0:0:
400,84,17945,1,0,1:0:0:0:
400,80,18034,1,0,2:0:0:0:
400,76,18124,1,0,2:2:0:0:
400,72,18213,1,8,2:2:0:0:
400,68,18302,1,8,1:0:0:0:
320,188,18481,1,0,0:0:0:0:
204,112,18659,6,0,B|149:64|184:4|184:4|216:28|192:64,1,168.750006437302,4|0,1:3|2:0,0:0:0:0:
144,144,19195,6,0,B|132:203|73:204|73:204|77:170|113:173,1,135,4|0,1:3|2:0,0:0:0:0:
204,180,19552,6,0,P|228:192|244:228,1,45,8|0,2:0|2:0,0:0:0:0:
332,276,19731,2,0,P|364:268|388:136,1,175.499991966248,8|0,2:0|2:0,0:0:0:0:
452,96,20088,6,0,P|468:84|500:84,1,45,4|0,1:3|2:3,0:0:0:0:
376,12,20266,2,0,P|378:31|362:59,1,45,4|0,1:3|2:3,0:0:0:0:
284,72,20445,2,0,P|265:64|249:36,1,45,2|0,0:3|2:3,0:0:0:0:
124,120,20624,6,0,B|234:86|215:182|317:151,1,202.500007724762,4|0,1:3|2:0,0:0:0:0:
292,30,20981,6,0,P|294:49|278:77,1,45,8|0,2:2|2:3,0:0:0:0:
216,232,21159,2,0,P|196:197|212:120,1,90,8|8,2:0|2:0,2:0:0:0:
52,80,21516,5,4,1:1:0:0:
96,216,21695,1,0,0:0:0:0:
0,164,21874,1,8,0:1:0:0:
124,120,22052,5,4,1:2:0:0:
160,184,22231,1,0,0:0:0:0:
96,216,22409,1,8,0:1:0:0:
8,368,22588,5,4,1:1:0:0:
20,304,22766,1,8,0:1:0:0:
156,252,22945,5,4,1:2:0:0:
220,244,23124,1,2,2:0:0:0:
264,280,23302,1,0,2:0:0:0:
276,324,23481,1,2,2:0:0:0:
164,368,23659,6,0,P|173:340|194:320,1,58.4999973220826,4|0,2:3|2:0,0:0:0:0:
432,312,23838,1,2,0:1:0:0:
432,312,23927,1,2,0:1:0:0:
432,312,24016,2,0,P|376:320|332:276,1,116.999994644165,8|2,0:1|0:1,0:0:0:0:
296,140,24374,5,4,0:1:0:0:
352,32,24552,2,0,L|412:28,1,53.9999983520508,4|0,0:3|0:0,0:0:0:0:
296,72,24909,1,0,0:0:0:0:
296,72,25266,2,0,L|262:22,1,53.9999983520508,0|0,0:3|0:0,0:0:0:0:
360,168,25624,6,0,L|408:164,2,26.9999991760254,4|0|0,0:3|0:0|0:0,0:0:0:0:
236,104,25981,1,4,0:3:0:0:
224,172,26159,1,0,0:0:0:0:
172,128,26338,1,4,0:3:0:0:
172,128,26695,2,0,L|119:132,1,53.9999983520508
76,184,27052,1,0,0:0:0:0:
116,312,27231,5,4,0:3:0:0:
76,260,27409,2,0,P|97:247|132:248,1,53.9999983520508
52,320,27766,1,0,0:0:0:0:
52,320,28124,2,0,L|-4:308,1,53.9999983520508
176,344,28481,1,4,0:3:0:0:
176,344,28570,1,0,0:0:0:0:
176,344,28659,5,0,0:0:0:0:
272,292,28838,2,0,P|300:291|323:304,1,53.9999983520508,4|0,0:3|0:0,0:0:0:0:
208,284,29195,1,4,0:3:0:0:
208,284,29552,2,0,L|200:216,1,53.9999983520508
156,180,29909,1,0,0:0:0:0:
196,52,30088,5,4,0:3:0:0:
156,104,30266,2,0,P|177:116|212:116,1,53.9999983520508
132,44,30624,1,0,0:0:0:0:
132,44,30981,2,0,L|76:56,1,53.9999983520508
256,20,31338,1,4,0:3:0:0:
256,20,31427,1,0,0:0:0:0:
256,20,31516,5,0,0:0:0:0:
352,72,31695,2,0,P|380:72|403:59,1,53.9999983520508,4|0,0:3|0:0,0:0:0:0:
364,8,32052,1,0,0:3:0:0:
280,88,32231,2,0,P|266:112|265:138,1,53.9999983520508,0|0,0:3|0:0,0:0:0:0:
292,200,32499,1,4,0:3:0:0:
296,204,32588,5,4,0:3:0:0:
152,240,32766,1,0,0:0:0:0:
88,112,32945,6,0,B|63:52|6:71|6:71|24:80|28:107,1,135,4|0,0:3|0:0,0:0:0:0:
40,160,33302,5,12,0:0:0:0:
116,304,33481,1,4,0:3:0:0:
256,228,33659,6,0,B|300:200|344:236|344:236|328:260|309:259,1,135,4|0,0:3|0:0,0:0:0:0:
256,296,34016,5,8,0:0:0:0:
256,88,34195,1,4,0:3:0:0:
216,156,34552,5,8,0:0:0:0:
296,156,34909,1,8,0:0:0:0:
364,192,35266,5,8,0:0:0:0:
148,192,35445,1,12,0:0:0:0:
256,304,35624,1,0,3:0:0:0:
120,376,35802,6,0,P|76:376|40:344,1,90,4|2,1:0|0:2,0:0:0:0:
105,294,36070,1,2,0:2:0:0:
105,294,36159,2,0,P|127:332|117:379,1,90,8|2,0:1|0:0,0:0:0:0:
48,228,36516,6,0,P|90:203|149:220,1,90,0|10,0:0|0:0,0:0:0:0:
213,212,36784,1,2,0:2:0:0:
216,196,36874,2,0,L|228:100,1,90,8|2,0:1|0:0,0:0:0:0:
120,16,37231,6,0,P|76:16|40:48,1,90,0|2,0:2|0:2,0:0:0:0:
105,98,37499,1,2,0:2:0:0:
105,98,37588,2,0,P|127:60|117:13,1,90,8|2,0:1|0:0,0:0:0:0:
48,164,37945,6,0,P|90:189|149:172,1,90,0|8,0:0|0:0,0:0:0:0:
205,207,38213,1,2,0:2:0:0:
216,196,38302,2,0,P|260:199|298:175,1,90,8|2,0:1|0:0,0:0:0:0:
388,20,38659,6,0,B|343:14|318:52|318:52|316:97|355:118,1,161.999995056153,0|0,0:0|2:0,0:0:0:0:
472,92,39016,2,0,B|499:56|478:15|478:15|440:-8|402:14,1,161.999995056153,2|0,0:2|2:0,0:0:0:0:
368,128,39374,2,0,B|384:169|430:171|430:171|471:151|469:106,1,161.999995056153,2|0,0:2|2:0,0:0:0:0:
396,20,39731,6,0,L|431:177,1,107.999996704102,8|0,2:1|3:3,0:0:0:0:
448,252,39999,1,0,3:0:0:0:
448,252,40088,5,2,0:2:0:0:
280,104,40266,1,2,2:0:0:0:
256,328,40445,2,0,P|292:352|348:340,1,90,8|2,0:1|0:0,0:0:0:0:
476,180,40802,2,0,P|432:174|395:199,1,90,2|8,0:2|0:3,0:0:0:0:
448,252,41070,1,2,0:2:0:0:
452,256,41159,2,0,L|464:352,1,90,8|2,2:1|0:0,0:0:0:0:
363,195,41516,5,2,0:2:0:0:
301,266,41695,1,2,0:0:0:0:
360,112,41874,5,8,0:1:0:0:
292,156,42052,1,2,2:0:0:0:
392,44,42231,5,0,0:0:0:0:
320,52,42409,2,0,L|272:48,2,45,2|2|8,2:0|2:0|0:1,0:0:0:0:
320,52,42766,1,2,2:0:0:0:
104,192,42945,5,0,0:0:0:0:
172,212,43124,1,2,0:0:0:0:
104,264,43302,5,8,0:1:0:0:
164,280,43481,1,2,2:0:0:0:
92,324,43659,5,0,0:0:0:0:
128,340,43838,1,2,0:0:0:0:
128,340,43927,1,2,0:0:0:0:
128,340,44016,1,8,1:0:0:0:
68,356,44195,5,2,0:0:0:0:
172,212,44374,5,4,0:3:0:0:
256,288,44552,1,2,0:2:0:0:
340,212,44731,1,4,1:1:0:0:
112,264,45088,5,4,0:3:0:0:
256,360,45266,1,2,0:2:0:0:
400,264,45445,1,12,0:2:0:0:
32,288,45802,5,4,0:3:0:0:
132,348,45981,1,0,0:3:0:0:
256,360,46159,1,2,0:2:0:0:
380,348,46338,1,8,0:2:0:0:
480,288,46516,1,4,0:0:0:0:
256,288,46695,5,8,0:0:0:0:
256,288,46784,1,8,0:0:0:0:
256,288,46874,2,0,B|184:216|240:120|348:220|244:240,1,202.500007724762,8|0,0:2|2:0,0:0:0:0:
155,256,47231,6,0,P|111:251|76:224,1,90,4|0,1:0|2:2,0:0:0:0:
256,288,47588,2,0,P|230:324|188:341,1,90,8|0,2:2|2:2,0:0:0:0:
132,128,47945,2,0,P|139:76|159:124,1,135,0|0,0:0|2:0,0:0:0:0:
168,188,48302,1,8,2:2:0:0:
84,24,48481,6,0,P|156:8|240:88,1,175.499991966248,2|0,0:0|2:0,0:0:0:0:
280,120,48838,6,0,P|320:144|384:128,1,90,2|8,0:2|0:2,0:0:0:0:
512,0,49195,1,2,0:0:0:0:
512,0,49284,1,0,0:0:0:0:
512,0,49374,2,0,P|467:-2|430:21,1,90,2|8,0:2|0:2,0:0:0:0:
496,168,49731,2,0,L|484:52,1,90,0|2,0:0|0:0,0:0:0:0:
356,256,50088,6,0,P|400:251|435:224,1,90,4|0,3:3|2:2,0:0:0:0:
256,288,50445,2,0,P|281:324|323:341,1,90,8|0,2:2|2:2,0:0:0:0:
380,128,50802,2,0,P|373:76|353:124,1,135,0|0,0:0|2:0,0:0:0:0:
344,188,51159,1,8,2:2:0:0:
428,24,51338,6,0,P|356:8|272:88,1,175.499991966248,2|0,0:0|2:0,0:0:0:0:
232,120,51695,1,0,0:0:0:0:
84,188,51874,6,0,P|39:190|2:166,1,90,10|0,0:2|0:2,0:0:0:0:
156,40,52231,2,0,L|144:160,1,90,0|8,0:2|0:2,0:0:0:0:
128,328,52588,1,8,2:0:0:0:
84,188,52766,1,0,0:0:0:0:
88,212,52856,1,0,3:0:0:0:
92,236,52945,5,4,0:1:0:0:
232,120,53124,1,0,0:0:0:0:
224,156,53213,1,0,2:0:0:0:
216,192,53302,1,8,0:2:0:0:
147,129,53481,1,0,0:0:0:0:
300,196,53659,2,0,P|343:203|440:168,1,135,0|0,0:0|2:0,0:0:0:0:
476,128,54016,1,8,2:0:0:0:
216,192,54195,5,0,0:0:0:0:
140,272,54374,1,0,0:0:0:0:
176,372,54552,1,0,0:0:0:0:
212,380,54641,1,0,0:0:0:0:
244,368,54731,1,8,2:0:0:0:
288,272,54909,1,0,0:0:0:0:
256,168,55088,5,8,2:0:0:0:
256,160,55445,1,8,2:0:0:0:
256,152,55802,5,12,2:0:0:0:
84,76,55981,5,0,3:2:0:0:
80,92,56070,1,0,3:2:0:0:
76,108,56159,1,8,3:2:0:0:
172,64,56338,5,0,3:2:0:0:
148,40,56427,1,0,3:2:0:0:
124,18,56516,1,8,3:2:0:0:
60,176,56695,5,0,3:2:0:0:
125,158,56784,1,0,3:2:0:0:
187,138,56874,1,8,3:2:0:0:
16,68,57052,1,0,3:0:0:0:
84,256,57231,6,0,B|57:234|13:241|12:312|71:300|104:333|104:333|117:288|174:269|137:208|96:223|84:256,1,303.750011587143,4|0,1:1|2:0,0:0:0:0:
168,352,58124,5,2,0:1:0:0:
168,352,58213,1,2,0:1:0:0:
168,352,58302,6,0,P|212:360|272:304,1,107.999996704102,10|2,0:1|0:1,0:0:0:0:
272,220,58659,5,12,3:1:0:0:
179,195,58838,1,2,0:3:0:0:
117,265,59016,1,8,3:2:0:0:
168,352,59195,1,2,0:3:0:0:
263,327,59374,2,0,B|301:285|271:241|271:241|233:261|249:297,1,161.999995056153,8|8,3:3|0:3,0:0:0:0:
375,336,59731,5,8,3:2:0:0:
419,226,59909,1,2,0:3:0:0:
335,152,60088,1,2,3:2:0:0:
231,213,60266,1,2,0:3:0:0:
262,326,60445,2,0,B|312:371|365:335|365:335|341:290|298:309,1,161.999995056153,8|0,3:2|2:0,0:0:0:0:
168,352,60802,6,0,P|88:351|23:304,1,161.999995056153,8|2,3:3|0:3,0:0:0:0:
16,228,61159,1,8,3:2:0:0:
231,213,61338,1,2,0:3:0:0:
23,304,61516,6,0,P|102:303|167:256,1,161.999995056153,2|8,3:3|0:3,0:0:0:0:
164,180,61874,1,8,3:2:0:0:
112,376,62052,1,2,0:3:0:0:
16,228,62231,6,0,P|0:176|8:116,1,107.999996704102,0|2,3:0|0:3,0:0:0:0:
216,32,62588,2,0,P|232:84|224:144,1,107.999996704102,8|8,3:2|0:3,0:0:0:0:
231,213,62856,1,2,0:2:0:0:
300,172,62945,6,0,B|415:161,1,107.999996704102,2|2,3:2|0:3,0:0:0:0:
148,68,63302,2,0,B|33:57,1,107.999996704102,8|2,3:2|0:3,0:0:0:0:
320,36,63659,1,2,3:2:0:0:
160,180,63838,5,8,1:3:0:0:
148,228,63927,1,8,1:3:0:0:
136,276,64016,2,0,P|82:296|24:268,1,107.999996704102,8|8,1:2|1:2,0:0:0:0:
242,232,64374,5,4,3:3:0:0:
333,195,64552,1,2,0:3:0:0:
395,265,64731,1,8,3:2:0:0:
344,352,64909,1,2,0:3:0:0:
250,326,65088,2,0,B|212:284|242:240|242:240|280:260|264:296,1,161.999995056153,8|8,3:3|0:3,0:0:0:0:
137,336,65445,5,8,3:2:0:0:
93,226,65624,1,2,0:3:0:0:
177,152,65802,1,2,3:2:0:0:
281,213,65981,1,2,0:3:0:0:
250,326,66159,2,0,B|200:371|147:335|147:335|171:290|214:309,1,161.999995056153,8|0,3:2|2:0,0:0:0:0:
344,352,66516,6,0,P|424:351|489:304,1,161.999995056153,8|2,3:3|0:3,0:0:0:0:
496,228,66874,1,8,3:2:0:0:
281,213,67052,1,2,0:3:0:0:
489,304,67231,6,0,P|410:303|345:256,1,161.999995056153,2|8,3:3|0:3,0:0:0:0:
348,180,67588,1,8,3:2:0:0:
400,376,67766,1,2,0:3:0:0:
496,228,67945,6,0,P|512:176|504:116,1,107.999996704102,0|2,3:0|0:3,0:0:0:0:
296,32,68302,2,0,P|280:84|288:144,1,107.999996704102,8|8,3:2|0:3,0:0:0:0:
281,213,68570,1,2,0:2:0:0:
212,172,68659,6,0,B|97:161,1,107.999996704102,2|2,3:2|0:3,0:0:0:0:
364,68,69016,2,0,B|479:57,1,107.999996704102,8|2,3:2|0:0,0:0:0:0:
192,36,69374,1,0,3:0:0:0:
348,180,69552,5,2,2:1:0:0:
360,228,69641,1,2,2:1:0:0:
372,272,69731,2,0,P|318:292|260:264,1,107.999996704102,8|2,3:2|3:1,0:0:0:0:
129,81,70088,5,12,3:1:0:0:
17,129,70266,1,2,0:3:0:0:
25,249,70445,1,8,3:2:0:0:
137,281,70624,1,2,0:3:0:0:
212,172,70802,1,8,3:3:0:0:
137,281,70981,1,2,0:0:0:0:
137,281,71070,1,8,0:3:0:0:
137,281,71159,5,8,3:2:0:0:
162,134,71338,1,2,0:3:0:0:
305,112,71516,1,2,3:2:0:0:
370,234,71695,1,2,0:3:0:0:
261,352,71874,2,0,P|204:368|148:344,1,107.999996704102,8|0,3:2|0:0,0:0:0:0:
137,281,72141,1,0,0:0:0:0:
88,340,72231,6,0,P|164:352|211:291,1,161.999995056153,2|2,3:2|0:3,0:0:0:0:
184,220,72588,1,8,3:2:0:0:
261,352,72766,1,2,0:0:0:0:
396,284,72945,2,0,P|448:293|495:269,1,107.999996704102,8|2,3:3|0:0,0:0:0:0:
512,196,73213,1,2,0:0:0:0:
504,120,73302,2,0,B|496:-8,1,107.999996704102,8|2,3:2|0:3,0:0:0:0:
303,155,73659,5,0,3:0:0:0:
239,249,73838,1,2,0:3:0:0:
235,135,74016,1,8,3:2:0:0:
305,225,74195,1,2,0:3:0:0:
149,246,74374,5,8,3:3:0:0:
310,85,74552,1,2,0:3:0:0:
274,309,74731,1,8,3:2:0:0:
171,107,74909,1,2,0:3:0:0:
373,210,75088,1,2,3:2:0:0:
149,246,75266,1,2,2:3:0:0:
104,279,75356,1,10,2:3:0:0:
88,331,75445,2,0,P|39:316|7:260,1,107.999996704102,8|8,3:2|2:3,0:0:0:0:
8,204,75713,1,2,0:2:0:0:
40,144,75802,5,12,3:1:0:0:
180,259,75981,1,2,0:2:0:0:
180,259,76070,1,2,0:2:0:0:
180,259,76159,2,0,P|191:310|180:363,1,107.999996704102,8|0,3:2|0:0,0:0:0:0:
235,92,76516,2,0,P|185:77|145:40,1,107.999996704102,2|0,3:3|0:0,0:0:0:0:
352,224,76874,2,0,P|391:188|442:172,1,107.999996704102,8|2,3:2|0:0,0:0:0:0:
197,109,77231,6,0,P|143:114|93:97,1,107.999996704102,4|0,3:2|0:0,0:0:0:0:
255,293,77588,2,0,P|301:319|332:363,1,107.999996704102,8|0,3:2|0:0,0:0:0:0:
316,110,77945,2,0,P|294:61|294:7,1,107.999996704102,2|2,3:2|0:3,0:0:0:0:
159,222,78302,2,0,P|147:274|115:317,1,107.999996704102,8|8,3:2|0:3,0:0:0:0:
324,216,78659,6,0,B|356:244|404:224|404:224|372:184|329:194,1,170.999995433807,4|2,0:1|0:0,0:0:0:0:
256,192,78927,1,2,0:0:0:0:
215,132,79016,2,0,B|205:91|155:79|155:79|157:130|198:147,1,170.999995433807,0|2,1:1|0:0,0:0:0:0:
256,192,79284,1,2,0:0:0:0:
254,264,79374,2,0,B|237:303|271:342|271:342|299:299|276:262,1,170.999995433807,4|2,0:2|0:0,0:0:0:0:
256,192,79641,1,2,0:0:0:0:
299,134,79731,2,0,B|336:112|332:61|332:61|284:79|280:123,1,170.999995433807,0|2,1:0|0:0,0:0:0:0:
256,192,79999,1,2,0:0:0:0:
186,212,80088,2,0,B|144:208|117:253|117:253|166:266|195:233,1,170.999995433807,4|0,1:2|1:0,0:0:0:0:
256,192,80356,5,0,1:0:0:0:
198,147,80445,2,0,P|170:144|144:152,1,53.9999983520508,0|0,1:0|2:0,0:0:0:0:
314,147,80624,2,0,P|341:144|368:152,1,53.9999983520508,0|0,1:0|2:0,0:0:0:0:
192,80,80802,5,0,1:0:0:0:
198,147,80891,1,2,0:1:0:0:
256,192,80981,1,2,0:1:0:0:
314,147,81070,1,2,0:1:0:0:
320,80,81159,1,2,0:1:0:0:
256,260,81338,1,2,0:1:0:0:
384,360,81516,6,0,P|464:360|504:308,1,135,4|0,0:1|2:1,0:0:0:0:
332,288,81874,6,0,L|436:284,1,90,8|8,0:1|0:0,0:0:0:0:
256,260,82231,1,2,0:2:0:0:
319,140,82409,2,0,L|323:36,1,90,0|8,0:1|2:1,0:0:0:0:
316,216,82766,1,0,0:0:0:0:
492,176,82945,6,0,B|520:175|516:143|516:143|488:131|480:155,1,90,4|8,0:0|0:0,0:0:0:0:
432,251,83302,2,0,B|417:275|447:287|447:287|472:269|455:250,1,90,8|0,2:1|0:0,0:0:0:0:
400,163,83659,2,0,B|385:138|360:158|360:158|363:188|388:183,1,90,2|8,3:2|2:1,0:0:0:0:
432,92,83927,1,0,3:0:0:0:
436,88,84016,2,0,P|436:43|422:0,1,90,8|8,0:1|0:0,0:0:0:0:
256,104,84374,6,0,P|176:104|136:52,1,135,2|0,0:2|2:1,0:0:0:0:
308,32,84732,6,0,L|204:28,1,90,8|8,0:1|0:0,0:0:0:0:
340,112,85089,1,2,0:2:0:0:
204,192,85266,2,0,L|308:188,1,90,0|8,0:1|0:1,0:0:0:0:
182,271,85624,1,0,0:0:0:0:
330,271,85802,6,0,B|344:246|369:266|369:266|366:296|342:291,1,90,2|0,3:2|0:0,0:0:0:0:
167,291,86159,2,0,B|145:296|142:266|142:266|167:246|182:271,1,90,8|8,2:1|3:0,0:0:0:0:
268,336,86516,2,0,B|282:360|256:372|256:372|228:360|244:336,1,90,4|2,2:3|3:1,0:0:0:0:
256,260,86784,1,2,0:1:0:0:
256,256,86874,2,0,B|248:216|264:208|256:166,1,90,2|2,0:1|0:1,0:0:0:0:
291,40,87231,6,0,B|264:44|256:28|248:44|224:40,1,67.5,2|0,3:2|2:1,0:0:0:0:
180,96,87588,6,0,L|76:100,1,90,4|8,0:1|0:0,0:0:0:0:
256,124,87945,1,2,0:2:0:0:
193,244,88124,1,0,0:0:0:0:
193,244,88213,1,0,0:0:0:0:
193,244,88302,2,0,L|189:348,1,90,8|0,2:1|0:0,0:0:0:0:
20,208,88659,6,0,B|-8:209|-4:241|-4:241|24:253|32:229,1,90,4|8,0:0|0:0,0:0:0:0:
80,133,89016,2,0,B|95:109|65:97|65:97|40:115|57:134,1,90,8|0,2:1|0:0,0:0:0:0:
112,221,89373,2,0,B|127:246|152:226|152:226|149:196|124:201,1,90,2|8,3:2|2:1,0:0:0:0:
80,292,89641,1,0,3:0:0:0:
76,296,89730,2,0,P|76:341|90:384,1,90,8|8,0:1|0:0,0:0:0:0:
256,280,90088,6,0,P|336:280|376:332,1,135,2|0,0:2|2:1,0:0:0:0:
204,352,90446,6,0,L|308:356,1,90,8|8,0:1|0:0,0:0:0:0:
172,272,90803,1,2,0:2:0:0:
328,176,90981,5,0,0:0:0:0:
316,148,91070,1,0,0:0:0:0:
304,120,91159,1,8,0:1:0:0:
328,176,91338,5,0,0:0:0:0:
324,224,91427,1,0,0:0:0:0:
320,272,91516,1,2,0:0:0:0:
384,128,91695,1,8,0:0:0:0:
240,208,91874,1,2,0:0:0:0:
408,224,92052,1,8,0:0:0:0:
280,116,92231,6,0,P|214:110|160:148,1,135.000005149842,4|8,0:0|0:0,0:0:0:0:
160,148,92945,1,4,2:1:0:0:
324,192,95266,5,2,3:1:0:0:
256,192,95355,1,2,3:1:0:0:
188,192,95444,1,0,3:1:0:0:
352,132,95624,1,2,0:1:0:0:
448,264,95802,6,0,B|434:242|434:242|444:188,1,72,4|0,0:1|3:0,0:0:0:0:
496,156,96070,1,0,0:0:0:0:
440,200,96159,2,0,L|364:198,1,72,2|0,0:2|2:0,0:0:0:0:
292,44,96516,6,0,B|278:66|278:66|288:120,1,72,0|0,0:1|3:0,0:0:0:0:
352,132,96784,1,0,0:0:0:0:
300,180,96873,2,0,L|244:183,2,36,2|0|0,0:2|2:0|0:0,0:0:0:0:
292,249,97141,1,0,3:0:0:0:
224,240,97231,6,0,L|144:232,1,72
252,304,97499,1,0,0:0:0:0:
156,236,97588,2,0,L|164:148,1,72,2|0,0:2|2:0,0:0:0:0:
124,108,97856,1,0,0:0:0:0:
164,52,97945,2,0,L|200:48,2,36,0|0|0,0:2|2:0|0:0,0:0:0:0:
58,100,98213,1,0,0:0:0:0:
124,108,98302,6,0,L|52:104,1,72,2|0,0:2|0:0,0:0:0:0:
296,140,98659,6,0,L|368:136,1,72,0|0,0:2|0:0,0:0:0:0:
220,240,98927,1,0,0:0:0:0:
216,244,99016,2,0,L|144:248,1,72,2|0,0:2|0:0,0:0:0:0:
329,208,99284,1,0,0:0:0:0:
336,208,99374,6,0,L|388:264,1,67.5000025749208,0|0,0:2|0:0,0:0:0:0:
180,180,99641,1,0,0:0:0:0:
176,176,99731,2,0,L|124:120,1,67.5000025749208,2|0,0:2|0:0,0:0:0:0:
288,264,99999,1,0,0:0:0:0:
288,268,100088,6,0,L|272:340,1,62.9999980773926
224,120,100356,1,0,0:0:0:0:
224,116,100445,6,0,L|240:44,1,62.9999980773926
256,192,100713,2,0,L|256:232,1,31.4999990386963
324,192,100981,5,2,0:0:0:0:
256,192,101070,1,2,0:0:0:0:
188,192,101159,1,0,0:2:0:0:
256,56,101338,1,2,0:0:0:0:
88,112,101516,6,0,B|63:52|6:71|6:71|24:80|28:107,1,135,4|0,0:3|2:0,0:0:0:0:
40,160,101874,5,12,1:0:0:0:
116,304,102052,1,4,0:3:0:0:
256,156,102231,6,0,B|300:184|344:148|344:148|328:124|309:125,1,135,4|0,0:3|2:0,0:0:0:0:
256,88,102588,5,8,0:2:0:0:
256,296,102767,1,4,0:3:0:0:
216,228,103124,5,8,2:0:0:0:
296,228,103481,1,8,2:0:0:0:
364,192,103838,5,8,0:2:0:0:
148,192,104017,1,12,0:2:0:0:
256,80,104196,1,0,3:0:0:0:
120,8,104374,6,0,P|76:8|40:40,1,90,4|2,2:2|0:2,0:0:0:0:
105,90,104641,1,2,0:2:0:0:
105,90,104731,2,0,P|127:52|117:5,1,90,8|2,0:2|0:0,0:0:0:0:
48,156,105088,6,0,P|90:181|149:164,1,90,0|10,0:0|0:0,0:0:0:0:
214,172,105356,1,2,0:2:0:0:
216,188,105445,2,0,L|228:284,1,90,8|2,0:2|0:0,0:0:0:0:
120,368,105802,6,0,P|76:368|40:336,1,90,0|2,0:2|0:2,0:0:0:0:
105,286,106070,1,2,0:2:0:0:
105,286,106159,2,0,P|127:324|117:371,1,90,8|2,0:2|0:0,0:0:0:0:
204,356,106516,6,0,P|248:359|285:335,1,90,0|8,0:0|0:0,0:0:0:0:
328,264,106784,1,2,0:2:0:0:
328,264,106874,2,0,P|365:287|409:284,1,90,8|2,0:2|0:0,0:0:0:0:
504,136,107231,6,0,B|428:118|452:174|377:158,1,135,0|0,0:0|2:0,0:0:0:0:
304,48,107588,2,0,B|326:122|362:74|386:146,1,135,8|0,0:2|2:0,0:0:0:0:
328,264,107945,2,0,B|381:207|321:199|372:143,1,135,0|0,0:0|2:0,0:0:0:0:
484,208,108302,6,0,P|460:245|417:256,1,90,8|0,0:2|3:0,0:0:0:0:
276,208,108570,1,0,3:0:0:0:
276,208,108659,5,2,0:2:0:0:
404,32,108838,1,2,0:2:0:0:
417,256,109016,2,0,P|451:273|517:244,1,90,10|2,0:2|2:2,0:0:0:0:
365,360,109374,2,0,L|276:364,1,90,2|2,0:2|2:2,0:0:0:0:
204,348,109641,1,2,0:2:0:0:
200,344,109731,2,0,P|176:304|180:256,1,90,8|10,0:2|2:2,0:0:0:0:
363,189,110088,5,2,0:2:0:0:
284,208,110266,1,2,0:0:0:0:
256,284,110445,1,8,0:2:0:0:
276,364,110624,1,2,2:0:0:0:
200,344,110802,5,0,0:0:0:0:
120,348,110981,2,0,L|112:296,1,33.7500012874604,2|2,2:0|2:0,0:0:0:0:
48,376,111159,1,8,0:2:0:0:
128,240,111338,1,2,2:0:0:0:
128,240,111427,1,2,2:0:0:0:
128,240,111516,5,0,0:0:0:0:
76,188,111695,2,0,B|68:176|68:176|68:156,1,33.7500012874604,2|0,0:3|2:0,0:0:0:0:
96,88,111874,5,8,0:2:0:0:
148,140,112052,2,0,B|156:152|156:152|156:172,1,33.7500012874604,2|0,0:3|2:0,0:0:0:0:
128,240,112231,5,0,0:0:0:0:
96,88,112409,2,0,L|88:55,1,33.7500012874604,2|2,0:3|2:3,0:0:0:0:
128,240,112588,5,8,1:2:0:0:
81,22,112766,2,0,L|88:54,1,33.7500012874604,2|0,0:3|2:3,0:0:0:0:
172,172,112945,5,4,0:3:0:0:
256,96,113124,1,2,0:2:0:0:
340,172,113302,1,4,1:1:0:0:
112,120,113659,5,4,0:3:0:0:
256,24,113838,1,2,0:2:0:0:
400,120,114016,1,12,0:2:0:0:
32,96,114374,5,4,0:3:0:0:
132,36,114552,1,0,0:3:0:0:
256,24,114731,1,2,0:2:0:0:
380,36,114909,1,12,0:2:0:0:
480,96,115088,1,4,0:0:0:0:
256,96,115266,5,8,0:0:0:0:
256,96,115356,1,8,0:0:0:0:
256,96,115445,2,0,B|184:168|240:264|348:164|244:144,1,202.500007724762,8|0,0:2|2:0,0:0:0:0:
155,128,115802,6,0,P|110:133|75:160,1,90,4|0,1:0|2:2,0:0:0:0:
256,96,116159,2,0,P|273:55|267:11,1,90,8|0,2:0|2:2,0:0:0:0:
236,208,116516,2,0,P|240:288|280:356,1,135,0|0,0:0|2:0,0:0:0:0:
316,380,116874,1,8,2:2:0:0:
116,378,117052,6,0,P|180:322|264:336,1,175.499991966248,2|0,0:0|2:0,0:0:0:0:
316,380,117409,6,0,P|360:382|397:358,1,90,2|8,0:2|0:2,0:0:0:0:
392,188,117766,1,2,0:0:0:0:
392,188,117856,1,0,0:0:0:0:
392,188,117945,1,2,3:2:0:0:
492,336,118124,1,8,0:2:0:0:
316,380,118302,2,0,L|325:290,1,90,8|2,0:2|0:0,0:0:0:0:
444,124,118659,6,0,P|438:79|411:44,1,90,4|0,3:0|2:2,0:0:0:0:
392,188,119016,2,0,P|432:205|476:199,1,90,8|0,2:0|2:2,0:0:0:0:
328,248,119373,2,0,P|266:275|199:275,1,135,0|0,0:0|2:0,0:0:0:0:
136,248,119731,1,8,2:2:0:0:
344,330,119909,6,0,P|284:269|199:275,1,175.499991966248,2|0,0:0|2:0,0:0:0:0:
136,248,120266,6,0,P|112:210|114:166,1,90,2|8,0:2|0:2,0:0:0:0:
168,104,120623,1,2,0:0:0:0:
168,104,120713,1,0,0:0:0:0:
168,104,120802,1,2,3:2:0:0:
0,224,120981,1,8,0:2:0:0:
200,275,121159,2,0,L|209:185,1,90,0|0,0:0|2:0,0:0:0:0:
224,40,121516,1,4,0:1:0:0:
114,166,121695,5,0,3:0:0:0:
78,154,121784,1,0,3:0:0:0:
42,142,121874,1,8,0:2:0:0:
88,72,122052,1,0,0:0:0:0:
209,186,122231,2,0,P|272:204|333:178,1,135
380,124,122588,1,8,2:0:0:0:
209,186,122766,5,2,0:2:0:0:
132,112,122945,1,0,0:0:0:0:
176,12,123124,1,0,0:0:0:0:
212,4,123213,1,0,0:0:0:0:
244,16,123302,1,8,2:0:0:0:
288,112,123481,1,0,0:0:0:0:
256,216,123659,5,8,2:0:0:0:
256,224,124016,1,8,2:0:0:0:
256,232,124374,5,8,2:0:0:0:
84,308,124552,5,0,3:0:0:0:
80,292,124641,1,0,3:0:0:0:
76,276,124731,1,8,3:2:0:0:
172,320,124909,5,0,3:0:0:0:
148,344,124999,1,0,3:0:0:0:
124,366,125088,1,8,3:2:0:0:
60,208,125266,5,0,3:0:0:0:
125,226,125356,1,0,3:0:0:0:
187,246,125445,1,8,3:2:0:0:
16,316,125624,1,0,3:0:0:0:
84,128,125802,6,0,B|57:150|13:143|12:72|71:84|104:51|104:51|117:96|174:115|137:176|96:161|84:128,1,315,4|0,1:1|2:0,0:0:0:0:
84,128,126516,5,2,2:0:0:0:
192,176,126695,1,2,0:1:0:0:
192,176,126784,1,2,0:1:0:0:
192,176,126874,6,0,P|236:176|280:136,1,90,2|2,0:1|0:1,0:0:0:0:
340,28,127231,5,4,0:1:0:0:
408,50,127409,1,0,0:0:0:0:
408,121,127588,1,2,0:0:0:0:
340,143,127766,1,0,0:0:0:0:
299,86,127945,1,2,0:0:0:0:
392,188,128302,5,2,0:0:0:0:
449,251,128481,1,0,0:0:0:0:
406,325,128659,1,2,0:0:0:0:
322,307,128838,1,0,0:0:0:0:
314,223,129016,1,2,0:0:0:0:
314,223,129374,6,0,P|263:253|176:236,1,135.000005149842,2|0,0:0|0:0,0:0:0:0:
136,200,129909,1,0,0:0:0:0:
0,292,130088,6,0,P|51:262|138:279,1,135.000005149842,2|0,0:0|0:0,0:0:0:0:
180,316,130624,1,0,0:0:0:0:
40,348,130802,1,2,0:0:0:0:
0,292,130981,1,0,0:0:0:0:
8,220,131159,1,0,0:0:0:0:
76,140,131338,1,2,0:0:0:0:
180,128,131516,5,2,0:0:0:0:
76,140,131695,1,0,0:0:0:0:
8,220,131874,1,2,0:0:0:0:
40,348,132052,1,0,0:0:0:0:
176,364,132231,1,2,0:0:0:0:
172,356,132945,5,2,0:0:0:0:
104,334,133124,1,0,0:0:0:0:
104,263,133302,1,2,0:0:0:0:
172,241,133481,1,0,0:0:0:0:
213,298,133659,1,2,0:0:0:0:
120,196,134016,5,2,0:0:0:0:
63,133,134195,1,0,0:0:0:0:
106,59,134374,1,2,0:0:0:0:
190,77,134552,1,0,0:0:0:0:
198,161,134731,1,2,0:0:0:0:
198,161,135088,6,0,P|249:131|336:148,1,135.000005149842,2|0,0:0|0:0,0:0:0:0:
376,184,135624,1,0,0:0:0:0:
512,92,135802,6,0,P|461:122|374:105,1,135.000005149842,2|0,0:0|0:0,0:0:0:0:
332,68,136338,1,0,0:0:0:0:
472,36,136516,1,2,0:0:0:0:
512,92,136695,1,0,0:0:0:0:
504,164,136874,1,0,0:0:0:0:
436,244,137052,1,2,0:0:0:0:
319,247,137231,5,2,0:0:0:0:
249,128,137409,1,0,0:0:0:0:
376,184,137588,1,0,0:0:0:0:
241,212,137766,1,2,0:0:0:0:
333,110,137945,1,2,0:0:0:0:
72,360,138659,5,6,0:0:0:0:
10,304,138838,1,0,0:0:0:0:
46,226,139016,1,2,0:0:0:0:
132,236,139195,1,0,0:0:0:0:
149,321,139374,1,2,0:0:0:0:
231,334,139552,1,0,3:0:0:0:
149,321,139731,5,2,0:0:0:0:
209,196,139909,1,0,3:0:0:0:
209,196,139999,1,0,3:0:0:0:
209,196,140088,1,2,3:2:0:0:
270,259,140266,1,0,0:0:0:0:
231,334,140445,1,2,0:0:0:0:
296,384,140624,1,0,3:0:0:0:
231,334,140802,6,0,P|304:372|392:364,1,158.400004833984,2|0,0:0|0:0,0:0:0:0:
448,320,141338,1,0,3:0:0:0:
448,320,141427,1,0,3:0:0:0:
448,320,141516,2,0,B|428:152,1,158.400004833984,2|2,3:2|0:0,0:0:0:0:
468,84,142052,1,0,0:0:0:0:
344,188,142231,2,0,P|306:186|256:140,1,79.2000024169922,2|0,0:0|3:0,0:0:0:0:
226,16,142588,2,0,P|216:54|228:92,1,79.2000024169922,2|0,0:0|3:0,0:0:0:0:
271,165,142856,1,0,3:0:0:0:
271,165,142945,5,2,3:2:0:0:
162,288,143124,1,0,0:0:0:0:
325,252,143302,1,0,0:0:0:0:
172,189,143481,1,2,0:0:0:0:
256,328,143659,1,2,0:0:0:0:
256,328,144195,1,0,3:0:0:0:
256,328,144284,1,0,3:0:0:0:
256,328,144374,6,0,B|256:376,15,39.6000012084961
256,256,145802,6,0,B|256:224,6,19.8000006042481,4|0|0|0|0|0|0,0:2|0:0|0:0|0:0|0:0|0:0|0:0,0:0:0:0:
320,292,146159,2,0,B|376:292,11,39.6000012084961
192,292,147231,6,0,B|160:292,2,26.4000008056641,4|0|0,0:2|0:0|0:0,0:0:0:0:
180,248,147409,1,0,0:0:0:0:
152,212,147499,1,0,0:0:0:0:
192,200,147588,1,0,0:0:0:0:
224,172,147677,1,0,0:0:0:0:
248,136,147766,1,0,0:0:0:0:
252,92,147856,1,0,0:0:0:0:
256,48,147945,6,0,B|256:16,2,26.4000008056641,4|0|0,0:2|0:0|0:0,0:0:0:0:
260,92,148124,1,0,0:0:0:0:
264,136,148213,1,0,0:0:0:0:
288,172,148302,1,0,0:0:0:0:
320,200,148391,1,0,0:0:0:0:
360,212,148481,1,0,0:0:0:0:
332,248,148570,1,0,0:0:0:0:
320,292,148659,5,2,0:1:0:0:
192,292,148838,1,8,0:1:0:0:
256,328,149195,5,8,0:1:0:0:
392,288,149552,5,2,0:3:0:0:
120,288,149731,1,2,0:0:0:0:
256,216,149909,6,0,L|256:168,1,33.7500012874604,2|0,0:1|0:0,0:0:0:0:
173,16,150088,6,0,B|193:64|193:64|173:108,1,101.250003862381,4|0,0:1|2:0,0:0:0:0:
117,64,150445,1,8,0:1:0:0:
254,108,150624,2,0,B|356:108,1,101.250003862381,2|0,0:0|2:3,0:0:0:0:
492,28,150981,5,8,0:0:0:0:
488,48,151070,1,0,0:0:0:0:
484,68,151159,1,8,0:1:0:0:
464,140,151338,1,8,0:0:0:0:
355,108,151516,5,0,0:0:0:0:
368,176,151695,1,2,0:0:0:0:
484,68,151874,5,8,0:1:0:0:
432,204,152052,1,8,0:0:0:0:
280,72,152231,2,0,L|292:132,1,45,0|0,0:0|2:0,0:0:0:0:
300,184,152499,1,0,0:0:0:0:
300,184,152588,6,0,B|196:176,1,99.0000030212403,8|0,0:1|0:0,0:0:0:0:
208,272,152945,6,0,B|256:251|256:251|300:271,1,101.250003862381,2|0,0:2|2:0,0:0:0:0:
256,328,153302,1,8,0:1:0:0:
258,108,153481,2,0,B|154:108,1,101.250003862381,2|0,0:0|2:3,0:0:0:0:
20,28,153838,5,8,0:0:0:0:
24,48,153927,1,0,0:0:0:0:
28,68,154016,1,8,0:1:0:0:
48,140,154195,1,8,0:0:0:0:
157,108,154373,5,0,0:0:0:0:
144,176,154552,1,2,0:0:0:0:
28,68,154731,5,8,0:1:0:0:
80,204,154909,1,8,0:0:0:0:
168,40,155088,5,0,0:0:0:0:
48,140,155266,1,2,0:1:0:0:
48,140,155356,1,2,0:1:0:0:
48,140,155445,2,0,B|56:244,1,99.0000030212403,2|10,0:1|0:1,0:0:0:0:
128,364,155802,6,0,P|179:377|232:344,1,101.250003862381,4|0,0:1|2:0,0:0:0:0:
172,308,156159,1,8,0:1:0:0:
424,276,156338,2,0,P|382:250|312:264,1,101.250003862381,2|0,0:0|2:0,0:0:0:0:
292,352,156695,5,8,0:0:0:0:
296,360,156784,1,0,0:0:0:0:
300,368,156874,1,8,0:1:0:0:
368,380,157052,1,8,0:0:0:0:
492,264,157231,5,0,0:0:0:0:
424,276,157409,1,8,0:0:0:0:
344,136,157588,5,8,0:1:0:0:
412,124,157766,1,2,0:0:0:0:
492,264,157945,6,0,P|460:260|416:204,1,101.250003862381,0|0,0:0|2:0,0:0:0:0:
368,72,158302,5,8,0:1:0:0:
500,80,158481,1,8,0:0:0:0:
316,204,158659,6,0,P|243:208|181:169,1,148.50000453186,2|0,0:3|2:0,0:0:0:0:
160,104,159016,1,8,0:1:0:0:
86,283,159195,2,0,P|134:278|175:251,1,99.0000030212403,2|0,0:0|0:0,0:0:0:0:
328,132,159552,1,0,0:0:0:0:
324,152,159641,1,8,2:1:0:0:
320,172,159731,1,8,0:1:0:0:
236,192,159909,1,0,0:0:0:0:
240,108,160088,5,2,0:0:0:0:
175,250,160266,1,8,0:0:0:0:
320,172,160445,1,2,0:0:0:0:
152,156,160624,1,8,0:0:0:0:
280,264,160802,6,0,P|352:272|420:164,1,202.500007724762,6|0,0:0|2:0,0:0:0:0:
374,107,161159,5,8,0:0:0:0:
374,107,161516,5,8,3:1:0:0:
505,67,161695,1,8,3:1:0:0:
421,175,161874,1,8,3:1:0:0:
425,38,162052,1,8,3:1:0:0:
502,153,162231,5,8,3:1:0:0:
476,224,162409,1,2,0:1:0:0:
476,240,162499,1,2,0:1:0:0:
480,256,162588,1,2,0:1:0:0:
512,324,162766,1,2,0:1:0:0:
392,368,162945,5,0,3:0:0:0:
337,265,163124,1,0,3:0:0:0:
439,315,163302,1,0,3:0:0:0:
327,336,163481,1,0,3:0:0:0:
408,253,163659,6,0,B|455:194|402:128|402:128|330:162|344:237,1,270,0|0,3:1|2:0,0:0:0:0:
392,368,164374,5,4,2:3:0:0:
256,192,175802,6,0,L|256:228,2,22.5,4|2|2,2:3|2:0|2:0,0:0:0:0:
68,276,190088,6,0,P|114:301|166:289,1,107.999996704102,6|4,0:3|0:3,0:0:0:0:
444,276,190624,1,0,3:3:0:0:
444,276,190713,1,0,3:3:0:0:
444,276,190802,6,0,P|397:301|345:289,1,107.999996704102,6|4,0:3|0:3,0:0:0:0:
256,272,191338,5,0,3:3:0:0:
256,272,191427,1,0,3:3:0:0:
256,272,191516,2,0,L|255:388,1,107.999996704102,6|4,0:0|0:0,0:0:0:0:
256,184,192052,5,4,0:0:0:0:
212,108,192231,2,0,P|200:72|216:24,1,90,6|0,0:0|0:0,0:0:0:0:
296,24,192499,1,0,0:0:0:0:
296,24,192588,2,0,P|312:65|300:108,1,90,2|0,0:2|0:0,0:0:0:0:
164,292,192945,6,0,P|123:291|79:231,1,101.250003862381,6|0,0:0|2:0,0:0:0:0:
152,216,193302,6,0,L|260:211,1,90,4|0,0:0|0:0,0:0:0:0:
160,304,193659,1,6,0:0:0:0:
292,292,193838,2,0,L|248:284,1,45,0|0,3:0|2:0,0:0:0:0:
164,292,194016,2,0,P|120:296|91:329,1,90,2|0,0:2|0:0,0:0:0:0:
160,368,194284,1,0,0:0:0:0:
160,368,194374,5,6,0:0:0:0:
360,216,194552,1,4,0:0:0:0:
352,368,194731,1,2,0:2:0:0:
152,216,194910,1,0,0:0:0:0:
256,376,195088,1,4,0:0:0:0:
256,104,195266,6,0,L|256:128,2,22.5,0|2|0,0:0|0:2|0:0,0:0:0:0:
215,184,195445,2,0,P|257:197|299:183,1,90,4|0,0:0|0:0,0:0:0:0:
476,304,195802,6,0,P|424:316|378:290,1,107.999996704102,6|4,0:3|0:3,0:0:0:0:
256,126,196159,1,2,0:2:0:0:
36,304,196338,1,0,3:3:0:0:
36,304,196427,1,0,3:3:0:0:
36,304,196516,6,0,P|87:316|133:290,1,107.999996704102,6|4,0:3|0:3,0:0:0:0:
256,40,196874,1,2,0:2:0:0:
256,272,197052,5,0,3:3:0:0:
256,272,197141,1,0,3:3:0:0:
256,272,197230,2,0,L|257:388,1,107.999996704102,6|4,0:0|0:0,0:0:0:0:
376,152,197588,1,2,0:2:0:0:
136,152,197766,1,0,3:2:0:0:
300,96,197945,6,0,P|312:60|296:12,1,90,6|0,0:0|0:0,0:0:0:0:
215,12,198213,1,0,0:0:0:0:
215,12,198302,2,0,P|199:53|211:95,1,90,2|0,0:2|0:0,0:0:0:0:
320,172,198659,5,6,0:3:0:0:
308,200,198749,1,0,2:0:0:0:
304,232,198838,1,0,2:0:0:0:
308,264,198927,1,0,2:0:0:0:
324,292,199016,2,0,L|376:308,3,45,4|0|2|0,0:0|2:0|0:2|2:0,0:0:0:0:
256,361,199374,2,0,L|256:316,1,45,6|0,0:3|2:0,0:0:0:0:
192,172,199552,5,4,0:3:0:0:
204,200,199642,1,0,2:0:0:0:
208,232,199731,1,2,2:0:0:0:
204,264,199820,1,0,2:0:0:0:
188,292,199909,2,0,L|136:308,1,45,4|0,0:0|2:0,0:0:0:0:
256,316,200088,6,0,L|256:340,7,22.5,0|2|4|4|4|4|4|0,3:0|2:0|0:3|0:3|0:3|0:3|0:3|0:0,0:0:0:0:
256,304,200445,6,0,B|243:283|256:263|256:263|270:243|256:219,1,90,0|4,0:0|0:3,0:0:0:0:
252,184,200891,1,4,0:3:0:0:
252,152,200981,6,0,L|216:152,1,22.5,4|4,0:3|0:3,0:0:0:0:
264,112,201159,6,0,L|300:112,1,31.4999990386963,4|4,0:3|0:3,0:0:0:0:
228,56,201338,6,0,L|186:56,1,40.4999987640381,4|4,0:3|0:3,0:0:0:0:
280,8,201516,6,0,L|331:8,1,49.5000015106202,4|4,0:3|0:3,0:0:0:0:
256,192,201695,12,2,202766,0:0:0:0:
207,119,203659,6,0,B|138:157|179:192|186:235|186:235|226:212|275:230|269:148,1,270.000010299683,0|0,2:2|2:0,0:0:0:0:
269,151,204374,5,12,3:1:0:0:
179,189,204552,1,2,0:3:0:0:
117,119,204731,1,8,3:2:0:0:
168,32,204909,1,2,0:3:0:0:
262,58,205088,2,0,B|304:96|276:144|276:144|236:160|217:130,1,161.999995056153,8|8,3:3|0:3,0:0:0:0:
60,24,205445,5,8,3:2:0:0:
16,134,205624,1,2,0:3:0:0:
100,208,205802,1,2,3:2:0:0:
204,147,205981,1,2,0:3:0:0:
168,32,206159,2,0,B|130:-10|82:18|82:18|66:58|95:76,1,161.999995056153,8|0,3:2|0:3,0:0:0:0:
204,147,206516,6,0,B|248:176|280:136|320:165,1,121.499996292114,8|2,3:3|0:3,0:0:0:0:
364,216,206874,1,8,3:2:0:0:
348,99,207052,1,2,0:0:0:0:
204,147,207231,6,0,P|283:146|348:99,1,161.999995056153,2|8,3:3|0:3,0:0:0:0:
372,36,207588,1,8,3:2:0:0:
232,0,207766,1,2,0:0:0:0:
204,147,207945,6,0,B|184:184|212:208|212:208|240:220|252:192,1,107.999996704102,0|2,3:0|0:3,0:0:0:0:
204,340,208302,2,0,B|224:303|196:279|196:279|168:267|156:295,1,107.999996704102,8|8,3:2|0:3,0:0:0:0:
24,344,208659,6,0,B|139:355,1,107.999996704102,2|2,3:2|0:3,0:0:0:0:
384,144,209016,2,0,B|269:133,1,107.999996704102,8|2,3:2|0:3,0:0:0:0:
88,280,209374,1,2,3:2:0:0:
320,208,209552,5,8,1:3:0:0:
332,272,209641,1,8,1:3:0:0:
344,336,209731,2,0,P|398:356|456:328,1,107.999996704102,10|0,3:2|1:1,0:0:0:0:
242,152,210089,5,12,3:1:0:0:
333,189,210267,1,2,0:3:0:0:
395,119,210446,1,8,3:2:0:0:
344,32,210624,1,2,0:3:0:0:
250,58,210803,2,0,B|208:96|236:144|236:144|276:160|294:130,1,161.999995056153,8|8,3:3|0:3,0:0:0:0:
452,24,211160,5,8,3:2:0:0:
496,134,211339,1,2,0:3:0:0:
412,208,211517,1,2,3:2:0:0:
308,147,211696,1,2,0:3:0:0:
344,32,211874,2,0,B|382:-10|430:18|430:18|446:58|416:76,1,161.999995056153,8|0,3:2|2:3,0:0:0:0:
308,147,212231,6,0,B|264:176|232:136|191:165,1,121.499996292114,8|8,3:3|0:3,0:0:0:0:
164,232,212588,1,8,3:2:0:0:
272,280,212766,1,2,0:3:0:0:
308,147,212945,6,0,P|296:80|244:124,1,161.999995056153,8|8,3:3|0:3,0:0:0:0:
232,224,213302,1,8,3:2:0:0:
384,160,213481,1,2,0:3:0:0:
320,12,213659,6,0,P|266:6|216:28,1,107.999996704102,0|2,3:0|0:3,0:0:0:0:
384,160,214016,2,0,P|433:180|486:174,1,107.999996704102,8|8,2:0|0:3,0:0:0:0:
243,121,214374,6,0,B|128:132,1,107.999996704102,2|2,3:2|0:3,0:0:0:0:
400,60,214731,2,0,B|515:71,1,107.999996704102,8|2,3:2|0:3,0:0:0:0:
243,121,215088,5,0,3:1:0:0:
240,191,215177,1,2,1:1:0:0:
300,216,215266,1,2,1:1:0:0:
242,186,215356,1,0,1:1:0:0:
189,233,215445,2,0,P|128:236|80:208,1,107.999996704102,8|2,1:2|1:1,0:0:0:0:
129,303,215802,5,12,3:1:0:0:
17,255,215981,1,2,0:3:0:0:
25,135,216159,1,8,3:2:0:0:
137,103,216338,1,2,0:3:0:0:
212,212,216516,1,8,3:3:0:0:
192,20,216695,1,2,0:3:0:0:
156,56,216784,1,8,0:3:0:0:
137,103,216874,5,8,3:2:0:0:
162,250,217052,1,2,0:3:0:0:
305,272,217231,1,2,3:2:0:0:
370,150,217409,1,2,0:3:0:0:
261,32,217588,2,0,P|204:16|148:40,1,107.999996704102,8|0,3:2|0:0,0:0:0:0:
137,103,217856,1,0,0:0:0:0:
88,44,217945,6,0,P|164:32|211:93,1,161.999995056153,6|2,3:2|0:0,0:0:0:0:
184,164,218302,1,8,3:2:0:0:
261,32,218481,1,2,0:3:0:0:
396,100,218659,2,0,P|448:91|495:115,1,107.999996704102,4|2,3:1|0:0,0:0:0:0:
512,188,218927,1,2,0:3:0:0:
504,264,219016,2,0,B|496:392,1,107.999996704102,8|2,3:2|0:3,0:0:0:0:
312,236,219374,5,0,3:1:0:0:
235,123,219552,1,2,0:3:0:0:
230,260,219731,1,8,3:2:0:0:
314,152,219909,1,2,0:3:0:0:
127,127,220088,5,4,3:2:0:0:
320,320,220266,1,2,0:3:0:0:
277,51,220445,1,4,3:1:0:0:
154,294,220624,1,2,0:3:0:0:
396,170,220802,1,4,3:2:0:0:
127,127,220981,1,8,0:3:0:0:
84,100,221070,1,0,0:1:0:0:
88,53,221159,2,0,P|39:68|7:124,1,107.999996704102,8|8,3:2|2:2,0:0:0:0:
8,180,221427,1,2,0:2:0:0:
40,240,221516,5,12,3:1:0:0:
180,125,221695,1,2,0:2:0:0:
180,125,221784,1,2,0:2:0:0:
180,125,221874,2,0,P|191:74|180:21,1,107.999996704102,8|0,3:2|0:0,0:0:0:0:
235,292,222231,2,0,P|185:307|145:344,1,107.999996704102,2|0,3:2|0:0,0:0:0:0:
352,160,222588,2,0,P|391:196|442:212,1,107.999996704102,8|2,3:2|0:3,0:0:0:0:
197,275,222945,6,0,P|143:270|93:287,1,107.999996704102,4|0,3:2|0:0,0:0:0:0:
255,91,223302,2,0,P|301:65|332:21,1,107.999996704102,8|0,3:2|0:0,0:0:0:0:
316,274,223659,2,0,P|294:323|294:377,1,107.999996704102,2|2,3:2|0:3,0:0:0:0:
159,162,224016,2,0,P|147:110|115:67,1,107.999996704102,8|8,3:2|0:3,0:0:0:0:
352,160,224374,22,0,B|390:130|399:158|425:170|425:170|406:189|406:223|356:200,1,170.999995433807,4|2,0:1|0:0,0:0:0:0:
256,192,224641,1,2,0:0:0:0:
197,275,224731,2,0,B|184:321|160:304|132:310|132:310|136:283|116:256|170:245,1,170.999995433807,0|2,1:1|0:0,0:0:0:0:
256,192,224999,1,2,0:0:0:0:
255,91,225088,2,0,B|238:46|267:46|287:25|287:25|299:49|331:59|294:100,1,170.999995433807,8|2,0:0|0:0,0:0:0:0:
256,192,225356,1,2,0:0:0:0:
316,274,225445,2,0,B|356:301|332:318|329:346|329:346|305:334|272:345|279:290,1,170.999995433807,0|2,1:1|0:0,0:0:0:0:
256,192,225713,1,2,0:0:0:0:
159,162,225802,2,0,B|111:164|120:136|106:111|106:111|132:107|152:79|179:127,1,170.999995433807,4|0,1:2|1:0,0:0:0:0:
256,192,226070,5,0,1:0:0:0:
195,220,226159,2,0,P|193:247|181:271,1,53.9999983520508,0|0,1:0|2:0,0:0:0:0:
317,220,226338,2,0,P|319:247|331:271,1,53.9999983520508,0|0,1:0|2:0,0:0:0:0:
128,228,226516,5,0,1:0:0:0:
195,220,226606,1,2,0:1:0:0:
256,192,226695,1,2,0:1:0:0:
317,220,226784,1,2,0:1:0:0:
384,228,226874,1,0,1:0:0:0:
256,32,227052,1,2,0:1:0:0:
159,162,227231,5,4,0:1:0:0:
256,192,227409,1,0,0:2:0:0:
332,152,227588,1,0,0:2:0:0:
360,84,227766,1,0,0:0:0:0:
328,4,227945,5,0,0:0:0:0:
360,84,228124,1,0,0:0:0:0:
420,128,228302,1,0,0:0:0:0:
484,136,228481,1,0,0:0:0:0:
512,112,228659,5,0,0:0:0:0:
472,168,228838,1,0,0:0:0:0:
456,252,229016,1,0,0:0:0:0:
492,352,229195,1,0,0:0:0:0:
352,280,229374,6,0,B|264:192|158:262|158:262|203:347|284:311,1,360,2|0,0:2|0:0,0:0:0:0:
352,280,230936,5,0,0:0:0:0:
