osu file format v14

[General]
AudioFilename: koi yomi zakura.mp3
AudioLeadIn: 0
PreviewTime: 204284
Countdown: 0
SampleSet: None
StackLeniency: 0.2
Mode: 0
LetterboxInBreaks: 0
WidescreenStoryboard: 0

[Editor]
Bookmarks: 11516,32945,47231,59374,101516,115802,230802
DistanceSpacing: 1
BeatDivisor: 4
GridSize: 4
TimelineZoom: 2.1

[Metadata]
Title:Koi Yomi Zakura (Full size)
TitleUnicode:恋詠桜(Full size)
Artist:loos
ArtistUnicode:loos
Creator:papapa213
Version:koko's Insane
Source:
Tags:omoi yoshino オモイヨシノ 柊莉杏 Hiiragi Rian spice+rock imouto ouo koko lyric ametrin yf_bmp gust ultimate madoka
BeatmapID:1428541
BeatmapSetID:602230

[Difficulty]
HPDrainRate:6
CircleSize:4
OverallDifficulty:8
ApproachRate:8.4
SliderMultiplier:1.4
SliderTickRate:1

[Events]
//Background and Video events
0,0,"48542248_p0.jpg",0,0
//Break Periods
2,127431,137969
2,164574,175112
2,176002,186541
//Storyboard Layer 0 (Background)
//Storyboard Layer 1 (Fail)
//Storyboard Layer 2 (Pass)
//Storyboard Layer 3 (Foreground)
//Storyboard Sound Samples

[TimingPoints]
1517,357.142857142857,4,3,10,40,1,0
6427,-100,4,3,10,5,0,0
6516,-100,4,3,10,40,0,0
12231,-200,4,3,10,60,0,0
12499,-200,4,3,10,5,0,0
12588,-200,4,3,10,70,0,0
12945,-83.3333333333333,4,3,10,70,0,0
21338,-83.3333333333333,4,3,10,40,0,0
21427,-83.3333333333333,4,3,10,70,0,0
24374,-133.333333333333,4,2,10,50,0,0
24552,-133.333333333333,4,2,10,50,0,0
32409,-100,4,2,10,50,0,0
35802,-83.3333333333333,4,3,10,60,0,0
46874,-83.3333333333333,4,3,10,70,0,0
58659,-83.3333333333333,4,2,11,70,0,1
67231,-88.4955752212389,4,2,11,70,0,1
69909,-83.3333333333333,4,2,11,70,0,1
78659,-83.3333333333333,4,3,10,70,0,1
81516,-83.3333333333333,4,3,10,70,0,0
87231,-200,4,3,10,70,0,0
87588,-83.3333333333333,4,3,10,70,0,0
95802,-83.3333333333333,4,3,10,60,0,0
115445,-83.3333333333333,4,3,10,70,0,0
127231,-83.3333333333333,4,2,10,50,0,0
138659,-83.3333333333333,4,2,10,60,0,0
144374,-83.3333333333333,4,3,0,50,0,0
145802,-83.3333333333333,4,3,0,55,0,0
146159,-83.3333333333333,4,3,0,60,0,0
147231,-83.3333333333333,4,3,0,65,0,0
147945,-83.3333333333333,4,3,0,70,0,0
148659,-83.3333333333333,4,2,10,70,0,0
150088,-83.3333333333333,4,3,10,70,0,0
188704,-83.3333333333333,4,2,21,30,0,0
188749,-83.3333333333333,4,3,10,70,0,0
189999,-83.3333333333333,4,3,10,40,0,0
190088,-83.3333333333333,4,3,10,70,0,0
200088,-200,4,3,10,70,0,0
200177,-200,4,2,10,30,0,0
200311,-200,4,2,10,20,0,0
200713,-200,4,2,10,20,0,0
200802,-200,4,2,10,20,0,0
200981,-200,4,2,10,20,0,0
201159,-200,4,2,10,30,0,0
201338,-200,4,2,10,40,0,0
201516,-200,4,2,10,50,0,0
203659,-83.3333333333333,4,3,10,70,0,0
204016,-83.3333333333333,4,3,10,5,0,0
204374,-55.5555555555556,4,2,11,70,0,1
224374,-55.5555555555556,4,3,10,70,0,1
227231,-200,4,3,10,70,0,0
229374,-200,4,3,10,50,0,0
230802,-200,4,3,10,40,0,0

[Colours]
Combo1 : 255,255,255
Combo2 : 0,100,251
Combo3 : 147,217,255
Combo4 : 185,128,255
Combo5 : 255,196,196
Combo6 : 255,89,89

[HitObjects]
65,283,1517,69,4,0:0:0:0:
130,323,1695,1,0,0:2:0:0:
188,274,1874,1,2,0:2:0:0:
160,203,2052,1,0,0:0:0:0:
83,208,2231,69,0,0:0:0:0:
160,203,2409,1,0,0:0:0:0:
176,127,2588,2,0,L|110:85,1,70,2|0,0:2|0:0,0:0:0:0:
224,243,2944,5,4,0:0:0:0:
283,194,3124,1,0,0:0:0:0:
348,234,3302,1,2,0:2:0:0:
329,309,3481,1,0,0:0:0:0:
254,315,3659,69,0,0:0:0:0:
329,309,3837,1,0,0:0:0:0:
348,234,4017,1,2,0:2:0:0:
424,229,4195,1,4,0:3:0:0:
329,309,4374,37,4,0:0:0:0:
283,194,4731,1,2,0:2:0:0:
160,203,5088,1,0,0:0:0:0:
342,145,5446,1,2,0:2:0:0:
253,313,5802,5,0,0:0:0:0:
488,197,7231,2,0,L|415:177,1,70,4|2,1:1|0:0,0:0:0:0:
379,167,7499,1,0,0:0:0:0:
383,171,7588,2,0,L|422:248,1,70,8|0,0:0|0:0,0:0:0:0:
337,281,7945,5,0,1:0:0:0:
379,167,8124,1,0,0:0:0:0:
383,171,8213,1,0,0:0:0:0:
387,175,8302,1,2,0:0:0:0:
256,260,8481,1,0,0:0:0:0:
404,299,8659,54,0,L|331:279,1,70,0|2,1:0|0:0,0:0:0:0:
321,320,8927,1,0,0:0:0:0:
325,324,9016,2,0,P|293:347|253:350,1,70,8|0,1:3|0:0,0:0:0:0:
183,310,9373,5,0,1:0:0:0:
321,320,9552,1,0,0:0:0:0:
325,324,9641,1,0,0:0:0:0:
329,328,9730,1,2,0:0:0:0:
183,310,9909,1,0,0:0:0:0:
43,360,10088,6,0,P|76:349|99:323,1,70,0|2,1:0|0:0,0:0:0:0:
106,281,10356,1,0,0:0:0:0:
110,285,10445,2,0,L|40:252,1,70,8|0,1:3|0:0,0:0:0:0:
74,173,10802,53,0,1:0:0:0:
114,250,10981,2,0,L|107:301,1,35,0|0,1:0|2:0,0:0:0:0:
131,114,11159,1,2,0:0:0:0:
74,173,11338,1,0,1:0:0:0:
204,153,11516,6,0,L|273:144,1,70,0|2,1:0|1:3,0:0:0:0:
201,188,11784,1,0,2:0:0:0:
205,192,11874,2,0,P|176:234|141:250,1,70,8|0,0:0|1:0,0:0:0:0:
135,118,12231,54,0,L|259:100,1,122.5,8|0,1:0|0:0,0:0:0:0:
281,140,12945,38,0,P|301:107|347:82,1,83.9999974365235,4|2,0:1|0:2,0:0:0:0:
385,81,13213,1,0,0:0:0:0:
389,85,13302,2,0,L|364:169,1,83.9999974365235,8|2,1:0|0:2,0:0:0:0:
332,249,13659,1,0,1:0:0:0:
447,221,13838,1,2,0:2:0:0:
451,225,13927,1,2,0:2:0:0:
455,229,14016,1,8,1:0:0:0:
385,81,14195,1,2,0:2:0:0:
447,221,14374,54,0,P|398:210|356:227,1,83.9999974365235,0|2,1:0|0:2,0:0:0:0:
332,249,14641,1,0,0:0:0:0:
336,253,14731,2,0,L|426:302,1,83.9999974365235,8|2,1:0|0:2,0:0:0:0:
489,153,15088,1,0,1:0:0:0:
409,293,15266,1,2,0:2:0:0:
413,297,15356,1,2,0:2:0:0:
417,301,15445,1,8,1:0:0:0:
447,221,15624,1,2,0:2:0:0:
472,362,15802,6,0,P|428:381|369:368,1,83.9999974365235,0|2,1:0|0:2,0:0:0:0:
352,356,16070,1,0,0:0:0:0:
356,361,16159,2,0,L|260:380,1,83.9999974365235,8|2,1:2|0:2,0:0:0:0:
175,328,16516,1,2,1:2:0:0:
310,279,16694,1,0,0:0:0:0:
314,283,16784,1,0,0:0:0:0:
318,287,16873,1,8,1:0:0:0:
202,181,17052,1,8,3:0:0:0:
175,328,17231,5,0,1:0:0:0:
285,198,17409,1,0,1:0:0:0:
289,202,17499,1,0,0:0:0:0:
293,206,17588,1,8,1:0:0:0:
202,181,17766,1,0,0:0:0:0:
368,215,17945,1,0,1:0:0:0:
322,55,18123,1,0,2:2:0:0:
326,59,18212,1,8,2:2:0:0:
330,63,18302,1,8,1:0:0:0:
395,0,18481,1,0,0:0:0:0:
345,135,18659,53,4,1:3:0:0:
287,199,19195,2,0,P|240:198|200:225,1,83.9999974365235,4|0,1:3|0:0,0:0:0:0:
345,135,19552,1,8,2:0:0:0:
349,139,19731,1,8,2:0:0:0:
205,312,20088,5,4,1:3:0:0:
14,319,20266,2,0,L|55:297,1,41.9999987182618,4|0,1:3|2:3,0:0:0:0:
127,264,20445,1,2,0:3:0:0:
53,220,20624,1,4,1:3:0:0:
127,347,20802,1,0,0:0:0:0:
127,264,20981,1,8,2:2:0:0:
131,268,21070,1,0,2:3:0:0:
135,272,21159,1,8,2:0:0:0:
206,161,21338,1,8,2:0:0:0:
107,84,21516,5,4,1:1:0:0:
247,152,21695,1,0,0:0:0:0:
209,247,21874,1,8,0:1:0:0:
288,144,22052,1,4,1:2:0:0:
189,67,22231,53,0,0:0:0:0:
329,135,22409,1,8,0:1:0:0:
291,230,22588,1,4,1:1:0:0:
370,127,22766,1,8,0:1:0:0:
271,50,22945,5,4,1:2:0:0:
190,151,23124,1,2,2:0:0:0:
111,178,23302,1,0,2:0:0:0:
60,111,23481,1,2,2:0:0:0:
109,42,23659,5,4,2:3:0:0:
111,178,23838,1,2,0:1:0:0:
115,182,23927,1,2,0:1:0:0:
119,186,24016,1,8,0:1:0:0:
271,50,24195,1,2,0:1:0:0:
354,58,24374,54,0,P|362:85|438:104,1,105.000004005432,4|0,0:1|0:0,0:0:0:0:
493,247,25088,2,0,P|468:202|418:196,1,105.000004005432,0|0,0:0|0:0,0:0:0:0:
348,243,25624,1,4,0:3:0:0:
348,243,25981,6,0,B|310:288|330:351|374:372|374:372|262:352,1,262.500010013581,4|0,0:3|0:0,0:0:0:0:
137,337,27231,2,0,P|179:325|199:258,1,105.000004005432,4|0,0:3|0:0,0:0:0:0:
254,123,27945,2,0,P|206:141|189:189,1,105.000004005432,0|0,0:0|0:0,0:0:0:0:
201,272,28481,1,4,0:3:0:0:
201,272,28838,6,0,B|214:329|178:365|178:365|146:306|72:292|23:317,1,262.500010013581,4|0,0:3|0:0,0:0:0:0:
30,228,30088,2,0,P|47:183|40:116,1,105.000004005432,4|0,0:3|0:0,0:0:0:0:
13,14,30802,2,0,L|113:77,1,105.000004005432,0|0,0:0|0:0,0:0:0:0:
173,114,31338,1,4,0:3:0:0:
173,114,31695,54,0,B|207:83|252:87|252:87|229:49|229:49|281:43|303:-5,1,210.000008010865,4|0,0:3|0:0,0:0:0:0:
298,13,32588,1,4,0:3:0:0:
378,35,32766,1,0,0:0:0:0:
379,119,32945,5,4,0:3:0:0:
175,297,33302,2,0,L|245:282,1,70,12|4,0:0|0:3,0:0:0:0:
325,265,33659,1,4,0:3:0:0:
175,297,34016,2,0,L|106:311,1,70,8|4,0:0|0:3,0:0:0:0:
325,265,34552,5,8,0:0:0:0:
174,296,34909,1,8,0:0:0:0:
407,248,35266,1,8,0:0:0:0:
325,265,35445,2,0,L|256:279,1,70,12|0,0:0|3:0,0:0:0:0:
463,77,35802,54,0,P|446:114|410:134,1,83.9999974365235,4|2,1:0|0:2,0:0:0:0:
413,138,36070,1,2,0:2:0:0:
417,142,36159,1,8,0:1:0:0:
327,148,36338,1,2,0:0:0:0:
354,68,36516,1,0,0:0:0:0:
410,134,36695,1,10,0:0:0:0:
414,138,36784,1,2,0:2:0:0:
418,142,36874,1,8,0:1:0:0:
354,68,37052,1,2,0:0:0:0:
342,226,37231,6,0,P|323:189|327:148,1,83.9999974365235,0|2,0:2|0:2,0:0:0:0:
331,151,37499,1,2,0:2:0:0:
335,155,37588,1,8,0:1:0:0:
356,304,37766,2,0,P|360:262|341:225,1,83.9999974365235,2|2,0:0|0:2,0:0:0:0:
181,176,38124,1,8,0:0:0:0:
185,180,38213,1,2,0:2:0:0:
189,184,38302,1,8,0:1:0:0:
320,72,38481,1,2,0:0:0:0:
270,210,38659,6,0,P|273:270|298:296,1,83.9999974365235
290,291,38927,1,0,0:0:0:0:
294,295,39016,1,8,0:1:0:0:
335,155,39195,1,2,0:0:0:0:
189,184,39374,1,2,0:2:0:0:
354,234,39552,1,8,0:3:0:0:
358,238,39641,1,2,0:2:0:0:
362,242,39731,1,8,2:1:0:0:
416,135,39909,1,2,0:3:0:0:
303,56,40088,54,0,P|276:89|222:99,1,83.9999974365235,2|2,0:2|2:0,0:0:0:0:
198,86,40356,1,2,2:0:0:0:
202,90,40445,2,0,P|151:90|112:131,1,83.9999974365235,8|2,0:1|0:0,0:0:0:0:
44,183,40802,2,0,L|71:272,1,83.9999974365235,2|8,0:2|0:0,0:0:0:0:
108,277,41070,1,2,0:2:0:0:
112,281,41159,2,0,L|87:200,1,83.9999974365235,8|2,2:1|0:0,0:0:0:0:
145,134,41516,6,0,P|189:158|245:150,1,83.9999974365235,2|2,0:2|0:0,0:0:0:0:
263,149,41784,1,0,0:0:0:0:
267,153,41874,2,0,L|371:192,1,83.9999974365235,8|2,0:1|2:0,0:0:0:0:
419,209,42231,1,0,0:0:0:0:
263,149,42409,1,2,2:0:0:0:
267,153,42499,1,2,2:0:0:0:
271,157,42588,1,2,0:2:0:0:
350,89,42766,1,0,0:0:0:0:
240,2,42945,6,0,L|335:2,1,83.9999974365235,0|2,0:0|0:0,0:0:0:0:
328,6,43213,1,0,0:0:0:0:
332,10,43302,1,8,0:1:0:0:
418,10,43481,1,2,2:0:0:0:
497,50,43659,2,0,P|462:88|455:123,1,83.9999974365235,0|2,0:0|0:0,0:0:0:0:
459,160,43927,1,2,0:0:0:0:
463,164,44016,2,0,L|384:135,1,83.9999974365235,8|2,1:0|0:0,0:0:0:0:
299,104,44374,5,4,0:3:0:0:
227,148,44552,1,2,0:2:0:0:
163,94,44731,1,4,1:1:0:0:
12,143,45088,5,4,0:3:0:0:
96,149,45266,1,2,0:2:0:0:
117,231,45445,1,12,0:2:0:0:
309,306,45802,69,4,0:3:0:0:
237,350,45981,1,0,0:3:0:0:
173,296,46159,1,2,0:2:0:0:
204,218,46338,1,8,0:2:0:0:
288,224,46516,2,0,L|371:235,1,83.9999974365235,4|8,0:0|0:0,0:0:0:0:
456,162,46874,2,0,L|373:151,1,83.9999974365235,8|0,0:2|0:0,0:0:0:0:
484,311,47231,37,4,1:0:0:0:
423,368,47409,1,0,2:2:0:0:
427,372,47499,1,0,0:0:0:0:
431,376,47588,2,0,P|382:365|354:384,1,83.9999974365235,8|0,2:2|2:2,2:2:0:0:
328,294,47945,2,0,P|360:272|376:228,1,83.9999974365235
379,235,48213,1,0,2:0:0:0:
383,239,48302,1,8,2:2:0:0:
243,295,48481,6,0,L|241:337,2,41.9999987182618,2|0|0,0:0|0:0|0:0,0:0:0:0:
297,220,48838,1,2,0:2:0:0:
211,177,49016,2,0,P|186:232|127:249,1,125.999996154785,8|0,0:2|0:0,0:0:0:0:
131,253,49374,1,2,0:2:0:0:
211,177,49552,1,8,0:2:0:0:
193,67,49731,1,0,0:0:0:0:
110,51,49909,1,2,0:0:0:0:
89,47,49998,1,0,0:0:0:0:
68,43,50087,5,4,3:3:0:0:
81,126,50266,1,0,2:2:0:0:
62,136,50355,1,0,0:0:0:0:
44,146,50445,2,0,P|93:150|129:123,1,83.9999974365235,8|0,2:2|2:2,2:2:0:0:
193,67,50802,2,0,P|232:50|287:61,1,83.9999974365235,0|0,0:0|0:0,0:0:0:0:
276,58,51070,1,0,2:0:0:0:
280,62,51159,1,8,2:2:0:0:
367,91,51338,54,0,L|446:119,1,83.9999974365235,2|0,0:0|0:0,0:0:0:0:
504,58,51695,1,0,0:0:0:0:
508,62,51784,1,0,0:0:0:0:
512,66,51874,1,10,0:2:0:0:
367,91,52052,1,0,0:2:0:0:
424,197,52231,1,0,0:2:0:0:
487,252,52409,1,8,0:2:0:0:
427,310,52588,2,0,L|364:373,1,83.9999974365235,8|0,2:0|2:0,0:0:0:0:
487,252,52945,6,0,L|378:359,1,125.999996154785,4|0,0:1|2:0,0:0:0:0:
367,369,53302,2,0,P|364:318|336:288,1,83.9999974365235,8|0,2:0|0:0,0:0:0:0:
285,353,53659,2,0,L|344:293,1,83.9999974365235,0|0,0:0|0:0,0:0:0:0:
347,297,53927,1,0,2:0:0:0:
351,301,54016,1,8,2:0:0:0:
201,353,54195,6,0,L|286:353,1,83.9999974365235,0|0,0:0|0:0,0:0:0:0:
343,292,54552,1,0,0:0:0:0:
347,296,54641,1,0,0:0:0:0:
351,300,54731,1,8,2:0:0:0:
201,353,54909,1,0,0:0:0:0:
351,300,55088,53,8,2:0:0:0:
368,261,55445,1,8,2:0:0:0:
386,223,55802,6,0,L|426:134,1,83.9999974365235,12|0,2:0|2:0,0:0:0:0:
436,107,56070,1,0,2:0:0:0:
440,111,56159,2,0,P|406:130|326:116,1,83.9999974365235,8|0,2:0|2:0,0:0:0:0:
204,108,56516,2,0,P|241:89|283:88,1,83.9999974365235,8|0,2:0|2:0,0:0:0:0:
320,108,56784,1,0,2:0:0:0:
324,112,56874,2,0,P|365:110|402:91,1,83.9999974365235,8|0,2:0|0:0,0:0:0:0:
324,112,57231,5,4,3:1:0:0:
316,104,58124,1,2,0:1:0:0:
320,108,58213,1,2,0:1:0:0:
324,112,58302,1,10,0:1:0:0:
363,33,58481,1,2,0:1:0:0:
359,180,58659,54,0,L|454:171,1,83.9999974365235,12|2,3:1|0:3,0:0:0:0:
512,342,59016,2,0,L|428:349,1,83.9999974365235,8|2,3:2|0:3,0:0:0:0:
359,180,59374,1,8,3:3:0:0:
359,180,59731,6,0,L|454:171,1,83.9999974365235,8|2,3:2|0:3,0:0:0:0:
293,280,60088,2,0,L|376:272,1,83.9999974365235,2|2,3:2|0:3,0:0:0:0:
227,380,60445,1,8,3:2:0:0:
227,380,60802,6,0,L|361:367,1,125.999996154785,8|2,3:3|0:3,0:0:0:0:
356,371,61159,1,8,3:2:0:0:
227,380,61338,1,2,0:3:0:0:
270,183,61516,6,0,P|229:214|185:212,1,83.9999974365235,2|0,3:3|0:0,0:0:0:0:
44,232,61874,2,0,P|57:182|94:158,1,83.9999974365235,8|2,3:2|0:3,0:0:0:0:
198,59,62231,2,0,P|215:107|199:148,1,83.9999974365235,0|2,3:0|0:3,0:0:0:0:
174,289,62588,2,0,P|131:260|120:217,1,83.9999974365235,8|8,3:2|0:3,0:0:0:0:
58,89,62945,5,2,3:2:0:0:
206,137,63124,1,2,0:3:0:0:
120,231,63302,1,8,3:2:0:0:
135,104,63481,1,2,0:3:0:0:
197,215,63659,1,2,3:2:0:0:
80,162,63838,1,8,1:3:0:0:
84,166,63927,1,8,1:3:0:0:
88,170,64016,1,8,1:2:0:0:
197,215,64195,1,8,1:2:0:0:
201,59,64374,22,0,P|161:72|135:103,1,83.9999974365235,4|2,3:3|0:3,0:0:0:0:
268,249,64731,2,0,P|227:242|195:215,1,83.9999974365235,8|2,3:2|0:3,0:0:0:0:
327,61,65088,1,8,3:3:0:0:
327,61,65445,6,0,P|287:94|279:150,1,83.9999974365235,8|2,3:2|0:3,0:0:0:0:
462,202,65802,2,0,P|452:151|407:116,1,83.9999974365235,2|2,3:2|0:3,0:0:0:0:
268,250,66159,1,8,3:2:0:0:
268,250,66516,6,0,B|332:237|332:237|393:272,1,125.999996154785,8|2,3:3|0:3,0:0:0:0:
388,271,66874,1,8,3:2:0:0:
268,250,67052,1,2,0:3:0:0:
159,368,67231,6,0,L|137:283,1,79.100000241394,2|0,3:3|0:0,0:0:0:0:
159,132,67588,2,0,L|229:190,1,79.100000241394,8|2,3:2|0:3,0:0:0:0:
297,322,67945,2,0,L|214:317,1,79.100000241394,0|2,3:0|0:3,0:0:0:0:
73,250,68302,2,0,L|147:203,1,79.100000241394,8|8,3:2|0:3,0:0:0:0:
297,177,68659,5,2,3:2:0:0:
219,318,68838,1,2,0:3:0:0:
139,208,69016,1,8,3:2:0:0:
268,250,69195,1,2,0:0:0:0:
139,292,69374,1,0,3:0:0:0:
219,182,69552,1,2,2:1:0:0:
223,186,69642,1,2,2:1:0:0:
227,190,69731,1,8,3:2:0:0:
139,292,69909,1,2,3:1:0:0:
17,243,70088,22,0,L|58:316,1,83.9999974365235,12|2,3:1|0:3,0:0:0:0:
59,170,70445,2,0,L|16:242,1,83.9999974365235,8|2,3:2|0:3,0:0:0:0:
17,97,70802,1,8,3:3:0:0:
100,97,71159,6,0,L|15:96,1,83.9999974365235,8|2,3:2|0:3,0:0:0:0:
142,24,71516,2,0,L|99:96,1,83.9999974365235,2|2,3:2|0:3,0:0:0:0:
225,24,71874,1,8,3:2:0:0:
286,133,72231,6,0,L|225:24,1,125.999996154785,2|2,3:2|0:3,0:0:0:0:
229,28,72588,1,8,3:2:0:0:
286,133,72766,1,2,0:0:0:0:
256,266,72945,6,0,L|323:209,1,83.9999974365235,8|2,3:3|0:0,0:0:0:0:
183,221,73302,2,0,L|257:267,1,83.9999974365235,8|2,3:2|0:3,0:0:0:0:
204,138,73659,2,0,L|182:222,1,83.9999974365235,0|2,3:0|0:3,0:0:0:0:
287,133,74016,2,0,L|199:138,1,83.9999974365235,8|2,3:2|0:3,0:0:0:0:
319,211,74374,5,8,3:3:0:0:
287,133,74552,1,2,0:3:0:0:
204,138,74731,1,8,3:2:0:0:
182,220,74909,1,2,0:3:0:0:
254,265,75088,1,2,3:2:0:0:
287,133,75266,1,2,2:3:0:0:
291,137,75356,1,10,2:3:0:0:
295,141,75445,1,8,3:2:0:0:
254,265,75624,1,8,2:3:0:0:
307,47,75802,22,0,L|194:53,1,83.9999974365235,12|2,3:1|0:2,0:0:0:0:
95,127,76159,2,0,L|179:123,1,83.9999974365235,8|0,3:2|0:0,0:0:0:0:
312,41,76516,6,0,L|199:47,1,83.9999974365235,2|0,3:3|0:0,0:0:0:0:
90,133,76874,2,0,L|173:128,1,83.9999974365235,8|2,3:2|0:0,0:0:0:0:
395,117,77231,6,0,L|459:189,1,83.9999974365235,4|0,3:2|0:0,0:0:0:0:
321,223,77588,2,0,L|340:318,1,83.9999974365235,8|0,3:2|0:0,0:0:0:0:
207,273,77945,2,0,L|176:365,1,83.9999974365235,2|2,3:2|0:3,0:0:0:0:
84,278,78302,2,0,L|11:342,1,83.9999974365235,8|8,3:2|0:3,0:0:0:0:
84,278,78659,53,4,0:1:0:0:
177,194,78838,1,2,0:0:0:0:
162,207,78927,1,2,0:0:0:0:
146,221,79016,1,0,1:1:0:0:
239,137,79195,1,2,0:0:0:0:
239,251,79374,5,4,0:2:0:0:
146,167,79553,1,2,0:0:0:0:
161,180,79642,1,2,0:0:0:0:
177,194,79731,1,0,1:0:0:0:
84,110,79910,1,2,0:0:0:0:
210,109,80088,5,4,1:2:0:0:
84,110,80267,1,0,1:0:0:0:
104,110,80356,1,0,1:0:0:0:
125,109,80445,1,0,1:0:0:0:
0,111,80624,1,0,1:0:0:0:
43,182,80802,53,0,1:0:0:0:
59,209,80891,1,2,0:1:0:0:
75,236,80980,1,2,0:1:0:0:
91,263,81069,1,2,0:1:0:0:
107,290,81159,1,2,0:1:0:0:
150,362,81338,1,2,0:1:0:0:
416,297,81516,6,0,L|303:273,1,83.9999974365235,4|0,0:1|0:1,0:0:0:0:
145,177,81874,2,0,L|258:201,1,83.9999974365235,8|8,0:1|0:0,0:0:0:0:
408,73,82231,2,0,L|295:97,1,83.9999974365235,2|0,0:2|0:0,0:0:0:0:
169,290,82589,2,0,L|282:266,1,83.9999974365235,8|0,0:1|0:0,0:0:0:0:
449,145,82945,21,4,0:0:0:0:
394,208,83124,1,8,0:0:0:0:
317,173,83301,1,8,0:1:0:0:
325,90,83481,1,8,0:0:0:0:
408,72,83659,1,0,0:0:0:0:
408,72,84016,69,8,0:1:0:0:
325,90,84194,1,8,0:0:0:0:
113,138,84374,2,0,L|194:119,1,83.9999974365235,2|0,0:2|0:1,0:0:0:0:
405,184,84731,2,0,L|324:165,1,83.9999974365235,8|0,0:1|0:0,0:0:0:0:
97,225,85088,2,0,L|178:206,1,83.9999974365235,2|0,0:2|0:0,0:0:0:0:
363,257,85445,2,0,L|282:238,1,83.9999974365235,8|0,0:1|0:0,0:0:0:0:
233,0,85802,21,0,0:0:0:0:
281,79,85981,1,8,0:0:0:0:
233,158,86159,1,8,0:1:0:0:
281,237,86338,1,8,0:0:0:0:
233,316,86516,1,4,0:0:0:0:
329,158,86695,1,2,0:1:0:0:
333,162,86784,1,2,0:1:0:0:
337,166,86874,1,2,0:1:0:0:
281,237,87052,1,2,0:1:0:0:
74,177,87231,6,0,L|127:190,1,52.5,2|0,3:2|2:1,0:0:0:0:
165,200,87588,6,0,P|199:177|268:190,1,83.9999974365235,4|8,0:1|0:0,0:0:0:0:
413,297,87945,2,0,P|376:279|352:212,1,83.9999974365235,2|0,0:2|0:0,0:0:0:0:
374,34,88302,2,0,P|376:74|331:128,1,83.9999974365235,8|2,0:1|0:0,0:0:0:0:
240,176,88659,5,4,0:0:0:0:
356,111,88838,1,8,0:0:0:0:
354,243,89016,1,8,0:1:0:0:
356,111,89195,1,8,0:0:0:0:
240,176,89374,1,0,0:0:0:0:
240,176,89731,1,8,0:1:0:0:
356,111,89910,1,8,0:0:0:0:
354,243,90088,6,0,L|270:301,1,83.9999974365235,2|0,0:2|0:1,0:0:0:0:
429,278,90445,2,0,L|353:242,1,83.9999974365235,8|0,0:1|0:0,0:0:0:0:
498,230,90802,2,0,L|414:288,1,83.9999974365235,2|0,0:2|0:1,0:0:0:0:
432,281,91070,1,0,0:0:0:0:
436,285,91159,1,8,0:1:0:0:
498,230,91338,1,0,0:0:0:0:
428,277,91516,53,2,0:0:0:0:
353,242,91695,1,8,0:0:0:0:
278,207,91874,1,2,0:0:0:0:
203,172,92052,1,8,0:0:0:0:
128,137,92231,2,0,P|184:140|141:63,1,167.999994873047
256,192,92945,12,4,94374,2:1:0:0:
375,100,95266,5,2,0:1:0:0:
379,104,95356,1,2,0:1:0:0:
383,108,95445,1,8,0:1:0:0:
436,42,95624,1,2,0:1:0:0:
468,195,95802,6,0,P|430:183|381:201,1,83.9999974365235,4|0,0:1|3:0,0:0:0:0:
354,219,96070,1,0,0:0:0:0:
358,223,96159,2,0,B|318:239|318:239|280:223,1,83.9999974365235,2|0,0:2|2:0,0:0:0:0:
275,307,96516,2,0,L|185:270,1,83.9999974365235,0|0,0:0|0:0,0:0:0:0:
158,291,96784,1,0,0:0:0:0:
162,295,96874,2,0,L|239:326,1,83.9999974365235,2|0,0:2|0:0,0:0:0:0:
360,311,97231,54,0,P|398:299|447:317,1,83.9999974365235,0|0,0:0|0:0,0:0:0:0:
469,331,97499,1,0,0:0:0:0:
473,335,97588,2,0,L|397:384,1,83.9999974365235,2|0,0:2|2:0,0:0:0:0:
318,384,97945,2,0,L|242:335,1,83.9999974365235,0|0,0:0|0:0,0:0:0:0:
208,310,98213,1,0,0:0:0:0:
212,314,98302,2,0,L|136:265,1,83.9999974365235,2|0,0:2|2:0,0:0:0:0:
68,310,98659,5,2,0:2:0:0:
208,310,98838,1,0,0:0:0:0:
212,314,98927,1,0,0:0:0:0:
216,318,99016,1,0,0:2:0:0:
255,240,99195,1,2,2:0:0:0:
141,268,99374,1,0,0:0:0:0:
255,240,99553,1,2,2:0:0:0:
259,244,99642,1,2,2:0:0:0:
263,248,99731,1,0,2:0:0:0:
250,164,99910,1,2,2:0:0:0:
367,68,100088,5,0,0:0:0:0:
250,164,100266,1,2,0:0:0:0:
254,168,100355,1,0,0:0:0:0:
258,172,100444,1,0,0:0:0:0:
178,117,100624,1,2,2:0:0:0:
286,21,100802,1,0,0:0:0:0:
178,117,100981,1,2,0:0:0:0:
182,121,101070,1,2,0:0:0:0:
186,125,101159,1,0,0:2:0:0:
94,124,101338,1,2,0:0:0:0:
53,197,101516,53,4,0:3:0:0:
226,338,101874,2,0,L|130:363,1,83.9999974365235,12|4,1:0|0:3,0:0:0:0:
226,338,102231,1,4,0:3:0:0:
247,199,102588,2,0,L|328:220,1,83.9999974365235,8|4,2:0|2:3,0:0:0:0:
247,199,103124,5,8,2:0:0:0:
374,307,103481,1,8,2:0:0:0:
452,106,103838,1,8,2:0:0:0:
390,163,104017,2,0,L|327:219,1,83.9999974365235,12|0,2:0|3:0,0:0:0:0:
281,71,104374,6,0,P|321:80|361:70,1,83.9999974365235,4|2,1:2|0:2,0:0:0:0:
365,74,104641,1,2,0:2:0:0:
369,78,104731,1,8,0:2:0:0:
225,8,104909,1,2,0:0:0:0:
203,89,105088,2,0,B|191:128|191:128|137:182,1,83.9999974365235,0|10,0:0|0:0,0:0:0:0:
164,163,105356,1,2,0:2:0:0:
168,167,105445,1,8,0:2:0:0:
281,71,105624,1,2,0:0:0:0:
225,8,105802,54,0,L|140:19,1,83.9999974365235,0|2,0:2|0:2,0:0:0:0:
145,22,106070,1,2,0:2:0:0:
149,26,106159,1,8,0:2:0:0:
63,154,106338,1,2,0:0:0:0:
69,70,106516,2,0,L|61:166,1,83.9999974365235,0|8,0:0|0:0,0:0:0:0:
67,158,106784,1,2,0:2:0:0:
71,162,106874,1,8,0:2:0:0:
197,241,107052,1,2,0:0:0:0:
112,241,107231,6,0,B|67:243|67:243|16:275,1,83.9999974365235,0|0,0:0|0:0,0:0:0:0:
38,267,107499,1,0,2:0:0:0:
42,271,107588,1,10,0:2:0:0:
155,314,107766,1,0,2:0:0:0:
197,241,107945,1,2,0:2:0:0:
34,263,108124,1,2,2:2:0:0:
38,267,108213,1,2,0:2:0:0:
42,271,108302,1,8,2:2:0:0:
155,314,108481,1,2,2:0:0:0:
197,241,108659,6,0,B|242:239|242:239|293:207,1,83.9999974365235,2|2,0:2|2:0,0:0:0:0:
278,222,108927,1,2,2:0:0:0:
282,226,109016,1,10,0:2:0:0:
202,384,109195,1,0,2:0:0:0:
155,314,109374,1,2,0:2:0:0:
274,218,109552,1,2,2:2:0:0:
278,222,109641,1,2,0:2:0:0:
282,226,109731,1,8,2:2:0:0:
202,384,109909,1,2,2:0:0:0:
278,349,110088,54,0,B|316:332|316:332|358:332,1,83.9999974365235,2|2,0:2|0:0,0:0:0:0:
400,332,110356,1,0,0:0:0:0:
404,336,110445,2,0,B|446:336|446:336|484:319,1,83.9999974365235,8|2,0:2|2:0,0:0:0:0:
342,234,110802,2,0,B|380:251|380:251|422:251,1,83.9999974365235,0|2,0:0|2:0,0:0:0:0:
464,251,111070,1,2,2:0:0:0:
468,255,111159,2,0,L|468:164,1,83.9999974365235,8|2,2:0|2:0,0:0:0:0:
468,15,111516,6,0,B|426:15|426:15|388:32,1,83.9999974365235,0|2,0:0|0:0,0:0:0:0:
387,74,111784,1,0,0:0:0:0:
391,78,111874,2,0,L|391:162,1,83.9999974365235,8|2,2:0|2:0,0:0:0:0:
468,94,112231,2,0,L|386:73,1,83.9999974365235,0|2,0:0|0:0,0:0:0:0:
345,63,112499,1,2,0:0:0:0:
349,67,112588,2,0,P|309:105|255:100,1,83.9999974365235,8|2,1:2|0:0,0:0:0:0:
198,96,112945,21,4,0:3:0:0:
114,84,113124,1,2,0:2:0:0:
61,150,113302,1,4,1:1:0:0:
40,296,113659,5,4,0:3:0:0:
124,308,113838,1,2,0:2:0:0:
177,242,114016,1,12,0:2:0:0:
205,323,114374,69,4,0:3:0:0:
203,209,114552,1,0,0:3:0:0:
286,339,114731,1,2,0:2:0:0:
229,176,114909,1,12,0:2:0:0:
360,271,115088,2,0,P|319:264|292:228,1,83.9999974365235,4|8,0:0|0:0,0:0:0:0:
464,268,115445,2,0,P|431:241|426:196,1,83.9999974365235,8|0,0:2|0:0,0:0:0:0:
467,128,115802,69,4,1:0:0:0:
342,163,115981,1,0,2:2:0:0:
346,167,116070,1,0,0:0:0:0:
350,171,116159,1,8,2:2:0:0:
454,45,116338,1,0,2:2:0:0:
350,171,116516,1,0,0:0:0:0:
467,128,116695,1,0,0:0:0:0:
471,132,116784,1,0,0:0:0:0:
475,136,116874,1,8,2:2:0:0:
454,45,117052,54,0,L|384:92,1,83.9999974365235,2|0,0:0|0:0,0:0:0:0:
274,57,117409,1,2,0:2:0:0:
278,61,117499,1,0,0:0:0:0:
282,65,117588,2,0,L|362:10,1,83.9999974365235,8|2,0:2|0:0,0:0:0:0:
282,65,117945,1,2,0:2:0:0:
205,105,118124,1,8,0:2:0:0:
52,156,118302,2,0,L|123:106,1,83.9999974365235,0|2,0:0|0:0,0:0:0:0:
212,215,118659,6,0,P|172:202|132:214,1,83.9999974365235,4|0,1:3|2:2,0:0:0:0:
136,218,118927,1,0,0:0:0:0:
140,222,119016,1,8,2:2:0:0:
57,252,119195,1,0,2:2:0:0:
58,336,119374,5,0,0:0:0:0:
132,213,119552,1,0,0:0:0:0:
136,218,119641,1,0,0:0:0:0:
140,222,119731,1,8,2:2:0:0:
144,226,119909,2,0,P|184:214|224:227,1,83.9999974365235,2|0,0:0|0:0,0:0:0:0:
246,333,120267,53,0,0:0:0:0:
250,337,120356,1,2,0:2:0:0:
254,341,120445,2,0,L|181:297,1,83.9999974365235,10|0,0:2|0:2,0:0:0:0:
398,341,120802,1,0,0:2:0:0:
325,383,120981,1,8,0:2:0:0:
254,341,121159,1,8,2:0:0:0:
396,254,121338,1,0,0:0:0:0:
400,258,121427,1,0,0:0:0:0:
404,262,121516,1,4,0:2:0:0:
469,212,121695,5,0,0:0:0:0:
473,216,121784,1,0,0:0:0:0:
477,220,121873,1,8,2:0:0:0:
396,338,122052,1,0,0:0:0:0:
325,296,122231,2,0,P|281:280|233:294,1,83.9999974365235,0|0,0:0|0:0,0:0:0:0:
249,290,122499,1,0,2:0:0:0:
253,294,122588,1,8,2:0:0:0:
172,327,122766,6,0,L|245:286,1,83.9999974365235,0|0,0:0|0:0,0:0:0:0:
97,368,123124,1,0,0:0:0:0:
101,372,123213,1,0,0:0:0:0:
105,376,123302,1,8,2:0:0:0:
171,240,123481,1,0,0:0:0:0:
244,368,123659,53,8,2:0:0:0:
97,368,124016,1,8,2:0:0:0:
24,240,124374,2,0,L|114:218,1,83.9999974365235,8|0,2:0|2:0,0:0:0:0:
113,175,124641,1,0,2:0:0:0:
117,179,124731,2,0,L|207:157,1,83.9999974365235,8|0,2:0|2:0,0:0:0:0:
280,179,125088,6,0,L|190:157,1,83.9999974365235,8|0,2:0|2:0,0:0:0:0:
183,114,125355,1,0,2:0:0:0:
187,118,125445,2,0,L|97:96,1,83.9999974365235,8|0,2:0|0:0,0:0:0:0:
24,240,125802,1,4,1:1:0:0:
256,194,126695,1,2,0:1:0:0:
290,117,126874,1,2,0:1:0:0:
373,126,127052,1,2,0:1:0:0:
256,194,127231,5,4,0:1:0:0:
429,99,138659,5,2,0:0:0:0:
427,182,138838,1,0,0:0:0:0:
347,207,139017,1,2,0:0:0:0:
299,138,139195,1,0,0:0:0:0:
349,71,139374,2,0,L|293:145,1,83.9999974365235,2|0,0:0|0:0,0:0:0:0:
219,160,139731,5,2,0:0:0:0:
298,137,139910,1,0,0:0:0:0:
347,207,140089,1,2,0:0:0:0:
296,272,140267,1,0,0:0:0:0:
217,245,140445,2,0,B|175:250|175:250|145:220,1,83.9999974365235,2|0,0:0|0:0,0:0:0:0:
86,160,140802,21,2,0:0:0:0:
104,77,140981,1,0,0:0:0:0:
184,99,141159,1,0,0:0:0:0:
203,14,141338,1,0,0:0:0:0:
165,184,141516,6,0,L|199:272,1,83.9999974365235,2|0,0:0|0:0,0:0:0:0:
104,319,141874,1,2,0:0:0:0:
234,275,142052,1,0,0:0:0:0:
280,205,142231,6,0,L|273:287,1,83.9999974365235,2|0,0:0|0:0,0:0:0:0:
183,345,142588,1,2,0:0:0:0:
314,302,142766,1,0,0:0:0:0:
343,152,142945,5,2,0:0:0:0:
263,125,143124,1,0,0:0:0:0:
263,42,143302,1,0,0:0:0:0:
343,16,143481,1,2,0:0:0:0:
392,84,143659,5,2,0:0:0:0:
343,16,143838,1,0,0:0:0:0:
343,152,144016,1,0,0:0:0:0:
263,42,144195,1,0,0:0:0:0:
392,84,144374,21,0,0:0:0:0:
396,88,144463,1,0,0:0:0:0:
400,92,144552,1,0,0:0:0:0:
404,96,144641,1,0,0:0:0:0:
408,100,144731,2,0,L|460:116,3,41.9999987182618,0|0|0|0,0:0|0:0|0:0|0:0,0:0:0:0:
488,124,145088,2,0,L|498:180,3,41.9999987182618,0|0|0|0,0:0|0:0|0:0|0:0,0:0:0:0:
504,206,145445,2,0,L|472:263,3,41.9999987182618,0|0|0|0,0:0|0:0|0:0|0:0,0:0:0:0:
406,220,145802,6,0,L|378:201,6,20.9999993591309
442,312,146159,6,0,L|486:343,3,41.9999987182618
334,272,146516,2,0,L|294:244,7,41.9999987182618
369,354,147231,6,0,L|344:373,15,20.9999993591309
275,325,147945,2,0,L|252:309,14,20.9999993591309
256,276,148659,53,2,0:1:0:0:
256,192,148838,1,8,0:1:0:0:
256,192,149195,1,8,0:1:0:0:
256,108,149552,1,2,0:3:0:0:
256,192,149731,1,2,0:0:0:0:
33,193,150088,6,0,P|57:239|116:261,1,83.9999974365235,4|0,0:1|0:0,0:0:0:0:
171,246,150445,1,8,0:1:0:0:
33,193,150624,1,0,0:0:0:0:
33,193,150981,5,8,0:0:0:0:
37,197,151070,1,0,0:0:0:0:
41,201,151159,1,8,0:1:0:0:
63,114,151338,1,8,0:0:0:0:
3,272,151516,53,0,0:0:0:0:
87,259,151695,1,8,0:0:0:0:
147,101,151874,1,8,0:1:0:0:
63,114,152053,1,2,0:0:0:0:
171,246,152231,5,0,0:0:0:0:
87,259,152409,1,8,0:0:0:0:
91,263,152499,1,0,3:1:0:0:
95,267,152588,1,8,0:1:0:0:
141,325,152766,1,0,0:0:0:0:
253,232,152945,6,0,L|170:246,1,83.9999974365235,2|0,0:0|0:0,0:0:0:0:
141,325,153302,1,8,0:1:0:0:
253,232,153481,1,8,0:0:0:0:
253,232,153838,53,2,0:0:0:0:
257,236,153927,1,0,0:0:0:0:
261,240,154016,1,8,0:1:0:0:
221,151,154195,1,8,0:0:0:0:
282,310,154374,37,0,0:0:0:0:
367,324,154552,1,8,0:0:0:0:
421,257,154731,1,8,0:1:0:0:
389,177,154909,1,8,0:0:0:0:
367,324,155088,53,4,0:0:0:0:
506,272,155266,1,2,0:1:0:0:
510,276,155356,1,2,0:1:0:0:
512,280,155445,1,2,0:1:0:0:
453,338,155624,1,10,0:1:0:0:
474,191,155802,5,4,0:1:0:0:
338,246,155981,1,0,0:0:0:0:
342,250,156070,1,8,0:0:0:0:
346,254,156159,1,8,0:1:0:0:
421,257,156338,1,0,0:0:0:0:
421,257,156695,53,8,0:0:0:0:
425,261,156784,1,0,0:0:0:0:
429,265,156873,1,8,0:1:0:0:
442,111,157052,1,8,0:0:0:0:
303,163,157231,5,0,0:0:0:0:
389,177,157409,1,8,0:0:0:0:
497,43,157588,1,8,0:1:0:0:
411,29,157766,1,2,0:0:0:0:
389,177,157945,1,0,0:0:0:0:
497,43,158124,1,8,0:0:0:0:
501,47,158213,1,0,0:0:0:0:
505,51,158302,1,8,0:1:0:0:
442,111,158481,1,0,0:0:0:0:
272,81,158659,5,2,0:3:0:0:
217,149,158838,1,0,0:0:0:0:
221,153,158927,1,8,0:0:0:0:
225,157,159016,1,8,0:1:0:0:
248,231,159196,1,8,0:0:0:0:
248,231,159552,53,0,0:0:0:0:
252,235,159641,1,0,0:0:0:0:
256,239,159731,1,8,0:1:0:0:
111,247,159909,1,0,0:0:0:0:
146,323,160088,5,2,0:0:0:0:
195,331,160266,1,8,0:0:0:0:
245,340,160445,1,2,0:0:0:0:
296,348,160623,1,8,0:0:0:0:
346,358,160802,1,6,0:0:0:0:
432,200,161516,37,8,3:1:0:0:
416,161,161695,1,8,3:1:0:0:
374,165,161874,1,8,3:1:0:0:
364,206,162052,1,8,3:1:0:0:
400,227,162230,1,8,3:1:0:0:
490,124,162409,53,2,0:1:0:0:
494,128,162499,1,2,0:1:0:0:
498,132,162588,1,2,0:1:0:0:
400,227,162766,1,2,0:1:0:0:
298,127,162945,5,8,0:2:0:0:
309,109,163123,1,0,0:0:0:0:
324,95,163302,1,0,0:0:0:0:
344,88,163480,1,0,0:0:0:0:
366,88,163659,1,0,0:0:0:0:
256,192,164374,5,0,0:0:0:0:
256,192,175802,85,4,2:3:0:0:
256,192,187231,12,12,188704,2:0:0:0:
133,268,189552,6,0,P|60:299|87:212,1,209.999993591309
133,268,190088,6,0,P|182:293|236:276,1,83.9999974365235,4|4,0:3|0:3,0:0:0:0:
248,273,190356,1,0,0:0:0:0:
252,277,190445,2,0,L|355:301,1,83.9999974365235,0|4,0:0|2:3,0:0:0:0:
414,319,190802,2,0,P|414:275|392:237,1,83.9999974365235,4|4,0:3|0:0,0:0:0:0:
360,216,191070,1,0,0:0:0:0:
364,220,191159,2,0,L|282:200,1,83.9999974365235,0|4,0:0|2:3,0:0:0:0:
199,184,191516,5,4,0:0:0:0:
203,188,191695,1,4,0:0:0:0:
257,123,191874,2,0,P|304:123|347:92,1,83.9999974365235,0|4,0:0|0:0,0:0:0:0:
339,109,192231,1,4,0:0:0:0:
413,147,192409,1,0,0:0:0:0:
417,151,192499,1,4,0:3:0:0:
421,155,192588,1,4,0:0:0:0:
389,40,192766,1,0,0:0:0:0:
305,32,192945,54,0,L|197:53,1,83.9999974365235,4|0,0:0|0:0,0:0:0:0:
152,109,193302,2,0,L|136:27,1,83.9999974365235,4|0,0:0|0:0,0:0:0:0:
152,109,193659,1,4,0:0:0:0:
156,113,193838,2,0,L|172:195,1,83.9999974365235,0|0,3:0|0:0,0:0:0:0:
246,155,194195,1,0,0:0:0:0:
88,183,194374,5,4,0:0:0:0:
91,186,194553,2,0,L|107:268,2,83.9999974365235,4|0|0,0:0|0:0|0:0,0:0:0:0:
107,268,195088,1,4,0:0:0:0:
47,327,195266,2,0,L|11:363,2,41.9999987182618,0|0|4,0:0|0:0|0:0,0:0:0:0:
107,268,195624,1,0,0:0:0:0:
171,321,195802,6,0,B|204:347|204:347|256:347,1,83.9999974365235,4|4,0:0|0:0,0:0:0:0:
288,347,196070,1,0,0:0:0:0:
292,351,196159,2,0,L|186:352,1,83.9999974365235,0|4,0:0|0:0,0:0:0:0:
358,240,196516,54,0,B|325:266|325:266|273:266,1,83.9999974365235,4|4,0:0|0:0,0:0:0:0:
241,266,196784,1,0,0:0:0:0:
245,270,196873,2,0,L|351:271,1,83.9999974365235,0|4,0:0|0:0,0:0:0:0:
404,309,197231,5,4,0:0:0:0:
408,313,197409,1,4,0:0:0:0:
281,192,197588,2,0,L|240:265,1,83.9999974365235,0|4,0:0|0:0,0:0:0:0:
244,269,197945,1,4,0:0:0:0:
366,192,198124,1,0,0:0:0:0:
370,196,198213,1,4,2:3:0:0:
374,200,198302,1,4,0:0:0:0:
322,119,198481,1,0,0:0:0:0:
281,192,198659,5,4,0:3:0:0:
419,110,198838,1,0,2:0:0:0:
423,114,198927,1,0,2:0:0:0:
427,118,199016,1,4,0:0:0:0:
471,191,199195,1,0,0:0:0:0:
468,45,199374,1,4,0:3:0:0:
427,118,199552,2,0,L|377:118,2,41.9999987182618,4|0|0,0:3|2:0|2:0,0:0:0:0:
512,118,199909,1,4,0:0:0:0:
427,118,200088,38,0,L|303:118,1,122.5,0|0,3:0|0:0,0:0:0:0:
253,54,200802,2,0,L|238:36,7,17.5,4|4|4|4|4|4|4|4,0:3|0:3|0:3|0:3|0:3|0:3|0:3|0:3,0:0:0:0:
373,91,203659,2,0,P|403:70|406:153,1,167.999994873047,0|0,2:2|2:0,0:0:0:0:
373,91,204374,6,0,L|216:72,1,125.999996154785,12|2,3:1|0:3,0:0:0:0:
161,177,204731,2,0,P|229:185|281:152,1,125.999996154785,8|2,3:2|0:3,0:0:0:0:
187,10,205088,1,8,3:3:0:0:
357,213,205445,6,0,P|304:258|302:351,1,125.999996154785,8|2,3:2|0:3,0:0:0:0:
486,160,205802,2,0,L|344:122,1,125.999996154785,2|2,3:2|0:3,0:0:0:0:
161,177,206159,1,8,3:2:0:0:
54,340,206516,6,0,P|92:278|231:302,1,188.999994232178,8|8,3:3|0:3,0:0:0:0:
203,276,206874,1,8,3:2:0:0:
54,340,207052,1,2,0:0:0:0:
249,349,207231,6,0,P|284:303|269:221,1,125.999996154785,8|0,3:3|0:0,0:0:0:0:
369,173,207588,2,0,P|363:234|397:286,1,125.999996154785,8|2,3:2|0:0,0:0:0:0:
423,35,207945,2,0,P|362:46|328:97,1,125.999996154785,0|2,3:0|0:3,0:0:0:0:
231,171,208302,2,0,P|240:95|207:50,1,125.999996154785,8|8,3:2|0:3,0:0:0:0:
18,160,208659,5,2,3:2:0:0:
157,127,208838,1,2,0:3:0:0:
25,72,209016,1,8,3:2:0:0:
99,194,209195,1,8,0:3:0:0:
111,52,209374,1,2,3:2:0:0:
99,194,209552,1,8,1:3:0:0:
103,198,209641,1,0,1:1:0:0:
107,202,209731,1,14,3:2:0:0:
18,160,209909,1,8,1:2:0:0:
77,278,210088,22,0,P|147:303|173:382,1,125.999996154785,12|2,3:1|0:3,0:0:0:0:
379,277,210445,2,0,L|255:315,1,125.999996154785,8|2,3:2|0:3,0:0:0:0:
84,367,210802,1,8,3:3:0:0:
306,167,211159,6,0,P|385:190|452:144,1,125.999996154785,8|2,3:2|0:3,0:0:0:0:
203,92,211516,2,0,B|144:69|144:69|73:74,1,125.999996154785,2|2,3:2|0:3,0:0:0:0:
261,241,211874,1,8,3:2:0:0:
352,125,212231,6,0,B|399:137|399:137|396:51|496:8,1,188.999994232178,8|8,3:3|0:3,0:0:0:0:
471,26,212588,1,8,3:2:0:0:
352,125,212766,1,2,0:3:0:0:
408,269,212945,6,0,P|397:345|457:400,1,125.999996154785,8|0,3:3|0:0,0:0:0:0:
253,322,213302,2,0,P|190:334|152:394,1,125.999996154785,8|2,3:2|0:3,0:0:0:0:
161,181,213659,2,0,P|108:142|29:162,1,125.999996154785,0|2,3:0|0:3,0:0:0:0:
252,58,214016,2,0,P|309:28|370:43,1,125.999996154785,8|8,3:2|0:3,0:0:0:0:
373,185,214374,5,2,3:2:0:0:
237,229,214552,1,2,0:3:0:0:
321,113,214731,1,8,3:2:0:0:
321,256,214909,1,2,0:3:0:0:
237,140,215088,1,0,3:1:0:0:
321,256,215266,1,2,1:1:0:0:
325,260,215356,1,2,1:1:0:0:
329,264,215445,1,8,1:2:0:0:
237,229,215624,1,2,1:1:0:0:
372,183,215802,22,0,L|503:139,1,125.999996154785,12|2,3:1|0:3,0:0:0:0:
404,295,216159,2,0,P|409:233|373:184,1,125.999996154785,8|2,3:2|0:3,0:0:0:0:
404,295,216516,1,8,3:3:0:0:
145,83,216874,6,0,L|25:123,1,125.999996154785,8|2,3:2|0:3,0:0:0:0:
259,93,217231,2,0,P|170:101|127:56,1,125.999996154785,2|2,3:2|0:3,0:0:0:0:
25,123,217588,1,8,3:2:0:0:
25,123,217945,6,0,P|111:172|116:278,1,188.999994232178,2|2,3:2|0:0,0:0:0:0:
128,258,218302,1,8,3:2:0:0:
25,123,218481,1,2,0:3:0:0:
189,145,218659,6,0,L|323:173,1,125.999996154785,8|2,3:0|0:0,0:0:0:0:
126,254,219016,2,0,L|194:135,1,125.999996154785,8|2,3:2|0:3,0:0:0:0:
209,347,219374,2,0,L|117:244,1,125.999996154785,0|2,3:0|0:3,0:0:0:0:
324,296,219731,2,0,L|198:351,1,125.999996154785,8|2,3:2|0:3,0:0:0:0:
312,171,220088,5,8,3:0:0:0:
324,296,220266,1,2,0:3:0:0:
208,346,220445,1,8,3:2:0:0:
125,253,220624,1,2,0:3:0:0:
188,144,220802,1,2,3:2:0:0:
230,244,220981,1,8,0:3:0:0:
234,248,221070,1,0,0:1:0:0:
238,252,221159,1,8,3:2:0:0:
324,296,221338,1,8,2:2:0:0:
434,141,221516,22,0,L|303:172,1,125.999996154785,12|2,3:1|0:2,0:0:0:0:
233,29,221874,2,0,B|277:73|277:73|371:88,1,125.999996154785,8|0,3:2|0:0,0:0:0:0:
418,224,222231,2,0,B|374:180|374:180|280:165,1,125.999996154785,2|0,3:2|0:0,0:0:0:0:
109,191,222588,2,0,L|242:129,1,125.999996154785,8|2,3:2|0:3,0:0:0:0:
454,29,222945,6,0,L|339:82,1,125.999996154785,4|0,3:2|0:0,0:0:0:0:
252,244,223302,2,0,B|314:258|314:258|382:226,1,125.999996154785,8|0,3:2|0:0,0:0:0:0:
240,57,223659,2,0,L|299:167,1,125.999996154785,2|2,3:2|0:3,0:0:0:0:
311,354,224016,2,0,L|252:244,1,125.999996154785,8|8,3:2|0:3,0:0:0:0:
125,253,224374,22,0,B|94:253|69:225|69:225|92:191|117:188,1,125.999996154785,4|2,0:1|0:0,0:0:0:0:
327,235,224731,2,0,B|351:252|355:289|355:289|317:304|294:291,1,125.999996154785,0|2,1:1|0:0,0:0:0:0:
149,129,225088,2,0,B|139:100|157:68|157:68|197:78|208:102,1,125.999996154785,8|2,0:0|0:0,0:0:0:0:
233,320,225446,2,0,B|223:348|189:364|189:364|164:331|169:306,1,125.999996154785,0|2,1:1|0:0,0:0:0:0:
275,119,225802,5,4,1:2:0:0:
125,253,225981,1,0,1:0:0:0:
327,235,226159,1,0,1:0:0:0:
149,129,226338,1,0,1:0:0:0:
233,320,226516,53,0,1:0:0:0:
237,324,226606,1,2,0:1:0:0:
241,328,226695,1,2,0:1:0:0:
245,332,226784,1,2,0:1:0:0:
249,336,226874,1,0,1:0:0:0:
275,119,227052,1,2,0:1:0:0:
233,320,227231,38,0,B|223:348|191:374|191:374|164:331|169:306,1,140,4|0,0:1|0:0,0:0:0:0:
327,235,228302,1,0,0:0:0:0:
259,146,228659,2,0,B|329:146|329:146|393:101,1,140,0|2,0:0|0:2,0:0:0:0:
404,90,230802,70,0,L|382:109,1,26.25
