osu file format v14

[General]
AudioFilename: koi yomi zakura.mp3
AudioLeadIn: 0
PreviewTime: 204284
Countdown: 0
SampleSet: None
StackLeniency: 0.7
Mode: 0
LetterboxInBreaks: 0
WidescreenStoryboard: 0

[Editor]
Bookmarks: 38481,107588
DistanceSpacing: 1
BeatDivisor: 4
GridSize: 8
TimelineZoom: 1.6

[Metadata]
Title:Koi Yomi Zakura (Full size)
TitleUnicode:恋詠桜(Full size)
Artist:loos
ArtistUnicode:loos
Creator:papapa213
Version:Normal
Source:
Tags:omoi yoshino オモイヨシノ 柊莉杏 Hiiragi Rian spice+rock imouto ouo koko lyric ametrin yf_bmp gust ultimate madoka
BeatmapID:1307390
BeatmapSetID:602230

[Difficulty]
HPDrainRate:3
CircleSize:3
OverallDifficulty:4
ApproachRate:5
SliderMultiplier:1.1
SliderTickRate:1

[Events]
//Background and Video events
0,0,"48542248_p0.jpg",0,0
//Break Periods
2,127252,137459
2,164573,174602
2,176002,188888
2,200288,203174
//Storyboard Layer 0 (Background)
//Storyboard Layer 1 (Fail)
//Storyboard Layer 2 (Pass)
//Storyboard Layer 3 (Foreground)
//Storyboard Sound Samples

[TimingPoints]
1517,357.142857142857,4,3,10,40,1,0
12231,-100,4,3,10,60,0,0
12945,-100,4,3,10,70,0,0
24374,-100,4,2,10,50,0,0
32588,-100,4,3,10,50,0,0
32945,-100,4,2,10,50,0,0
35981,-100,4,3,10,60,0,0
46874,-100,4,3,10,70,0,0
58659,-100,4,2,11,70,0,1
78659,-100,4,3,10,70,0,1
81516,-100,4,3,10,70,0,0
95802,-100,4,3,10,60,0,0
115445,-100,4,3,10,70,0,0
138659,-100,4,2,10,60,0,0
144374,-100,4,3,0,40,0,0
145445,-100,4,3,0,50,0,0
145802,-100,4,3,0,45,0,0
146159,-100,4,3,0,50,0,0
147231,-100,4,3,0,30,0,0
147588,-100,4,3,0,50,0,0
147945,-100,4,3,0,40,0,0
148302,-100,4,3,0,55,0,0
148481,-100,4,3,0,50,0,0
148659,-100,4,2,10,70,0,0
150088,-100,4,3,10,70,0,0
190088,-100,4,3,10,70,0,0
204374,-100,4,2,11,70,0,1
224374,-100,4,3,10,70,0,1
227231,-100,4,3,10,70,0,0

[Colours]
Combo1 : 233,50,82
Combo2 : 238,87,174
Combo3 : 236,223,66
Combo4 : 33,156,222

[HitObjects]
276,68,1517,6,0,P|348:48|400:80,1,110,4|2,0:0|0:2,0:0:0:0:
334,160,2231,2,0,P|262:180|210:148,1,110,0|2,0:0|0:2,0:0:0:0:
130,125,2945,2,0,P|116:177|138:227,1,110,4|2,0:0|0:2,0:0:0:0:
239,270,3659,2,0,P|252:217|230:167,1,110,0|2,0:0|0:2,0:0:0:0:
208,59,4374,5,4,0:0:0:0:
425,24,5088,1,0,0:0:0:0:
349,230,5802,1,2,0:1:0:0:
66,196,7231,5,4,1:1:0:0:
281,150,7945,1,0,1:0:0:0:
116,294,8659,1,0,1:0:0:0:
66,196,9016,2,0,P|116:182|178:204,1,110,8|0,1:3|1:0,0:0:0:0:
354,320,10088,5,0,1:0:0:0:
254,366,10445,2,0,P|240:315|259:263,1,110,8|0,1:3|1:0,0:0:0:0:
293,219,10981,1,0,1:0:0:0:
389,166,11338,1,0,1:0:0:0:
438,141,11516,6,0,L|502:141,1,55,0|2,1:0|1:3,0:0:0:0:
449,39,12052,1,0,1:0:0:0:
409,0,12231,2,0,B|289:0,1,110,8|0,1:0|0:0,0:0:0:0:
189,0,12945,5,4,0:1:0:0:
242,95,13302,1,8,1:0:0:0:
132,95,13659,2,0,P|142:146|207:197,1,110,0|8,1:0|1:0,0:0:0:0:
291,186,14374,1,0,1:0:0:0:
238,281,14731,1,8,1:0:0:0:
348,281,15088,2,0,P|338:332|273:383,1,110,0|8,1:0|1:0,0:0:0:0:
188,373,15802,5,0,1:0:0:0:
135,278,16159,1,8,1:0:0:0:
75,370,16516,2,0,P|37:331|25:278,1,110,2|8,1:2|1:0,0:0:0:0:
78,180,17231,5,0,1:0:0:0:
121,146,17409,2,0,L|237:146,1,110
274,180,17945,2,0,P|322:168|363:108,1,110,0|8,1:0|1:0,0:0:0:0:
417,29,18659,6,0,B|386:3|386:3|227:3,1,165,4|4,1:3|1:3,0:0:0:0:
146,7,19552,1,8,2:0:0:0:
146,7,19731,1,8,2:0:0:0:
197,104,20088,5,4,1:3:0:0:
231,146,20266,2,0,B|257:195|257:195|233:247,1,110,4|4,1:3|1:3,0:0:0:0:
185,343,20981,1,8,2:2:0:0:
185,343,21159,1,8,2:0:0:0:
132,248,21516,6,0,P|182:228|234:244,1,110,4|8,1:1|0:1,0:0:0:0:
284,264,22052,1,4,1:2:0:0:
331,291,22231,2,0,P|365:297|402:276,1,55,0|8,0:0|0:1,0:0:0:0:
411,243,22588,2,0,P|420:209|449:191,1,55,4|8,1:1|0:1,0:0:0:0:
465,150,22945,2,0,B|429:104|429:104|353:151|275:115,1,220,4|4,1:2|2:3,0:0:0:0:
224,92,23838,2,0,P|193:87|157:100,1,55,2|8,0:1|0:1,0:0:0:0:
63,67,24374,6,0,P|83:159|75:195,1,110,4|0,1:1|0:0,0:0:0:0:
9,256,25088,2,0,P|29:348|106:389,1,165,0|4,0:0|0:3,0:0:0:0:
117,279,25981,1,4,0:3:0:0:
499,322,27231,6,0,P|438:347|375:338,1,110,4|0,0:3|0:0,0:0:0:0:
426,239,27945,2,0,P|409:182|298:132,1,165,0|4,0:0|0:3,0:0:0:0:
317,240,28838,1,4,0:3:0:0:
48,260,30088,6,0,B|16:224|16:224|16:162,1,110,4|0,0:3|0:0,0:0:0:0:
45,56,30802,2,0,B|106:86|106:86|106:189,1,165,0|4,0:0|0:3,0:0:0:0:
199,241,31695,2,0,B|199:42|199:42|244:55|273:41,1,275,4|8,0:3|1:1,0:0:0:0:
324,20,32766,1,0,0:0:0:0:
374,42,32945,6,0,P|391:93|384:147,1,110,4|12,0:3|0:0,0:0:0:0:
339,179,33481,1,4,0:3:0:0:
293,209,33659,2,0,P|285:263|303:314,1,110,4|8,0:3|0:0,0:0:0:0:
346,349,34195,2,0,P|293:334|240:349,1,110,4|4,0:3|0:0,0:0:0:0:
136,382,34909,1,8,0:0:0:0:
33,342,35266,1,8,0:0:0:0:
33,342,35445,1,12,0:0:0:0:
123,278,35802,6,0,P|171:231|176:177,1,110,4|8,1:0|0:1,0:0:0:0:
131,90,36516,1,0,0:0:0:0:
202,5,36874,1,8,0:3:0:0:
311,16,37231,2,0,P|363:28|398:69,1,110,0|8,0:2|0:1,0:0:0:0:
393,179,37945,1,0,0:0:0:0:
292,135,38302,1,8,0:3:0:0:
264,244,38659,5,0,0:0:0:0:
252,353,39016,2,0,P|185:326|166:278,2,110,8|0|8,0:1|0:0|2:2,0:0:0:0:
362,355,40088,2,0,P|428:328|448:280,1,110,2|8,0:2|0:1,0:0:0:0:
450,187,40802,1,2,0:2:0:0:
408,85,41159,2,0,P|380:93|360:117,1,55,8|2,2:3|0:0,0:0:0:0:
334,158,41516,6,0,P|288:174|225:157,1,110,2|8,0:2|0:1,0:0:0:0:
176,63,42231,2,0,P|222:47|285:64,1,110,0|8,0:0|0:2,0:0:0:0:
334,158,42945,2,0,P|371:185|439:179,1,110,0|8,0:0|0:1,0:0:0:0:
488,87,43659,1,0,0:0:0:0:
385,46,44016,2,0,P|353:38|330:19,1,55,8|2,1:3|0:0,0:0:0:0:
281,12,44374,6,0,B|234:-7|234:-7|170:20,1,110,4|4,0:3|1:1,0:0:0:0:
107,99,45088,2,0,B|127:152|127:152|101:206,1,110,4|12,0:3|0:2,0:0:0:0:
145,301,45802,2,0,B|185:281|185:281|245:302|245:302|301:280,1,165,4|12,0:3|0:2,0:0:0:0:
410,242,46695,5,4,0:0:0:0:
448,203,46874,2,0,P|482:151|477:96,1,110,8|4,1:3|1:1,0:0:0:0:
370,94,47588,2,0,P|316:97|274:63,1,110,8|0,2:2|0:0,0:0:0:0:
192,1,48302,1,0,0:0:0:0:
192,1,48481,2,0,P|142:4|93:48,1,110,2|2,0:1|0:2,0:0:0:0:
67,86,49016,1,8,0:2:0:0:
167,132,49374,2,0,P|157:155|135:176,1,55,2|8,0:2|0:2,0:0:0:0:
83,193,49731,2,0,P|50:236|50:290,1,110,0|4,0:0|3:3,0:0:0:0:
140,352,50445,6,0,P|191:369|242:352,1,110,8|0,2:2|0:0,0:0:0:0:
192,253,51159,1,0,0:0:0:0:
192,253,51338,2,0,P|243:236|294:253,1,110,2|0,0:0|0:0,0:0:0:0:
320,301,51874,1,10,0:2:0:0:
416,248,52231,2,0,L|493:249,2,55,0|8|8,0:2|0:2|2:0,0:0:0:0:
322,190,52945,1,4,0:1:0:0:
231,128,53302,6,0,P|179:111|127:127,1,110,8|0,2:0|0:0,0:0:0:0:
181,223,54016,1,0,0:0:0:0:
181,223,54195,2,0,P|128:239|76:223,1,110,2|0,0:1|0:0,0:0:0:0:
44,180,54731,1,8,2:0:0:0:
49,70,55088,6,0,B|59:36|59:36|92:20|92:20|128:34,2,110,8|8|12,2:0|2:0|2:0,0:0:0:0:
44,180,56159,1,8,2:0:0:0:
51,289,56516,2,0,P|91:324|145:329,1,110,8|8,2:0|2:0,0:0:0:0:
251,296,57231,1,12,3:2:0:0:
228,188,58124,5,2,0:1:0:0:
228,188,58302,1,10,0:1:0:0:
285,280,58659,6,0,P|234:299|182:287,1,110,12|8,3:1|3:2,0:0:0:0:
100,212,59374,1,0,3:3:0:0:
143,111,59731,1,8,3:2:0:0:
34,126,60088,2,0,L|0:168,2,55,2|2|8,3:2|0:3|3:2,0:0:0:0:
76,24,60802,1,8,3:3:0:0:
184,7,61159,2,0,P|222:7|258:23,1,55,8|2,3:2|0:3,0:0:0:0:
273,54,61516,6,0,P|305:94|370:100,1,110,2|8,3:3|3:2,0:0:0:0:
461,58,62231,2,0,P|476:109|454:158,1,110,2|8,3:3|3:2,0:0:0:0:
380,239,62945,1,2,3:2:0:0:
283,186,63302,1,10,3:2:0:0:
261,293,63659,2,0,P|215:279|182:224,1,110,10|8,3:2|1:3,0:0:0:0:
173,174,64195,1,8,1:3:0:0:
167,119,64374,6,0,P|139:72|88:51,1,110,4|8,3:3|3:2,0:0:0:0:
65,158,65088,1,0,3:3:0:0:
173,174,65445,1,8,3:2:0:0:
112,266,65802,2,0,L|63:289,2,55,2|2|8,3:2|0:3|3:2,0:0:0:0:
221,276,66516,1,8,3:3:0:0:
332,272,66874,2,0,P|388:260|404:240,1,55,8|2,3:2|0:3,0:0:0:0:
420,220,67231,6,0,P|439:170|427:117,1,110,2|8,3:3|3:2,0:0:0:0:
474,17,67945,2,0,P|421:4|370:23,1,110,0|8,3:0|3:2,0:0:0:0:
319,120,68659,2,0,P|268:138|215:125,1,110,2|8,3:2|3:2,0:0:0:0:
115,79,69374,2,0,P|101:131|120:182,1,110,0|2,3:2|3:1,0:0:0:0:
185,269,70088,6,0,P|235:250|288:263,1,110,12|8,3:1|3:2,0:0:0:0:
365,341,70802,1,0,3:3:0:0:
389,233,71159,1,10,3:2:0:0:
469,308,71516,2,0,L|483:367,2,55,0|2|8,3:2|0:3|3:2,0:0:0:0:
505,203,72231,1,0,3:3:0:0:
463,101,72588,2,0,P|452:78|425:57,1,55,8|2,3:2|0:3,0:0:0:0:
382,87,72945,6,0,P|318:104|276:82,1,110,8|8,3:3|3:2,0:0:0:0:
183,35,73659,2,0,P|164:85|182:136,1,110,0|8,3:0|3:2,0:0:0:0:
240,230,74374,1,2,3:2:0:0:
298,137,74731,1,8,3:2:0:0:
355,230,75088,2,0,P|401:201|430:147,1,110,8|8,3:2|1:2,0:0:0:0:
440,100,75624,1,8,1:3:0:0:
429,46,75802,6,0,L|310:21,1,110,12|8,3:1|3:2,0:0:0:0:
211,22,76516,2,0,L|93:41,1,110,2|8,3:3|3:2,0:0:0:0:
29,122,77231,2,0,L|143:183,1,110,12|8,3:1|3:2,0:0:0:0:
235,177,77945,2,0,P|216:234|163:276,1,110,2|8,3:3|3:2,0:0:0:0:
77,306,78659,6,0,B|105:370|105:370|217:370,1,165,4|2,1:2|0:0,0:0:0:0:
249,344,79374,2,0,B|293:304|293:304|345:352|409:344,1,165,4|2,0:2|0:0,0:0:0:0:
441,334,80088,2,0,P|461:312|475:285,1,55,4|0,1:2|1:0,0:0:0:0:
498,240,80445,2,0,P|498:210|489:180,1,55,0|0,1:0|1:0,0:0:0:0:
453,146,80802,6,0,B|428:133|428:133|403:144|403:144|379:132|379:132|353:150,1,110,2|2,1:0|0:1,0:0:0:0:
317,186,81338,1,2,0:1:0:0:
277,224,81516,6,0,P|215:235|154:209,1,110,4|8,1:1|0:1,0:0:0:0:
75,165,82231,2,0,P|60:218|72:271,1,110,2|8,0:2|0:1,0:0:0:0:
164,330,82945,2,0,L|182:381,2,55,0|8|8,0:0|0:0|0:1,0:0:0:0:
171,220,83659,2,0,P|182:166|167:114,1,110,0|8,0:0|0:1,0:0:0:0:
137,68,84195,1,0,0:0:0:0:
96,30,84374,6,0,P|149:41|201:26,1,110,6|8,0:2|0:1,0:0:0:0:
308,3,85088,2,0,P|360:-11|413:0,1,110,2|8,0:2|0:1,0:0:0:0:
462,98,85802,2,0,L|516:124,2,55,0|8|8,0:0|0:0|0:1,0:0:0:0:
352,90,86516,2,0,P|315:143|335:223,1,110,4|2,0:0|0:1,0:0:0:0:
357,288,87231,6,0,B|328:354|328:354|271:369,2,110,4|0|2,3:1|0:1|0:2,0:0:0:0:
405,189,88302,1,8,0:1:0:0:
352,90,88659,2,0,L|352:34,2,55,4|0|8,2:0|0:3|0:1,0:0:0:0:
306,190,89374,2,0,P|254:205|203:185,1,110,0|8,0:0|0:2,0:0:0:0:
161,150,89909,1,8,0:0:0:0:
116,118,90088,6,0,L|116:230,1,110,4|8,0:1|0:1,0:0:0:0:
63,324,90802,2,0,P|114:341|166:326,1,110,2|8,0:3|0:1,0:0:0:0:
241,246,91516,1,4,0:1:0:0:
318,324,91874,2,0,L|334:380,2,55,2|8|4,0:0|0:0|0:1,0:0:0:0:
341,216,92588,6,0,L|363:93,1,110,8|4,0:0|2:1,0:0:0:0:
39,346,94374,5,4,0:0:0:0:
252,172,95266,5,2,0:1:0:0:
252,172,95445,1,8,0:1:0:0:
335,243,95802,6,0,P|386:258|443:243,1,110,4|10,0:1|0:2,0:0:0:0:
491,147,96516,2,0,P|506:96|491:39,1,110,0|8,0:0|0:1,0:0:0:0:
395,93,97231,2,0,P|342:106|290:91,1,110,0|10,0:0|0:2,0:0:0:0:
205,20,97945,2,0,P|152:4|99:17,1,110,0|8,0:0|0:1,0:0:0:0:
65,124,98659,6,0,L|-2:154,2,55,2|0|8,0:2|0:0|0:2,0:0:0:0:
175,125,99374,2,0,P|163:177|126:218,1,110,0|8,0:0|0:1,0:0:0:0:
70,312,100088,2,0,L|72:366,2,55,0|2|8,0:0|0:0|2:0,0:0:0:0:
21,215,100802,2,0,P|73:202|126:218,1,110,0|0,0:0|0:2,0:0:0:0:
171,249,101338,1,2,0:0:0:0:
214,282,101516,6,0,P|266:297|318:283,1,110,4|12,0:3|1:0,0:0:0:0:
365,253,102052,1,4,0:3:0:0:
394,206,102231,2,0,P|412:159|393:99,1,110,4|8,0:3|2:0,0:0:0:0:
359,62,102766,2,0,P|307:76|251:55,1,110,4|4,2:3|2:0,0:0:0:0:
160,1,103480,1,8,2:0:0:0:
158,109,103838,1,8,2:0:0:0:
158,109,104016,1,12,2:0:0:0:
256,58,104374,6,0,P|264:138|232:182,1,110,4|8,1:2|0:1,0:0:0:0:
159,221,105088,1,0,0:0:0:0:
158,109,105446,1,8,0:3:0:0:
61,170,105802,2,0,P|53:250|85:294,1,110,0|8,0:2|0:1,0:0:0:0:
158,333,106516,1,0,0:0:0:0:
159,221,106874,1,8,0:3:0:0:
253,277,107231,5,0,0:0:0:0:
362,280,107588,2,0,P|351:329|308:371,2,110,8|0|8,0:1|0:2|2:2,0:0:0:0:
412,182,108659,2,0,P|359:167|308:184,1,110,2|8,0:2|0:1,0:0:0:0:
253,277,109374,1,2,0:2:0:0:
195,371,109731,2,0,P|167:379|138:378,1,55,8|2,2:3|0:3,0:0:0:0:
88,364,110088,6,0,P|45:328|31:276,1,110,2|8,0:2|0:1,0:0:0:0:
52,168,110802,2,0,P|87:125|139:111,1,110,0|8,0:0|0:2,0:0:0:0:
148,220,111516,2,0,P|200:205|234:163,1,110,2|8,0:2|0:1,0:0:0:0:
288,68,112231,2,0,P|329:102|344:154,1,110,0|8,0:0|1:3,0:0:0:0:
288,252,112946,6,0,B|346:271|346:271|391:252,1,110,4|4,0:3|1:1,0:0:0:0:
484,192,113659,2,0,B|503:134|503:134|484:88,1,110,4|12,0:3|0:2,0:0:0:0:
384,44,114374,2,0,B|332:20|332:20|288:48|288:48|231:21,1,165,4|12,0:3|0:2,0:0:0:0:
132,0,115267,5,4,0:0:0:0:
96,40,115445,2,0,P|78:91|92:143,1,110,8|4,1:3|1:1,0:0:0:0:
56,248,116159,6,0,P|108:233|159:251,1,110,8|0,2:2|0:0,0:0:0:0:
256,308,116874,1,0,0:0:0:0:
256,308,117052,2,0,P|273:256|259:204,1,110,2|2,0:1|0:2,0:0:0:0:
232,156,117588,1,8,0:2:0:0:
148,84,117945,2,0,P|182:57|226:53,1,55,2|8,0:2|0:2,0:0:0:0:
248,48,118302,2,0,P|299:65|351:51,1,110,0|2,0:0|3:2,0:0:0:0:
460,32,119016,6,0,P|442:83|456:135,1,110,8|0,2:2|0:0,0:0:0:0:
504,236,119731,1,0,0:0:0:0:
460,268,119909,2,0,P|408:285|356:271,1,110,2|0,0:0|0:0,0:0:0:0:
312,240,120446,1,10,0:2:0:0:
216,188,120803,2,0,L|156:208,2,55,0|8|8,0:2|0:2|2:0,0:0:0:0:
312,136,121517,5,4,0:1:0:0:
409,85,121874,2,0,P|376:41|324:24,1,110,8|0,2:0|0:0,0:0:0:0:
229,79,122588,1,0,0:0:0:0:
229,79,122766,2,0,P|188:90|110:61,1,110,2|0,0:1|0:0,0:0:0:0:
84,34,123302,1,8,2:0:0:0:
60,141,123660,6,0,B|47:201|47:201|-16:213,2,110,8|8|8,2:0|2:0|2:0,0:0:0:0:
84,34,124731,1,8,2:0:0:0:
148,122,125088,2,0,L|209:216,1,110,8|8,2:0|2:0,0:0:0:0:
271,304,125803,1,4,0:2:0:0:
136,140,138659,5,2,0:0:0:0:
340,220,139374,1,2,0:0:0:0:
232,232,139731,2,0,L|101:246,2,110,2|2|2,0:0|0:0|0:0,0:0:0:0:
340,220,140802,2,0,P|376:185|379:112,1,110,2|0,0:0|0:0,0:0:0:0:
364,76,141338,1,0,0:0:0:0:
320,44,141516,6,0,L|203:44,1,110,2|2,0:0|0:0,0:0:0:0:
105,79,142231,2,0,P|71:134|73:193,1,110,2|2,0:0|0:0,0:0:0:0:
177,199,142945,2,0,P|172:253|141:297,1,110,2|0,0:0|0:0,0:0:0:0:
40,342,143659,1,2,0:0:0:0:
260,316,144374,6,0,B|344:297|344:297|432:309|432:309|360:216|377:97,1,385
324,92,145802,2,0,B|215:105|215:105|284:206|284:206|206:175|126:185,1,385
96,224,147231,6,0,B|68:280|68:280|140:260|204:288,1,165,0|0,0:0|0:0,0:0:0:0:
216,308,147945,2,0,B|248:300|248:300|300:320|340:312|384:276,1,165
420,252,148659,6,0,P|428:220|416:192,1,55,4|8,1:1|0:1,0:0:0:0:
356,112,149195,1,8,0:1:0:0:
280,192,149552,2,0,P|253:198|227:190,1,55,2|4,1:3|2:0,0:0:0:0:
148,112,150088,5,6,0:0:0:0:
76,28,150445,2,0,P|53:43|42:68,1,55,8|0,0:1|0:0,0:0:0:0:
40,124,150802,2,0,L|40:256,1,110,2|8,0:0|0:1,0:0:0:0:
36,344,151516,2,0,P|100:332|138:275,1,110,0|8,0:0|0:1,0:0:0:0:
180,204,152231,2,0,P|243:187|301:223,1,110,0|8,0:0|0:1,0:0:0:0:
348,292,152945,5,6,0:0:0:0:
420,376,153302,2,0,P|442:360|453:335,1,55,8|8,0:1|0:0,0:0:0:0:
456,280,153659,2,0,L|456:148,1,110,0|8,0:0|0:1,0:0:0:0:
460,60,154373,2,0,P|396:72|358:129,1,110,0|8,0:0|0:1,0:0:0:0:
316,204,155088,2,0,P|252:220|194:184,1,110,0|2,0:0|0:1,0:0:0:0:
148,112,155802,5,6,0:0:0:0:
84,24,156159,2,0,P|101:3|128:3,1,55,8|0,0:1|0:0,0:0:0:0:
180,20,156516,2,0,P|252:36|308:4,1,110,2|8,0:0|0:1,0:0:0:0:
392,0,157231,2,0,P|407:50|392:103,1,110,0|8,0:0|0:1,0:0:0:0:
296,160,157945,2,0,P|280:210|295:263,1,110,0|8,0:0|0:1,0:0:0:0:
356,356,158659,5,6,0:3:0:0:
402,256,159016,2,0,P|410:213|388:156,1,55,8|8,0:1|0:0,0:0:0:0:
399,147,159374,2,0,P|379:95|326:60,1,110,0|8,0:0|0:1,0:0:0:0:
238,14,160088,2,0,P|186:-1|134:13,1,110,2|2,0:0|0:0,0:0:0:0:
89,45,160624,1,8,0:0:0:0:
58,90,160802,2,0,P|42:142|58:193,1,110,6|0,0:0|0:0,0:0:0:0:
155,142,161516,6,0,P|206:126|258:141,1,110,0|0,0:0|0:0,0:0:0:0:
304,173,162052,1,8,0:0:0:0:
335,218,162230,2,0,P|350:270|334:321,1,110,4|2,0:0|0:1,0:0:0:0:
237,269,162945,6,0,P|185:253|133:268,1,110,0|0,0:0|0:0,0:0:0:0:
88,300,163481,1,0,0:0:0:0:
60,347,163659,2,0,P|-1:262|77:179,1,220,8|4,0:2|0:3,0:0:0:0:
252,188,175802,5,4,2:3:0:0:
108,136,190088,6,0,P|192:108|344:144,1,220,4|4,0:3|0:3,0:0:0:0:
194,311,191516,1,4,0:0:0:0:
159,353,191695,2,0,L|267:337,1,110,4|4,0:0|0:0,0:0:0:0:
322,330,192231,1,4,0:0:0:0:
448,150,192945,5,4,2:3:0:0:
378,58,193302,1,4,0:0:0:0:
330,157,193659,1,4,0:0:0:0:
295,200,193838,2,0,L|187:216,1,110,4|0,3:0|0:0,0:0:0:0:
131,226,194374,5,4,0:0:0:0:
89,189,194552,2,0,B|77:164|77:164|92:140|92:140|79:80,1,110,4|0,0:0|0:0,0:0:0:0:
68,33,195088,1,4,0:0:0:0:
186,216,195802,6,0,L|294:200,1,110,4|0,0:0|0:0,0:0:0:0:
274,307,196516,2,0,L|382:291,1,110,4|0,0:0|0:0,0:0:0:0:
491,272,197231,5,4,0:0:0:0:
504,218,197409,2,0,P|509:167|468:110,1,110,4|4,0:0|0:0,0:0:0:0:
438,81,197945,1,4,0:0:0:0:
248,191,198659,5,4,0:3:0:0:
211,87,199016,1,4,0:0:0:0:
134,166,199374,1,4,0:3:0:0:
102,210,199552,2,0,L|29:306,1,110,4|4,0:3|0:0,0:0:0:0:
2,342,200088,1,0,0:0:0:0:
446,103,204374,6,0,P|436:180|392:213,1,110,12|8,3:1|3:2,0:0:0:0:
309,232,205089,1,0,3:3:0:0:
334,124,205446,1,8,3:2:0:0:
226,148,205803,2,0,L|189:200,2,55,12|2|8,3:1|0:3|3:2,0:0:0:0:
256,42,206517,1,8,3:3:0:0:
148,65,206874,2,0,P|119:72|82:60,1,55,8|2,3:2|0:3,0:0:0:0:
45,42,207231,6,0,P|27:118|57:164,1,110,12|8,3:1|3:2,0:0:0:0:
130,204,207945,2,0,P|145:259|111:326,1,110,2|8,3:0|3:2,0:0:0:0:
33,364,208660,1,12,3:1:0:0:
31,254,209016,1,12,3:1:0:0:
130,204,209374,2,0,P|181:186|232:203,1,110,12|14,3:1|1:2,0:0:0:0:
268,245,209910,1,8,1:2:0:0:
307,283,210088,6,0,P|358:300|409:282,1,110,12|8,3:1|3:2,0:0:0:0:
469,190,210803,1,0,3:3:0:0:
359,175,211160,1,8,3:2:0:0:
433,93,211517,2,0,L|496:89,2,55,12|2|8,3:1|0:3|3:2,0:0:0:0:
326,64,212231,1,8,3:3:0:0:
259,151,212588,2,0,P|240:171|215:181,1,55,8|2,3:2|0:3,0:0:0:0:
174,144,212946,6,0,P|117:129|60:151,1,110,12|8,0:1|3:2,0:0:0:0:
11,236,213659,2,0,P|-4:293|18:350,1,110,0|8,3:0|3:2,0:0:0:0:
108,289,214374,2,0,P|160:273|212:289,1,110,14|12,3:2|3:2,0:0:0:0:
293,363,215088,2,0,P|345:378|397:363,1,110,6|8,3:1|1:2,0:0:0:0:
482,292,215802,6,0,P|481:236|453:191,1,110,12|8,3:1|3:2,0:0:0:0:
358,135,216517,1,0,3:3:0:0:
346,244,216874,1,8,3:2:0:0:
257,178,217231,2,0,L|241:117,2,55,12|2|8,3:1|0:3|3:2,0:0:0:0:
243,287,217946,1,8,3:3:0:0:
151,226,218302,2,0,P|117:218|81:231,1,55,8|2,3:2|0:3,0:0:0:0:
53,256,218660,6,0,P|24:206|30:148,1,110,12|8,0:1|3:2,0:0:0:0:
87,63,219374,2,0,P|137:43|190:55,1,110,0|8,3:0|3:2,0:0:0:0:
234,155,220089,1,12,3:1:0:0:
299,67,220445,1,12,3:1:0:0:
355,161,220802,2,0,P|374:211|362:264,1,110,12|8,3:1|3:3,0:0:0:0:
322,303,221339,1,8,2:3:0:0:
274,275,221516,6,0,P|220:263|170:282,1,110,12|8,3:1|3:2,0:0:0:0:
101,367,222231,2,0,P|67:324|62:270,1,110,2|8,3:2|3:2,0:0:0:0:
87,163,222945,2,0,P|128:127|182:120,1,110,12|8,3:1|3:2,0:0:0:0:
263,194,223659,2,0,P|290:147|287:92,1,110,12|8,3:1|3:2,0:0:0:0:
204,20,224374,6,0,B|108:74|108:74|205:125|205:125|151:177|191:254,1,330,4|0,1:3|1:1,0:0:0:0:
223,326,225802,6,0,B|262:277|322:291|322:291|362:186|362:186|417:197|464:147,1,330,12|4,1:3|1:3,0:0:0:0:
256,192,227231,12,0,229374,0:0:0:0:
251,159,230802,6,0,L|251:203,1,41.25
