osu file format v14

[General]
AudioFilename: koi yomi zakura.mp3
AudioLeadIn: 0
PreviewTime: 204284
Countdown: 0
SampleSet: None
StackLeniency: 0.2
Mode: 0
LetterboxInBreaks: 0
WidescreenStoryboard: 0

[Editor]
DistanceSpacing: 1.8
BeatDivisor: 4
GridSize: 32
TimelineZoom: 1.5

[Metadata]
Title:Koi Yomi Zakura (Full size)
TitleUnicode:恋詠桜(Full size)
Artist:loos
ArtistUnicode:loos
Creator:papapa213
Version:Lyric's Insane
Source:
Tags:omoi yoshino オモイヨシノ 柊莉杏 Hiiragi Rian spice+rock imouto ouo koko lyric ametrin yf_bmp gust ultimate madoka
BeatmapID:1303552
BeatmapSetID:602230

[Difficulty]
HPDrainRate:5
CircleSize:4
OverallDifficulty:8
ApproachRate:9
SliderMultiplier:1.4
SliderTickRate:1

[Events]
//Background and Video events
0,0,"48542248_p0.jpg",0,0
//Break Periods
2,164574,175202
2,176091,189488
//Storyboard Layer 0 (Background)
//Storyboard Layer 1 (Fail)
//Storyboard Layer 2 (Pass)
//Storyboard Layer 3 (Foreground)
//Storyboard Sound Samples

[TimingPoints]
1517,357.142857142857,4,3,10,40,1,0
6159,-100,4,2,10,10,0,0
6516,-125,4,3,10,40,0,0
7231,-100,4,3,10,40,0,0
12945,-83.3333333333333,4,3,10,70,0,0
21338,-83.3333333333333,4,3,10,40,0,0
21516,-100,4,3,10,70,0,0
24374,-100,4,2,10,50,0,0
35802,-83.3333333333333,4,3,10,60,0,0
46874,-125,4,3,10,70,0,0
47231,-83.3333333333333,4,3,10,70,0,0
55088,-69.4444444444444,4,3,10,70,0,0
55445,-57.8034682080925,4,3,10,70,0,0
57231,-125,4,3,10,70,0,0
58659,-69.4444444444444,4,2,11,70,0,1
78659,-69.4444444444444,4,3,10,70,0,1
81516,-83.3333333333333,4,3,10,70,0,0
95802,-83.3333333333333,4,3,10,60,0,0
115445,-125,4,3,10,70,0,0
115802,-83.3333333333333,4,3,10,70,0,0
123659,-69.4444444444444,4,3,10,70,0,0
124016,-57.8034682080925,4,3,10,70,0,0
125802,-125,4,3,10,70,0,0
127231,-100,4,2,10,50,0,0
138659,-100,4,2,10,60,0,0
144374,-83.3333333333333,4,3,0,50,0,0
145088,-83.3333333333333,4,3,0,50,0,0
145802,-83.3333333333333,4,3,0,55,0,0
146159,-83.3333333333333,4,3,0,60,0,0
147231,-83.3333333333333,4,3,0,65,0,0
147945,-83.3333333333333,4,3,0,70,0,0
148659,-83.3333333333333,4,2,10,70,0,0
150088,-83.3333333333333,4,3,10,70,0,0
204374,-69.4444444444444,4,2,11,70,0,1
224374,-69.4444444444444,4,3,10,70,0,1
227231,-100,4,3,10,70,0,0
229374,-100,4,3,10,50,0,0
230802,-100,4,3,10,40,0,0

[Colours]
Combo1 : 233,50,82
Combo2 : 238,87,174
Combo3 : 236,223,66
Combo4 : 33,156,222

[HitObjects]
343,253,1517,5,4,0:0:0:0:
400,197,1695,1,0,0:2:0:0:
381,118,1874,1,2,0:2:0:0:
304,96,2052,1,0,0:0:0:0:
278,245,2231,1,0,0:0:0:0:
356,268,2409,1,0,0:0:0:0:
413,212,2588,1,2,0:2:0:0:
491,235,2766,1,0,0:0:0:0:
261,230,2945,5,4,0:0:0:0:
280,308,3124,1,0,0:0:0:0:
223,364,3302,1,2,0:2:0:0:
145,341,3481,1,0,0:0:0:0:
28,223,3659,1,0,0:0:0:0:
105,245,3838,1,0,0:0:0:0:
169,191,4016,1,2,0:2:0:0:
246,213,4195,1,4,0:3:0:0:
10,317,4374,5,4,0:0:0:0:
1,131,4731,1,2,0:2:0:0:
137,271,5088,1,0,0:0:0:0:
128,85,5445,1,2,0:2:0:0:
347,194,5802,6,0,P|290:154|222:184,1,140
365,350,6516,2,0,B|378:302|378:302|357:229|357:229|378:169,1,168,0|0,2:0|2:0,0:0:0:0:
205,274,7231,6,0,P|257:273|301:282,1,70,4|2,1:1|0:0,0:0:0:0:
62,310,7588,2,0,P|99:329|159:332,1,70,8|0,0:0|0:0,0:0:0:0:
294,299,7945,1,0,1:0:0:0:
156,182,8124,1,0,0:0:0:0:
156,182,8213,1,0,0:0:0:0:
156,182,8302,1,2,0:0:0:0:
43,328,8481,1,0,0:0:0:0:
237,201,8659,6,0,P|235:162|216:120,1,70,0|2,1:0|0:0,0:0:0:0:
25,124,9016,2,0,P|38:79|62:46,1,70,8|0,1:3|0:0,0:0:0:0:
140,201,9374,1,0,1:0:0:0:
37,305,9552,1,0,0:0:0:0:
37,305,9641,1,0,0:0:0:0:
37,305,9731,1,2,0:0:0:0:
12,146,9909,1,0,0:0:0:0:
208,46,10088,6,0,P|207:82|204:126,1,70,0|2,1:0|0:0,0:0:0:0:
169,290,10445,2,0,P|163:258|158:213,1,70,8|0,1:3|0:0,0:0:0:0:
387,198,10802,1,0,1:0:0:0:
303,188,10981,1,0,1:0:0:0:
188,309,11159,1,2,0:0:0:0:
270,294,11338,1,0,1:0:0:0:
449,324,11516,5,0,1:0:0:0:
362,297,11695,1,2,1:3:0:0:
362,297,11784,1,0,2:0:0:0:
362,297,11874,2,0,L|365:341,1,35,8|0,0:0|2:0,0:0:0:0:
410,217,12052,2,0,L|415:174,1,35,0|0,1:0|2:0,0:0:0:0:
271,120,12231,2,0,P|294:189|423:166,1,210,8|0,1:0|0:0,0:0:0:0:
134,257,12945,6,0,P|174:253|250:252,1,83.9999974365235,4|2,0:1|0:2,0:0:0:0:
15,293,13302,2,0,P|8:252|28:196,1,83.9999974365235,8|2,1:0|0:2,0:0:0:0:
110,369,13659,1,0,1:0:0:0:
240,230,13838,1,2,0:2:0:0:
240,230,13927,1,2,0:2:0:0:
240,230,14016,1,8,1:0:0:0:
288,328,14195,1,2,0:2:0:0:
136,230,14374,6,0,P|142:188|144:134,1,83.9999974365235,0|2,1:0|0:2,0:0:0:0:
25,43,14731,2,0,P|29:100|38:145,1,83.9999974365235,8|2,1:0|0:2,0:0:0:0:
227,66,15088,1,0,1:0:0:0:
133,13,15266,1,2,0:2:0:0:
133,13,15356,1,2,0:2:0:0:
133,13,15445,1,8,1:0:0:0:
163,169,15624,1,2,0:2:0:0:
343,61,15802,6,0,B|300:51|300:51|236:63,1,83.9999974365235,0|2,1:0|0:2,0:0:0:0:
339,164,16159,2,0,P|389:158|434:154,1,83.9999974365235,8|2,1:0|0:2,0:0:0:0:
498,151,16427,1,2,2:0:0:0:
498,151,16516,1,2,1:2:0:0:
362,298,16695,2,0,L|298:289,1,41.9999987182618,0|0,0:0|0:0,0:0:0:0:
245,278,16874,1,8,1:0:0:0:
473,263,17052,1,8,3:0:0:0:
473,263,17141,1,0,0:0:0:0:
473,263,17231,5,0,1:0:0:0:
291,376,17409,1,0,1:0:0:0:
350,188,17588,1,8,1:0:0:0:
384,316,17766,1,0,0:0:0:0:
123,214,17945,2,0,P|178:207|218:219,1,83.9999974365235,0|0,1:0|2:2,0:0:0:0:
264,260,18213,1,8,2:2:0:0:
264,260,18302,1,8,1:0:0:0:
158,366,18481,1,0,0:0:0:0:
105,136,18659,6,0,P|95:217|80:303,1,167.999994873047,4|0,1:3|0:0,0:0:0:0:
23,80,19195,2,0,P|70:43|153:46,1,125.999996154785,4|0,1:3|2:0,0:0:0:0:
194,86,19552,1,8,2:0:0:0:
7,48,19731,1,8,2:0:0:0:
55,318,20088,6,0,L|69:211,1,83.9999974365235,4|4,1:3|1:3,0:0:0:0:
79,136,20445,1,2,0:3:0:0:
255,280,20624,2,0,P|195:304|118:262,1,125.999996154785,4|0,1:3|2:0,0:0:0:0:
96,221,20981,1,8,2:2:0:0:
300,129,21159,1,8,2:0:0:0:
277,258,21338,1,8,2:0:0:0:
190,179,21516,6,0,L|197:87,1,70,4|0,1:1|0:0,0:0:0:0:
241,38,21874,1,8,0:1:0:0:
386,98,22052,2,0,P|333:103|302:115,1,70,4|0,1:2|0:0,0:0:0:0:
423,173,22409,1,8,0:1:0:0:
365,309,22588,2,0,L|369:231,1,70,4|8,1:1|0:1,0:0:0:0:
459,304,22945,5,4,1:2:0:0:
374,339,23124,1,2,2:0:0:0:
283,330,23302,1,0,2:0:0:0:
198,364,23481,1,2,2:0:0:0:
138,295,23659,1,4,2:3:0:0:
296,301,23838,1,2,0:1:0:0:
296,301,23927,1,2,0:1:0:0:
296,301,24016,1,8,0:1:0:0:
211,335,24195,1,2,0:1:0:0:
387,310,24374,5,4,0:1:0:0:
80,122,25624,1,4,0:3:0:0:
111,258,25981,5,4,0:3:0:0:
383,249,27231,5,4,0:3:0:0:
208,161,28481,1,4,0:3:0:0:
347,147,28838,5,4,0:3:0:0:
107,371,30088,5,4,0:3:0:0:
30,69,31338,1,4,0:3:0:0:
168,88,31695,5,4,0:3:0:0:
260,333,32409,2,0,L|309:320,2,35,0|4|4,0:0|0:3|0:3,0:0:0:0:
281,242,32766,1,0,0:0:0:0:
375,351,32945,6,0,P|374:294|375:218,1,105,4|0,0:3|0:0,0:0:0:0:
477,197,33302,2,0,P|477:253|472:288,1,70,12|4,0:0|0:3,0:0:0:0:
305,146,33659,2,0,P|365:152|428:145,1,105,4|0,0:3|0:0,0:0:0:0:
443,123,34016,1,8,0:0:0:0:
370,43,34195,6,0,P|321:22|250:41,1,105,4|0,0:3|0:0,0:0:0:0:
175,124,34552,1,8,0:0:0:0:
175,124,34909,1,8,0:0:0:0:
175,124,35266,1,8,0:0:0:0:
22,164,35445,1,12,0:0:0:0:
132,270,35624,1,0,3:0:0:0:
22,164,35802,6,0,P|27:211|31:273,1,83.9999974365235,4|2,1:0|0:2,0:0:0:0:
3,319,36070,1,2,0:2:0:0:
3,319,36159,2,0,P|45:303|114:307,1,83.9999974365235,8|2,0:1|0:0,0:0:0:0:
220,257,36516,2,0,P|204:306|218:362,1,83.9999974365235,0|10,0:0|0:0,0:0:0:0:
275,373,36784,1,2,0:2:0:0:
275,373,36874,2,0,P|317:357|378:358,1,83.9999974365235,8|2,0:1|0:0,0:0:0:0:
507,347,37231,6,0,P|466:328|433:280,1,83.9999974365235,0|2,0:2|0:2,0:0:0:0:
439,222,37499,1,2,0:2:0:0:
439,222,37588,2,0,L|449:117,1,83.9999974365235,8|2,0:1|0:0,0:0:0:0:
311,99,37945,2,0,P|316:142|320:191,1,83.9999974365235,0|8,0:0|0:0,0:0:0:0:
288,252,38213,1,2,0:2:0:0:
288,252,38302,2,0,P|245:259|178:221,1,83.9999974365235,8|2,0:1|0:0,0:0:0:0:
4,173,38659,6,0,P|56:174|114:169,1,83.9999974365235,0|0,0:0|0:0,0:0:0:0:
181,264,39016,2,0,P|139:267|99:278,1,83.9999974365235,8|2,0:1|0:0,0:0:0:0:
152,22,39374,2,0,P|165:64|158:116,1,83.9999974365235,2|8,0:2|0:3,0:0:0:0:
119,165,39641,1,2,0:2:0:0:
119,165,39731,1,8,2:1:0:0:
15,79,39909,1,2,0:3:0:0:
188,117,40088,6,0,L|277:110,1,83.9999974365235,2|2,0:2|2:0,0:0:0:0:
332,65,40356,1,2,2:0:0:0:
332,65,40445,2,0,P|385:66|442:59,1,83.9999974365235,8|2,0:1|0:0,0:0:0:0:
440,253,40802,2,0,P|432:209|451:162,1,83.9999974365235,2|8,0:2|0:0,0:0:0:0:
502,124,41070,1,2,0:2:0:0:
502,124,41159,1,8,2:1:0:0:
345,173,41338,1,2,2:0:0:0:
345,173,41427,1,2,2:0:0:0:
345,173,41516,5,2,0:2:0:0:
291,258,41695,1,2,0:0:0:0:
359,332,41874,1,8,0:1:0:0:
237,180,42052,1,2,2:0:0:0:
183,265,42231,1,0,0:0:0:0:
251,339,42409,1,2,2:0:0:0:
90,299,42588,2,0,P|95:258|95:204,1,83.9999974365235,8|2,0:1|2:0,0:0:0:0:
61,147,42856,1,0,0:0:0:0:
61,147,42945,5,0,0:0:0:0:
136,71,43124,2,0,B|218:37|212:115|308:71,1,167.999994873047,2|2,0:0|0:0,0:0:0:0:
367,46,43570,1,0,0:0:0:0:
367,46,43659,2,0,P|425:40|473:66,1,83.9999974365235,0|2,0:0|0:0,0:0:0:0:
493,109,43927,1,2,0:0:0:0:
493,109,44016,1,8,1:0:0:0:
437,209,44195,1,2,0:0:0:0:
259,281,44374,6,0,P|315:270|372:286,1,83.9999974365235,4|2,0:3|0:2,0:0:0:0:
420,336,44731,1,4,1:1:0:0:
125,155,45088,2,0,L|129:257,1,83.9999974365235,4|2,0:3|0:2,0:0:0:0:
132,339,45445,1,12,0:2:0:0:
116,22,45802,5,4,0:3:0:0:
157,170,45981,2,0,P|216:191|258:180,1,83.9999974365235,0|2,0:3|0:2,0:0:0:0:
29,103,46338,2,0,P|44:147|23:223,1,125.999996154785,8|0,0:2|0:0,0:0:0:0:
54,291,46695,1,8,0:0:0:0:
235,188,46874,2,0,P|275:173|324:173,1,84,8|0,0:2|2:0,0:0:0:0:
421,264,47231,6,0,P|340:260|259:263,1,125.999996154785,4|0,1:0|0:0,0:0:0:0:
245,269,47588,2,0,P|254:320|254:364,1,83.9999974365235,8|0,2:2|2:2,0:0:0:0:
249,93,47945,1,0,0:0:0:0:
205,184,48124,1,0,0:0:0:0:
175,31,48302,1,8,2:2:0:0:
417,120,48481,6,0,P|364:81|264:123,1,167.999994873047,2|2,0:0|0:2,0:0:0:0:
344,205,48927,1,0,0:0:0:0:
344,205,49016,2,0,P|386:201|448:199,1,83.9999974365235,8|2,0:2|0:0,0:0:0:0:
241,358,49374,1,2,0:2:0:0:
266,188,49552,1,8,0:2:0:0:
449,314,49731,2,0,P|405:297|346:298,1,83.9999974365235,0|2,0:0|0:0,0:0:0:0:
93,263,50088,6,0,P|156:256|252:248,1,125.999996154785,4|0,3:3|0:0,0:0:0:0:
279,296,50445,2,0,P|323:293|366:261,1,83.9999974365235,8|0,2:2|2:2,0:0:0:0:
168,171,50802,1,0,0:0:0:0:
135,351,50981,1,0,0:0:0:0:
239,282,51159,1,8,2:2:0:0:
58,180,51338,6,0,P|18:215|38:328,1,167.999994873047,2|0,0:0|0:0,0:0:0:0:
192,353,51784,1,0,0:0:0:0:
192,353,51874,2,0,P|136:360|97:364,1,83.9999974365235,10|0,0:2|0:2,0:0:0:0:
266,188,52231,1,0,0:2:0:0:
279,296,52409,1,8,0:2:0:0:
168,171,52588,2,0,P|166:130|195:82,1,83.9999974365235,8|0,2:0|2:0,0:0:0:0:
341,14,52945,6,0,L|343:151,1,125.999996154785,4|0,0:1|2:0,0:0:0:0:
266,188,53302,2,0,L|276:287,1,83.9999974365235,8|0,2:0|0:0,0:0:0:0:
149,238,53659,1,0,0:0:0:0:
266,188,53838,1,0,0:0:0:0:
74,117,54016,1,8,2:0:0:0:
74,117,54195,6,0,B|81:165|81:165|62:233|62:233|72:284,1,167.999994873047,0|0,0:0|0:0,0:0:0:0:
28,360,54641,1,0,0:0:0:0:
28,360,54731,2,0,P|69:369|123:355,1,83.9999974365235,8|0,2:0|0:0,0:0:0:0:
179,288,55088,2,0,P|226:270|324:279,1,151.200003691406,8|0,2:0|0:0,0:0:0:0:
405,320,55445,2,0,B|441:336|470:377|470:377|435:308|457:238,1,181.650004434815,8|0,2:0|0:0,0:0:0:0:
493,186,55802,5,12,2:0:0:0:
354,53,55981,1,0,2:0:0:0:
354,53,56070,1,0,2:0:0:0:
354,53,56159,1,8,2:0:0:0:
258,142,56338,1,0,2:0:0:0:
258,142,56427,1,0,2:0:0:0:
258,142,56516,2,0,L|349:137,1,60.5500014782715,8|0,2:0|0:0,0:0:0:0:
250,235,56695,2,0,L|262:298,1,60.5500014782715,0|0,2:0|2:0,0:0:0:0:
159,175,56874,2,0,L|162:112,1,60.5500014782715,8|0,2:0|0:0,0:0:0:0:
92,269,57052,1,0,0:0:0:0:
92,269,57141,1,0,0:0:0:0:
92,269,57231,6,0,B|162:238|225:279|225:279|295:323|369:273,1,280,4|2,3:1|0:1,0:0:0:0:
381,235,58213,1,2,0:1:0:0:
381,235,58302,1,10,0:1:0:0:
442,315,58481,1,2,0:1:0:0:
292,212,58659,6,0,P|289:155|313:89,1,100.800002460938,12|2,3:1|0:3,0:0:0:0:
416,68,59016,2,0,P|431:116|433:197,1,100.800002460938,8|2,3:2|0:3,0:0:0:0:
357,280,59374,1,8,3:3:0:0:
167,126,59552,1,0,0:0:0:0:
167,126,59641,1,8,0:3:0:0:
167,126,59731,2,0,P|219:125|299:119,1,100.800002460938,8|2,3:2|0:3,0:0:0:0:
26,209,60088,6,0,P|80:210|163:214,1,100.800002460938,2|2,3:2|0:3,0:0:0:0:
204,370,60445,2,0,P|190:323|216:238,1,100.800002460938,8|0,3:2|0:0,0:0:0:0:
266,220,60713,1,0,2:0:0:0:
332,273,60802,2,0,P|338:322|324:370,1,100.800002460938,8|0,3:3|0:0,0:0:0:0:
266,220,61159,2,0,L|265:102,1,100.800002460938,8|2,3:2|0:3,0:0:0:0:
499,111,61516,6,0,P|430:70|345:118,1,151.200003691406,2|8,3:3|0:3,0:0:0:0:
399,226,61874,2,0,L|505:220,1,100.800002460938,8|2,3:2|0:3,0:0:0:0:
327,172,62231,1,0,3:0:0:0:
383,333,62409,1,2,0:3:0:0:
366,90,62588,1,8,3:2:0:0:
234,292,62766,1,8,0:3:0:0:
100,86,62945,5,2,3:2:0:0:
246,47,63124,1,2,0:3:0:0:
327,172,63302,1,8,3:2:0:0:
234,292,63481,1,2,0:3:0:0:
91,237,63659,1,2,3:2:0:0:
207,169,63838,1,8,1:3:0:0:
207,169,63927,1,8,1:3:0:0:
207,169,64016,2,0,L|272:169,1,50.4000012304688,8|0,1:2|0:0,0:0:0:0:
399,182,64195,2,0,L|321:193,1,50.4000012304688,8|0,1:2|0:0,0:0:0:0:
398,285,64374,6,0,P|452:288|545:290,1,100.800002460938,4|2,3:3|0:3,0:0:0:0:
291,330,64731,2,0,P|241:336|190:342,1,100.800002460938,8|2,3:2|0:3,0:0:0:0:
111,278,65088,1,8,3:3:0:0:
374,375,65266,1,0,0:0:0:0:
374,375,65356,1,8,0:3:0:0:
374,375,65445,6,0,P|385:316|355:256,1,100.800002460938,8|2,3:2|0:3,0:0:0:0:
189,214,65802,2,0,P|237:246|314:243,1,100.800002460938,2|2,3:2|0:3,0:0:0:0:
456,181,66159,2,0,L|346:172,1,100.800002460938,8|0,3:2|0:0,0:0:0:0:
269,161,66427,1,0,2:0:0:0:
298,80,66516,2,0,P|328:42|418:26,1,100.800002460938,8|0,3:3|0:0,0:0:0:0:
269,161,66874,2,0,P|214:177|162:166,1,100.800002460938,8|2,3:2|0:3,0:0:0:0:
9,78,67231,6,0,P|96:83|184:82,1,151.200003691406,2|8,3:3|0:3,0:0:0:0:
199,159,67588,2,0,P|205:210|178:262,1,100.800002460938,8|2,3:2|0:3,0:0:0:0:
29,312,67945,1,0,3:0:0:0:
105,194,68124,1,2,0:3:0:0:
284,151,68302,1,8,3:2:0:0:
362,268,68481,1,8,0:3:0:0:
185,253,68659,5,2,3:2:0:0:
315,331,68838,1,2,0:3:0:0:
429,231,69016,1,8,3:2:0:0:
370,92,69195,1,2,0:0:0:0:
219,105,69374,1,0,3:0:0:0:
378,235,69552,1,2,2:1:0:0:
378,235,69641,1,2,2:1:0:0:
378,235,69731,2,0,L|443:229,1,50.4000012304688,8|0,3:2|0:0,0:0:0:0:
315,331,69909,2,0,L|252:329,1,50.4000012304688,2|0,3:1|0:0,0:0:0:0:
85,348,70088,6,0,P|145:369|214:342,1,100.800002460938,12|2,3:1|0:3,0:0:0:0:
107,179,70445,2,0,P|58:220|47:293,1,100.800002460938,8|2,3:2|0:3,0:0:0:0:
229,256,70802,2,0,L|238:129,1,100.800002460938,8|2,3:3|0:0,0:0:0:0:
233,77,71070,1,8,0:3:0:0:
233,77,71159,1,8,3:2:0:0:
157,158,71338,1,2,0:3:0:0:
229,256,71516,5,2,3:2:0:0:
344,218,71695,1,2,0:3:0:0:
344,97,71874,1,8,3:2:0:0:
157,158,72052,1,0,0:0:0:0:
157,158,72141,1,0,0:0:0:0:
157,158,72231,2,0,P|110:155|52:105,1,100.800002460938,2|0,3:2|0:0,0:0:0:0:
214,47,72588,2,0,P|264:51|305:80,1,100.800002460938,8|2,3:2|0:0,0:0:0:0:
363,245,72945,6,0,P|356:178|448:117,1,151.200003691406,8|2,3:3|0:0,0:0:0:0:
499,227,73302,2,0,B|496:277|496:277|460:329,1,100.800002460938,8|2,3:2|0:3,0:0:0:0:
256,192,73659,1,0,3:0:0:0:
410,121,73838,1,2,0:3:0:0:
330,346,74016,1,8,3:2:0:0:
256,192,74195,1,2,0:3:0:0:
59,336,74374,5,8,3:3:0:0:
134,103,74552,1,2,0:3:0:0:
210,336,74731,1,8,3:2:0:0:
12,192,74909,1,2,0:3:0:0:
256,192,75088,1,2,3:2:0:0:
160,265,75266,1,2,2:3:0:0:
160,265,75356,1,10,2:3:0:0:
160,265,75445,2,0,P|135:269|105:260,1,50.4000012304688,8|0,3:2|0:0,0:0:0:0:
252,235,75624,2,0,P|284:233|319:248,1,50.4000012304688,8|2,2:3|0:2,0:0:0:0:
422,355,75802,6,0,P|389:306|431:197,1,151.200003691406,12|2,3:1|0:2,0:0:0:0:
492,150,76159,2,0,L|502:204,2,50.4000012304688,8|0|0,3:2|0:0|0:0,0:0:0:0:
285,90,76516,1,2,3:3:0:0:
406,139,76695,1,0,0:0:0:0:
486,35,76874,1,8,3:2:0:0:
285,90,77052,1,2,0:0:0:0:
347,292,77231,6,0,P|363:241|348:176,1,100.800002460938,4|0,3:2|0:0,0:0:0:0:
155,194,77588,2,0,P|149:244|165:292,1,100.800002460938,8|0,3:2|0:0,0:0:0:0:
234,119,77945,1,2,3:2:0:0:
205,98,78034,1,0,0:0:0:0:
172,87,78123,1,2,0:3:0:0:
137,88,78212,1,0,0:0:0:0:
104,101,78302,1,8,3:2:0:0:
278,40,78481,1,8,0:3:0:0:
66,29,78659,6,0,P|77:85|85:155,1,100.800002460938,4|2,0:1|0:0,0:0:0:0:
110,210,78927,1,2,0:0:0:0:
26,200,79016,2,0,P|11:268|38:331,1,100.800002460938,0|2,1:1|0:0,0:0:0:0:
76,360,79284,1,2,0:0:0:0:
131,293,79374,2,0,P|186:276|273:268,1,100.800002460938,4|2,0:2|0:0,0:0:0:0:
284,337,79641,1,2,0:0:0:0:
359,295,79731,2,0,L|364:227,1,50.4000012304688,0|0,1:0|0:0,0:0:0:0:
291,123,79909,2,0,L|303:200,1,50.4000012304688,2|2,0:0|0:0,0:0:0:0:
509,161,80088,5,4,1:2:0:0:
392,131,80266,1,0,1:0:0:0:
481,280,80445,1,0,1:0:0:0:
509,161,80624,1,0,1:0:0:0:
362,244,80802,1,0,1:0:0:0:
362,244,80891,1,2,0:1:0:0:
362,244,80981,1,2,0:1:0:0:
362,244,81070,1,2,0:1:0:0:
362,244,81159,1,2,0:1:0:0:
222,55,81338,1,2,0:1:0:0:
283,193,81516,6,0,B|302:148|289:106|289:106|272:125|249:133,1,125.999996154785,4|0,0:1|0:0,0:0:0:0:
193,168,81874,2,0,P|163:174|113:158,1,83.9999974365235,8|8,0:1|0:0,0:0:0:0:
21,29,82231,2,0,P|52:50|75:107,1,83.9999974365235,2|0,0:2|0:0,0:0:0:0:
4,234,82588,2,0,P|14:189|58:146,1,83.9999974365235,8|2,0:1|0:0,0:0:0:0:
43,310,82945,1,4,0:0:0:0:
32,341,83124,1,8,0:0:0:0:
128,292,83302,1,8,0:1:0:0:
127,258,83481,1,8,0:0:0:0:
195,344,83659,6,0,P|264:338|361:336,1,125.999996154785,0|0,0:0|0:0,0:0:0:0:
391,363,84016,1,8,0:1:0:0:
490,237,84195,1,8,0:0:0:0:
346,258,84374,2,0,B|363:271|385:279|385:279|371:237|384:195,1,125.999996154785,2|0,0:2|0:0,0:0:0:0:
436,63,84731,2,0,P|445:103|436:144,1,83.9999974365235,8|0,0:1|0:0,0:0:0:0:
276,110,85088,2,0,L|368:103,1,83.9999974365235,2|0,0:2|0:0,0:0:0:0:
205,55,85445,2,0,P|188:104|203:163,1,83.9999974365235,8|0,0:1|0:0,0:0:0:0:
302,179,85802,5,8,0:0:0:0:
295,147,85981,1,0,0:0:0:0:
208,244,86159,1,8,0:1:0:0:
217,211,86338,1,8,0:0:0:0:
122,195,86516,1,4,0:0:0:0:
86,285,86695,1,2,0:1:0:0:
86,285,86874,1,2,0:1:0:0:
86,285,87052,1,2,0:1:0:0:
14,122,87231,6,0,P|17:163|18:227,1,83.9999974365235,2|0,3:2|0:0,0:0:0:0:
18,205,87588,1,4,0:1:0:0:
122,195,87766,1,8,0:0:0:0:
222,108,87945,2,0,P|165:111|123:88,1,83.9999974365235,2|0,0:2|0:0,0:0:0:0:
3,43,88302,2,0,P|49:41|107:34,1,83.9999974365235,8|2,0:1|0:0,0:0:0:0:
216,7,88659,5,4,0:0:0:0:
189,28,88838,1,8,0:0:0:0:
222,108,89016,1,8,0:1:0:0:
255,104,89195,1,8,0:0:0:0:
186,187,89374,2,0,P|157:238|186:320,1,125.999996154785,0|0,0:0|0:0,0:0:0:0:
229,349,89731,1,8,0:1:0:0:
338,241,89909,1,8,0:0:0:0:
489,337,90088,6,0,B|453:332|425:301|425:301|398:338|361:337,1,125.999996154785,2|0,0:2|0:0,0:0:0:0:
310,345,90445,2,0,B|268:337|268:337|222:350,1,83.9999974365235,8|0,0:1|0:0,0:0:0:0:
89,350,90802,2,0,P|77:309|89:250,1,83.9999974365235,2|0,0:2|0:1,0:0:0:0:
136,214,91070,1,0,0:0:0:0:
136,214,91159,1,8,0:1:0:0:
267,289,91338,1,0,0:0:0:0:
324,100,91516,5,2,0:0:0:0:
165,137,91695,1,8,0:0:0:0:
315,201,91874,1,2,0:0:0:0:
231,61,92052,1,8,0:0:0:0:
217,224,92231,2,0,P|252:279|362:289,1,167.999994873047,4|0,0:0|0:0,0:0:0:0:
409,224,92945,5,4,2:1:0:0:
256,192,95266,6,0,L|307:200,2,41.9999987182618,2|2|8,0:1|0:1|0:1,0:0:0:0:
184,244,95624,1,2,0:1:0:0:
88,136,95802,6,0,P|94:182|100:248,1,83.9999974365235,4|0,0:1|3:0,0:0:0:0:
52,281,96070,1,0,0:0:0:0:
52,281,96159,2,0,L|65:369,1,83.9999974365235,2|0,0:2|2:0,0:0:0:0:
213,322,96516,2,0,P|260:315|320:313,1,83.9999974365235
355,264,96784,1,0,0:0:0:0:
355,264,96874,2,0,P|414:273|454:273,1,83.9999974365235,2|0,0:2|0:0,0:0:0:0:
504,137,97231,6,0,P|465:121|415:130,1,83.9999974365235
348,137,97499,1,0,0:0:0:0:
348,137,97588,2,0,L|360:29,1,83.9999974365235,2|0,0:2|2:0,0:0:0:0:
209,9,97945,2,0,L|215:118,1,83.9999974365235
218,168,98213,1,0,0:0:0:0:
218,168,98302,1,2,0:2:0:0:
102,126,98481,1,0,0:0:0:0:
102,126,98570,1,0,0:0:0:0:
102,126,98659,5,2,0:0:0:0:
7,196,98838,1,0,0:0:0:0:
20,313,99017,1,0,0:2:0:0:
129,271,99195,2,0,L|134:197,2,41.9999987182618,2|0|0,2:0|0:0|0:0,2:0:0:0:
175,378,99552,1,2,2:0:0:0:
288,347,99731,2,0,P|285:298|273:228,1,83.9999974365235,0|2,2:0|2:0,0:0:0:0:
255,191,99999,1,0,0:0:0:0:
255,191,100088,5,0,0:0:0:0:
457,204,100267,1,2,0:0:0:0:
381,265,100445,2,0,P|363:232|368:169,1,83.9999974365235,0|2,2:0|2:0,0:0:0:0:
419,135,100713,1,0,0:0:0:0:
419,135,100802,2,0,P|422:93|424:43,1,83.9999974365235,0|2,0:0|0:0,0:0:0:0:
347,6,101159,1,0,0:2:0:0:
507,140,101338,1,2,0:0:0:0:
246,175,101516,6,0,P|298:159|375:202,1,125.999996154785,4|0,0:3|2:0,0:0:0:0:
481,254,101874,2,0,L|479:158,1,83.9999974365235,12|4,1:0|0:3,0:0:0:0:
402,312,102231,2,0,P|343:354|272:317,1,125.999996154785,4|0,0:3|2:0,0:0:0:0:
241,287,102588,1,8,2:0:0:0:
55,328,102766,6,0,P|92:292|92:205,1,125.999996154785,4|0,2:3|0:0,0:0:0:0:
59,155,103124,1,8,2:0:0:0:
174,33,103481,1,8,2:0:0:0:
306,136,103837,1,8,2:0:0:0:
59,155,104016,1,12,2:0:0:0:
191,258,104195,1,0,3:0:0:0:
59,155,104373,6,0,P|64:202|68:264,1,83.9999974365235,4|2,1:2|0:2,0:0:0:0:
39,316,104641,1,2,0:2:0:0:
39,316,104731,2,0,L|128:327,1,83.9999974365235,8|2,0:2|0:0,0:0:0:0:
263,197,105088,2,0,L|252:284,1,83.9999974365235,0|10,0:0|0:0,0:0:0:0:
289,347,105356,1,2,0:2:0:0:
289,347,105445,2,0,P|332:346|397:327,1,83.9999974365235,8|2,0:2|0:0,0:0:0:0:
493,368,105802,6,0,P|487:319|484:272,1,83.9999974365235,0|2,0:2|0:2,0:0:0:0:
498,209,106070,1,2,0:2:0:0:
498,209,106159,2,0,P|495:158|489:113,1,83.9999974365235,8|2,0:2|0:0,0:0:0:0:
340,21,106516,2,0,P|330:65|338:115,1,83.9999974365235,0|8,0:0|0:0,0:0:0:0:
378,165,106784,1,2,0:2:0:0:
378,165,106874,2,0,P|375:228|373:274,1,83.9999974365235,8|2,0:2|0:0,0:0:0:0:
151,213,107231,6,0,P|189:201|252:210,1,83.9999974365235
81,271,107588,2,0,P|41:273|-8:252,1,83.9999974365235,10|0,0:2|2:0,0:0:0:0:
121,40,107945,2,0,P|116:87|113:130,1,83.9999974365235,2|2,0:2|2:2,0:0:0:0:
115,199,108213,1,2,0:2:0:0:
115,199,108302,1,8,2:2:0:0:
19,58,108480,1,2,2:0:0:0:
192,142,108659,6,0,P|237:142|281:135,1,83.9999974365235,2|2,0:2|2:0,0:0:0:0:
351,102,108927,1,2,2:0:0:0:
351,102,109016,2,0,P|353:143|348:197,1,83.9999974365235,10|0,0:2|2:0,0:0:0:0:
265,373,109374,2,0,L|258:273,1,83.9999974365235,2|2,0:2|2:2,0:0:0:0:
255,213,109641,1,2,0:2:0:0:
255,213,109731,1,8,2:2:0:0:
235,59,109909,1,2,2:0:0:0:
235,59,109999,1,2,2:0:0:0:
235,59,110088,5,2,0:2:0:0:
180,143,110266,1,2,0:0:0:0:
91,93,110445,1,8,0:2:0:0:
379,93,110624,1,2,2:0:0:0:
290,143,110802,1,0,0:0:0:0:
235,59,110981,1,2,2:0:0:0:
367,237,111159,2,0,L|471:232,1,83.9999974365235,8|2,2:0|2:0,0:0:0:0:
512,187,111427,1,0,0:0:0:0:
512,187,111516,5,0,0:0:0:0:
315,171,111695,2,0,P|339:255|266:337,1,167.999994873047,2|2,0:0|0:0,2:0:0:0:
175,357,112141,1,0,2:0:0:0:
175,357,112231,2,0,P|167:307|181:253,1,83.9999974365235,0|2,0:0|0:0,0:0:0:0:
240,238,112499,1,2,0:0:0:0:
240,238,112588,1,8,1:2:0:0:
65,308,112766,1,2,0:0:0:0:
23,198,112945,6,0,P|63:189|104:196,1,83.9999974365235,4|2,0:3|0:2,0:0:0:0:
172,274,113302,1,4,1:1:0:0:
369,175,113659,2,0,P|292:178|257:157,1,83.9999974365235,4|2,0:3|0:2,0:0:0:0:
220,100,114016,1,12,0:2:0:0:
477,33,114374,5,4,0:3:0:0:
425,130,114552,2,0,L|433:231,1,83.9999974365235,0|2,0:3|0:2,0:0:0:0:
510,348,114909,2,0,B|482:340|482:340|415:363|415:363|362:351,1,125.999996154785,12|0,0:2|0:0,0:0:0:0:
317,334,115266,1,8,0:0:0:0:
155,333,115445,2,0,P|196:328|260:324,1,84,8|0,0:2|2:0,0:0:0:0:
79,359,115802,6,0,P|113:322|106:232,1,125.999996154785,4|0,1:0|0:0,0:0:0:0:
57,199,116159,2,0,P|61:148|69:103,1,83.9999974365235,8|0,2:2|2:2,0:0:0:0:
196,63,116516,1,0,0:0:0:0:
96,129,116695,1,0,0:0:0:0:
19,40,116873,1,8,2:2:0:0:
182,91,117052,6,0,P|255:93|371:86,1,167.999994873047,2|2,0:0|0:2,0:0:0:0:
428,52,117498,1,0,0:0:0:0:
428,52,117588,2,0,L|420:140,1,83.9999974365235,8|2,0:2|0:0,0:0:0:0:
269,288,117945,1,2,0:2:0:0:
288,134,118123,1,8,0:2:0:0:
477,248,118302,2,0,P|434:233|374:232,1,83.9999974365235,0|2,0:0|0:0,0:0:0:0:
234,366,118659,6,0,P|297:368|354:294,1,125.999996154785,4|0,1:3|0:0,0:0:0:0:
363,255,119016,2,0,P|356:209|354:148,1,83.9999974365235,8|0,2:2|2:2,0:0:0:0:
115,239,119374,1,0,0:0:0:0:
264,220,119552,1,0,0:0:0:0:
140,337,119731,1,8,2:2:0:0:
74,131,119909,6,0,P|72:207|65:310,1,167.999994873047,2|0,0:0|0:0,0:0:0:0:
140,337,120356,1,0,0:0:0:0:
140,337,120445,2,0,P|182:336|229:302,1,83.9999974365235,10|0,0:2|0:2,0:0:0:0:
228,129,120802,1,0,0:2:0:0:
249,241,120980,1,8,0:2:0:0:
146,143,121159,2,0,P|153:95|187:54,1,83.9999974365235,8|0,2:0|0:0,0:0:0:0:
377,45,121516,6,0,P|315:58|236:52,1,125.999996154785,4|0,0:2|2:0,0:0:0:0:
228,129,121874,2,0,P|243:171|246:220,1,83.9999974365235,8|0,2:0|0:0,0:0:0:0:
81,67,122231,1,0,0:0:0:0:
103,216,122409,1,0,0:0:0:0:
228,129,122588,1,8,2:0:0:0:
21,170,122766,6,0,P|23:263|105:311,1,167.999994873047,0|0,0:0|0:0,0:0:0:0:
154,283,123212,1,0,0:0:0:0:
154,283,123302,2,0,P|212:279|249:278,1,83.9999974365235,8|0,2:0|0:0,0:0:0:0:
334,371,123659,2,0,B|322:264|322:264|342:296|386:301,1,151.200003691406,8|0,2:0|0:0,0:0:0:0:
442,314,124016,2,0,P|496:273|462:152,1,181.650004434815,8|0,2:0|0:0,0:0:0:0:
379,65,124373,5,8,2:0:0:0:
414,227,124552,1,0,2:0:0:0:
414,227,124641,1,0,2:0:0:0:
414,227,124730,1,8,2:0:0:0:
269,151,124909,1,0,2:0:0:0:
269,151,124998,1,0,2:0:0:0:
269,151,125087,2,0,P|305:148|359:165,1,60.5500014782715,8|0,2:0|0:0,0:0:0:0:
193,223,125266,2,0,P|152:222|120:204,1,60.5500014782715,0|0,2:0|2:0,0:0:0:0:
183,59,125445,2,0,P|185:91|176:122,1,60.5500014782715,8|0,2:0|0:0,0:0:0:0:
48,79,125624,1,0,0:0:0:0:
48,79,125713,1,0,0:0:0:0:
48,79,125802,6,0,B|65:201|65:201|55:240|55:240|74:364,1,280,4|2,1:1|0:1,0:0:0:0:
182,375,126874,1,2,0:1:0:0:
182,375,127052,1,2,0:1:0:0:
272,316,127231,6,0,L|355:312,1,70,4|0,0:1|0:0,0:0:0:0:
424,329,127588,2,0,L|507:325,1,70,2|0,0:0|0:0,0:0:0:0:
397,251,127945,1,2,0:0:0:0:
506,123,128302,6,0,P|476:119|418:130,1,70,2|0,0:0|0:0,0:0:0:0:
348,185,128659,2,0,L|355:98,1,70,2|0,0:0|0:0,0:0:0:0:
362,31,129016,1,2,0:0:0:0:
217,102,129374,2,0,P|147:106|82:96,1,105,2|0,0:0|0:0,0:0:0:0:
81,73,129731,2,0,L|0:73,1,70,0|0,0:0|0:0,0:0:0:0:
2,197,130088,6,0,P|63:173|103:189,1,105,2|0,0:0|0:0,0:0:0:0:
121,220,130445,2,0,P|121:254|98:291,1,70,0|0,0:0|0:0,0:0:0:0:
32,339,130802,1,2,0:0:0:0:
110,370,130981,1,0,0:0:0:0:
193,369,131159,1,0,0:0:0:0:
269,334,131338,1,2,0:0:0:0:
200,282,131516,5,2,0:0:0:0:
228,202,131695,1,0,0:0:0:0:
312,204,131874,1,2,0:0:0:0:
336,284,132052,1,0,0:0:0:0:
269,334,132231,1,2,0:0:0:0:
468,370,132945,6,0,P|460:319|459:278,1,70,2|0,0:0|0:0,0:0:0:0:
503,229,133302,2,0,P|508:194|508:142,1,70,2|0,0:0|0:0,0:0:0:0:
466,86,133659,1,2,0:0:0:0:
234,155,134016,6,0,L|304:146,1,70,2|0,0:0|0:0,0:0:0:0:
385,168,134374,2,0,P|389:217|377:253,1,70,2|0,0:0|0:0,0:0:0:0:
363,85,134731,1,2,0:0:0:0:
247,184,135088,2,0,P|186:201|136:176,1,105,2|0,0:0|0:0,0:0:0:0:
125,151,135445,2,0,P|137:104|141:78,1,70,0|0,0:0|0:0,0:0:0:0:
24,25,135802,6,0,L|35:147,1,105,2|0,0:0|0:0,0:0:0:0:
15,167,136159,2,0,L|19:240,1,70,0|0,0:0|0:0,0:0:0:0:
86,287,136516,1,2,0:0:0:0:
150,234,136695,1,0,0:0:0:0:
231,214,136874,1,0,0:0:0:0:
313,229,137052,1,2,0:0:0:0:
381,276,137231,5,2,0:0:0:0:
288,304,137409,1,0,0:0:0:0:
233,227,137588,1,0,0:0:0:0:
288,151,137766,1,2,0:0:0:0:
378,180,137945,1,2,0:0:0:0:
95,200,138659,5,2,0:0:0:0:
17,151,138838,1,0,0:0:0:0:
39,63,139016,1,2,0:0:0:0:
130,57,139195,1,0,0:0:0:0:
164,141,139374,1,2,0:0:0:0:
164,141,139731,5,2,0:0:0:0:
39,63,139909,1,0,0:0:0:0:
95,200,140088,1,2,0:0:0:0:
130,57,140266,1,0,0:0:0:0:
17,151,140445,1,2,0:0:0:0:
58,298,140802,6,0,P|109:303|162:274,1,105,2|0,0:0|0:0,0:0:0:0:
179,244,141159,2,0,P|211:236|269:235,1,70,0|0,0:0|0:0,0:0:0:0:
333,350,141516,2,0,B|323:299|323:299|337:226,1,105,2|0,0:0|0:0,0:0:0:0:
366,219,141874,2,0,L|354:125,1,70,2|0,0:0|0:0,0:0:0:0:
425,274,142231,1,2,0:0:0:0:
488,226,142409,1,0,0:0:0:0:
508,150,142588,1,2,0:0:0:0:
476,78,142766,1,0,0:0:0:0:
476,78,142856,1,0,0:0:0:0:
476,78,142945,5,2,0:0:0:0:
357,149,143124,1,0,0:0:0:0:
238,79,143302,1,0,0:0:0:0:
357,8,143481,1,2,0:0:0:0:
357,149,143659,1,2,0:0:0:0:
196,159,144374,6,0,L|131:155,7,41.9999987182618
85,127,145088,2,0,L|20:131,7,41.9999987182618,0|0|0|0|0|0|0|0,0:0|0:0|0:0|0:0|0:0|0:0|0:0|0:0,0:0:0:0:
8,196,145802,6,0,P|5:221|13:257,3,41.9999987182618,0|0|0|0,0:0|0:0|0:0|0:0,0:0:0:0:
45,303,146159,2,0,L|113:286,3,41.9999987182618,0|0|0|0,0:0|0:0|0:0|0:0,0:0:0:0:
157,266,146516,2,0,P|190:269|232:283,3,41.9999987182618,0|0|0|0,0:0|0:0|0:0|0:0,0:0:0:0:
263,312,146874,2,0,P|289:313|319:308,3,41.9999987182618,0|0|0|0,0:0|0:0|0:0|0:0,0:0:0:0:
395,309,147231,5,0,0:0:0:0:
375,282,147320,1,0,0:0:0:0:
366,249,147409,1,0,0:0:0:0:
369,216,147498,1,0,0:0:0:0:
384,186,147588,1,0,0:0:0:0:
408,163,147677,1,0,0:0:0:0:
439,151,147766,1,0,0:0:0:0:
473,150,147855,1,0,0:0:0:0:
493,76,147945,2,0,P|496:46|492:23,3,41.9999987182618,0|0|0|0,0:0|0:0|0:0|0:0,0:0:0:0:
416,52,148302,2,0,P|392:55|347:43,3,41.9999987182618,0|0|0|0,0:0|0:0|0:0|0:0,0:0:0:0:
307,17,148659,5,2,0:1:0:0:
307,17,148838,1,8,0:1:0:0:
229,80,149195,1,8,0:1:0:0:
138,35,149552,1,2,0:3:0:0:
229,80,149731,1,2,0:0:0:0:
82,119,150088,6,0,B|76:158|101:190|101:190|92:224|45:236,1,125.999996154785,4|8,0:1|0:0,0:0:0:0:
8,271,150445,2,0,B|5:292|5:313|5:313|10:337|20:361,1,83.9999974365235,8|0,0:1|0:0,0:0:0:0:
111,375,150802,1,0,0:0:0:0:
111,375,150981,1,8,0:0:0:0:
163,299,151159,1,8,0:1:0:0:
163,299,151338,1,8,0:0:0:0:
254,303,151516,5,0,0:0:0:0:
253,336,151695,1,8,0:0:0:0:
339,277,151874,1,8,0:1:0:0:
332,244,152052,1,2,0:0:0:0:
399,342,152231,2,0,B|446:351|483:335|483:335|464:322|442:274,1,125.999996154785,0|0,0:0|3:1,0:0:0:0:
492,236,152588,1,8,0:1:0:0:
384,167,152766,1,0,0:0:0:0:
384,167,152945,6,0,P|437:157|460:80,1,125.999996154785,2|8,0:0|0:0,0:0:0:0:
418,34,153302,2,0,P|379:34|325:32,1,83.9999974365235,8|8,0:1|0:0,0:0:0:0:
217,89,153659,1,8,0:1:0:0:
217,89,153838,1,8,0:0:0:0:
304,120,154016,1,0,0:0:0:0:
304,120,154195,1,2,0:0:0:0:
148,150,154373,5,0,0:0:0:0:
155,182,154552,1,8,0:0:0:0:
70,107,154730,1,8,0:1:0:0:
79,74,154909,1,8,0:0:0:0:
45,192,155087,1,4,0:0:0:0:
86,285,155266,1,2,0:1:0:0:
86,285,155445,1,2,0:1:0:0:
86,285,155623,1,10,0:1:0:0:
188,357,155802,6,0,P|183:303|189:231,1,125.999996154785,4|8,0:1|0:0,0:0:0:0:
226,203,156159,2,0,L|222:114,1,83.9999974365235,8|0,0:1|0:0,0:0:0:0:
299,68,156516,1,0,0:0:0:0:
299,68,156695,1,8,0:0:0:0:
382,108,156874,1,8,0:1:0:0:
382,108,157052,1,8,0:0:0:0:
361,198,157231,5,0,0:0:0:0:
328,192,157409,1,8,0:0:0:0:
270,288,157588,1,8,0:1:0:0:
303,283,157766,1,2,0:0:0:0:
382,376,157945,2,0,P|379:334|431:259,1,125.999996154785,0|0,0:0|0:0,0:0:0:0:
496,252,158302,1,8,0:1:0:0:
481,351,158480,1,0,0:0:0:0:
392,281,158659,6,0,B|356:276|326:245|326:245|303:281|264:281,1,125.999996154785,2|8,0:3|0:0,0:0:0:0:
211,292,159016,2,0,L|224:377,1,83.9999974365235,8|8,0:1|0:0,0:0:0:0:
160,229,159374,2,0,L|171:143,1,83.9999974365235,0|0,0:0|0:0,0:0:0:0:
184,71,159641,1,0,0:0:0:0:
184,71,159731,1,8,0:1:0:0:
49,162,159909,1,0,0:0:0:0:
160,229,160088,5,2,0:0:0:0:
256,160,160266,1,8,0:0:0:0:
350,229,160445,1,2,0:0:0:0:
314,341,160624,1,8,0:0:0:0:
197,341,160802,1,6,0:0:0:0:
197,341,161516,5,8,3:1:0:0:
350,229,161695,1,8,3:1:0:0:
160,229,161874,1,8,3:1:0:0:
314,341,162052,1,8,3:1:0:0:
256,160,162231,1,8,3:1:0:0:
256,160,162945,5,0,0:0:0:0:
334,287,163124,1,0,0:0:0:0:
480,250,163302,1,0,0:0:0:0:
492,100,163481,1,0,0:0:0:0:
352,43,163659,1,8,0:2:0:0:
256,160,164374,5,4,2:3:0:0:
256,160,175802,6,0,L|256:192,2,20.9999993591309,4|2|2,2:3|2:0|2:0,0:0:0:0:
256,160,190088,5,0,0:3:0:0:
256,160,190266,1,0,0:3:0:0:
256,260,190624,1,4,2:3:0:0:
352,292,190802,1,4,0:3:0:0:
411,210,190981,1,4,0:0:0:0:
411,210,191070,1,0,0:0:0:0:
411,210,191159,1,0,0:0:0:0:
352,128,191338,1,4,2:3:0:0:
256,260,191516,5,4,0:0:0:0:
256,260,191695,1,4,0:0:0:0:
256,160,192052,1,4,0:0:0:0:
160,128,192231,1,4,0:0:0:0:
101,210,192409,1,0,0:0:0:0:
101,210,192499,1,4,2:3:0:0:
101,210,192588,1,4,0:0:0:0:
160,292,192766,1,0,0:0:0:0:
256,160,192945,5,4,0:0:0:0:
256,260,193302,1,4,0:0:0:0:
101,210,193659,1,4,0:0:0:0:
160,128,193838,2,0,L|146:33,1,83.9999974365235,0|0,3:0|0:0,0:0:0:0:
256,160,194195,1,0,0:0:0:0:
101,210,194374,5,4,0:0:0:0:
160,292,194552,1,4,0:0:0:0:
337,269,194731,2,0,P|295:272|256:260,1,83.9999974365235
256,160,195088,1,4,0:0:0:0:
411,210,195266,2,0,L|407:180,2,20.9999993591309
473,148,195445,2,0,L|480:32,1,83.9999974365235,4|0,0:0|0:0,0:0:0:0:
319,12,195802,6,0,P|315:59|342:117,1,83.9999974365235,4|4,0:0|0:0,0:0:0:0:
231,238,196159,2,0,P|251:199|253:143,1,83.9999974365235,0|4,0:0|0:0,0:0:0:0:
0,181,196516,2,0,B|113:175,1,83.9999974365235,4|4,0:0|0:0,0:0:0:0:
160,174,196784,1,0,0:0:0:0:
160,174,196874,1,0,0:0:0:0:
81,77,197052,1,4,0:0:0:0:
7,299,197231,5,4,0:0:0:0:
108,272,197409,2,0,L|203:267,1,83.9999974365235,4|0,0:0|0:0,0:0:0:0:
108,272,197766,1,4,0:0:0:0:
292,240,197945,1,4,0:0:0:0:
324,354,198124,1,0,0:0:0:0:
324,354,198213,1,4,2:3:0:0:
324,354,198302,2,0,L|215:351,1,83.9999974365235,4|0,0:0|0:0,0:0:0:0:
466,182,198659,6,0,P|478:219|457:298,1,83.9999974365235,4|0,0:3|2:0,0:0:0:0:
292,240,199016,2,0,B|327:246|327:246|397:234,1,83.9999974365235,4|0,0:0|2:0,0:0:0:0:
336,112,199374,1,4,0:3:0:0:
191,267,199552,2,0,B|201:222|201:222|172:186|184:160,1,83.9999974365235,4|0,0:3|2:0,0:0:0:0:
201,107,199909,1,4,0:0:0:0:
264,165,200088,5,0,3:0:0:0:
356,185,204374,6,0,P|353:128|377:62,1,100.800002460938,12|2,3:1|0:3,0:0:0:0:
452,221,204731,2,0,P|465:273|459:348,1,100.800002460938,8|2,3:2|0:3,0:0:0:0:
376,375,205089,1,8,3:3:0:0:
201,301,205267,1,0,0:0:0:0:
201,301,205356,1,8,0:3:0:0:
201,301,205446,2,0,L|332:299,1,100.800002460938,8|2,3:2|0:3,0:0:0:0:
109,351,205802,6,0,L|-4:348,1,100.800002460938,2|2,3:2|0:3,0:0:0:0:
178,201,206159,1,8,3:2:0:0:
44,261,206338,1,0,0:0:0:0:
8,194,206427,1,0,2:0:0:0:
18,119,206516,2,0,P|56:68|122:43,1,100.800002460938,8|0,3:3|0:0,0:0:0:0:
231,170,206874,2,0,P|175:177|108:169,1,100.800002460938,8|2,3:2|0:0,0:0:0:0:
328,100,207231,6,0,B|450:93|450:93|399:137,1,151.200003691406,8|8,3:3|0:3,0:0:0:0:
382,185,207588,2,0,P|377:216|409:313,1,100.800002460938,8|2,3:2|0:0,0:0:0:0:
499,225,207945,1,0,3:0:0:0:
255,217,208124,1,2,0:3:0:0:
499,225,208302,1,8,3:2:0:0:
294,357,208481,1,8,0:3:0:0:
131,132,208659,5,2,3:2:0:0:
394,218,208838,1,2,0:3:0:0:
131,304,209016,1,8,3:2:0:0:
294,79,209195,1,8,0:3:0:0:
294,357,209374,1,2,3:2:0:0:
255,217,209552,2,0,P|254:184|266:151,1,50.4000012304688,8|0,1:3|1:1,0:0:0:0:
174,187,209731,2,0,P|165:155|169:120,1,50.4000012304688,14|0,3:2|0:0,0:0:0:0:
89,179,209909,2,0,P|73:149|69:114,1,50.4000012304688,8|0,1:2|0:0,0:0:0:0:
35,326,210088,6,0,P|91:303|155:311,1,100.800002460938,12|2,3:1|0:3,0:0:0:0:
346,354,210445,2,0,P|283:355|224:311,1,100.800002460938,8|2,3:2|0:3,0:0:0:0:
255,217,210803,1,8,3:3:0:0:
453,202,210981,1,0,0:0:0:0:
453,202,211070,1,8,0:3:0:0:
453,202,211159,2,0,P|451:258|445:342,1,100.800002460938,8|2,3:2|0:3,0:0:0:0:
346,118,211516,6,0,L|350:-13,1,100.800002460938,2|2,3:2|0:3,0:0:0:0:
508,85,211874,1,8,3:2:0:0:
365,205,212052,1,0,0:0:0:0:
291,224,212141,1,0,2:0:0:0:
215,215,212231,2,0,P|156:199|113:149,1,100.800002460938,8|0,3:3|0:0,0:0:0:0:
6,50,212588,2,0,P|66:37|143:63,1,100.800002460938,8|2,3:2|0:3,0:0:0:0:
47,256,212945,6,0,B|68:210|61:143|61:143|75:162|81:183,1,151.200003691406,8|8,3:3|0:3,0:0:0:0:
115,291,213302,2,0,P|56:281|-9:277,1,100.800002460938,8|2,3:2|0:3,0:0:0:0:
206,118,213659,1,0,3:0:0:0:
186,350,213838,1,2,0:3:0:0:
352,192,214016,1,8,3:2:0:0:
186,350,214195,1,8,0:3:0:0:
262,192,214374,5,2,3:2:0:0:
344,306,214552,1,2,0:3:0:0:
479,262,214731,1,8,3:2:0:0:
479,121,214909,1,2,0:3:0:0:
344,77,215088,1,0,3:1:0:0:
262,192,215267,1,2,1:1:0:0:
262,192,215356,1,2,1:1:0:0:
262,192,215446,2,0,L|334:190,1,50.4000012304688,8|0,1:2|0:0,0:0:0:0:
479,262,215624,2,0,L|426:259,1,50.4000012304688,2|0,1:1|0:0,0:0:0:0:
344,377,215802,6,0,B|346:346|346:346|334:310|334:310|334:278,1,100.800002460938,12|2,3:1|0:3,0:0:0:0:
126,272,216159,2,0,L|234:275,1,100.800002460938,8|2,3:2|0:3,0:0:0:0:
32,118,216516,2,0,P|38:173|38:239,1,100.800002460938,8|2,3:3|0:3,0:0:0:0:
13,294,216784,1,8,0:3:0:0:
13,294,216874,1,8,3:2:0:0:
175,366,217052,1,2,0:3:0:0:
293,234,217231,5,2,3:2:0:0:
204,82,217409,1,2,0:3:0:0:
32,118,217588,1,8,3:2:0:0:
13,294,217766,1,0,0:0:0:0:
72,341,217856,1,0,0:0:0:0:
146,348,217945,2,0,P|217:328|254:292,1,100.800002460938,2|0,3:2|0:0,0:0:0:0:
293,234,218213,1,2,0:0:0:0:
293,234,218302,2,0,L|315:289,1,50.4000012304688,8|0,3:2|0:0,0:0:0:0:
388,353,218481,2,0,L|397:290,1,50.4000012304688,2|0,0:3|0:0,0:0:0:0:
499,217,218659,6,0,B|441:240|385:220|385:220|396:204|415:194,1,151.200003691406,8|2,3:0|0:3,0:0:0:0:
406,47,219016,2,0,P|442:87|445:158,1,100.800002460938,8|2,3:2|0:3,0:0:0:0:
410,196,219284,1,0,0:0:0:0:
410,196,219374,1,0,3:0:0:0:
256,160,219552,1,2,0:3:0:0:
346,316,219731,1,8,3:2:0:0:
256,160,219909,1,2,0:3:0:0:
165,316,220088,5,8,3:0:0:0:
402,144,220266,1,2,0:3:0:0:
109,144,220445,1,8,3:2:0:0:
346,316,220624,1,2,0:3:0:0:
256,37,220802,1,2,3:2:0:0:
179,180,220981,1,8,0:3:0:0:
179,180,221070,1,0,0:1:0:0:
179,180,221159,2,0,P|155:209|133:218,1,50.4000012304688,8|0,3:2|0:0,0:0:0:0:
56,270,221338,1,8,2:2:0:0:
56,270,221427,1,2,0:2:0:0:
56,270,221516,6,0,L|216:270,1,151.200003691406,12|2,3:1|0:2,0:0:0:0:
300,353,221874,2,0,B|297:322|297:322|311:287|311:287|307:249,1,100.800002460938,8|0,3:2|0:0,0:0:0:0:
393,114,222231,2,0,P|378:159|392:218,1,100.800002460938,2|0,3:2|0:0,0:0:0:0:
451,261,222499,1,0,0:0:0:0:
451,261,222588,1,8,3:2:0:0:
475,80,222766,1,2,0:3:0:0:
294,115,222946,6,0,B|343:124|343:124|411:110,1,100.800002460938,4|0,3:2|0:0,0:0:0:0:
227,41,223302,2,0,B|178:32|178:32|110:46,1,100.800002460938,8|0,3:2|0:0,0:0:0:0:
179,217,223659,1,2,3:2:0:0:
179,194,223748,1,0,0:0:0:0:
179,171,223837,1,2,0:3:0:0:
179,148,223926,1,0,0:0:0:0:
179,126,224016,1,8,3:2:0:0:
70,108,224195,1,8,0:3:0:0:
2,281,224374,6,0,P|46:251|110:249,1,100.800002460938,4|2,0:1|0:0,0:0:0:0:
169,282,224641,1,2,0:0:0:0:
133,353,224731,2,0,L|66:346,1,50.4000012304688,0|0,1:1|0:0,0:0:0:0:
272,306,224909,2,0,L|335:313,1,50.4000012304688,2|2,0:0|0:0,0:0:0:0:
424,377,225088,2,0,L|415:276,1,100.800002460938,8|2,0:0|0:0,0:0:0:0:
432,192,225355,1,2,0:0:0:0:
499,244,225445,2,0,L|507:320,1,50.4000012304688,0|0,1:1|0:0,0:0:0:0:
348,224,225623,2,0,L|272:217,1,50.4000012304688,2|2,0:0|0:0,0:0:0:0:
432,192,225802,5,4,1:2:0:0:
323,1,225981,1,0,0:0:0:0:
297,219,226159,1,0,1:0:0:0:
447,57,226338,1,0,1:0:0:0:
231,99,226516,1,0,1:0:0:0:
231,99,226606,1,2,0:1:0:0:
231,99,226695,1,2,0:1:0:0:
231,99,226784,1,2,0:1:0:0:
231,99,226874,1,0,1:0:0:0:
297,219,227053,1,2,0:1:0:0:
26,229,227231,5,4,0:1:0:0:
101,206,227409,1,0,0:2:0:0:
177,224,227588,1,0,0:2:0:0:
233,277,227766,1,0,0:0:0:0:
256,352,227945,1,0,0:0:0:0:
250,265,228124,1,0,0:0:0:0:
285,185,228302,1,0,0:0:0:0:
351,130,228481,1,0,0:0:0:0:
435,110,228659,5,0,0:0:0:0:
398,207,228838,1,0,0:0:0:0:
295,202,229016,1,0,0:0:0:0:
266,100,229195,1,0,0:0:0:0:
355,42,229374,1,2,0:2:0:0:
256,192,230802,5,0,0:0:0:0:
256,192,230936,1,0,0:0:0:0:
